💬 Мини-чат

OldGamerвыводить
mafo2Admin, можно вывести, наглядно будет
StarLordAdmin, +
AdminНадпись HDR выводить на обложку?
OldGamerGiggalo, но лучше всего вообще не затрагивайте этот ключ, по умолчанию будет установлено оптимальное значение
OldGamerGiggalo, но если уж очень хочется то пишите --frame-threads 3
OldGamerGiggalo, а зачем его менять?) нужное значение устанавливается автоматически
GiggaloДобрый вечер всем! OldGamer Покажи пожалуйста почему когда пишу в командной строке frame-threads=3 он не меняется. Какой там стоит 13 он его и держит, а ругие установки спокойно меняет?
AdminStarLord, спасибо. Пока сойдет.
StarLordAdmin, ага, вижу
StarLordAdmin, а как должно брать?
AdminStarLord, ты шаришь?
AdminStarLord, у меня сейчас такая, но с точками беда. Доработать бы (https?://([-\w\.]+)+(:\d+)?(/([-\w/_:%]*(\.\w+)*(\?\S+)?)?)?)
AdminStarLord, скрины в bb некорректно берет
StarLordwww, ftp(s), http(s), #, :, &
StarLordAdmin, все мои кейсы покрыла
StarLordAdmin, вот эта хорошая -(?:(?:https?|ftps?):\/\/|\b(?:[a-z\d]+\.))(?:(?:[^\s()<>]+|\((?:[^\s()<>]+|(?:\([^\s()<>]+\)))?\))+(?:\((?:[^\s()<>]+|(?:\(?:[^\s()<>]+\)))?\)|[^\s`!()\[\]{};:'".,<>?«»“”‘’]))?
AdminStarLord, мне бы с обязательным указанием протокола
AdminСообщение удалено (удалил: Admin)
AdminСообщение удалено (удалил: Admin)
  • OldGamer
  • Andrey_alex
  • Godspeed
  • InSpector
  • Херсонец
Отправка сообщений доступна только зарегистрированным/авторизованным пользователям.
Онлайн (за 10 мин.): 5

Поиск / Searching (2018) [Локализованная версия] BDRip 1080p [HEVC] 10 bit от M@kSIMus

HEVC
10 bit
Обложка Поиск / Searching (2018) [Локализованная версия] BDRip 1080p [HEVC] 10 bit от M@kSIMus Год: 2018
Страна: Россия, США
Студия: Bazelevs Entertainment, Bazelevs Production
Жанр: Триллер, Драма, Детектив
Продолжительность: 01:42:22

Режиссер: Аниш Чаганти
В ролях: Джон Чо, Сара Сон, Алекс Джейн Гоу, Меган Лью, Кайя Доун Лау, Мишель Ла, Джозеф Ли, Доминик Хоффман, Сильвия Минасян, Мелисса Дисней

Описание: 16-летняя дочь Дэвида Кима пропадает без следа. Чтобы дать полиции зацепки, отчаявшийся отец взламывает компьютер девочки, и понимает, что он ничего не знает о собственной дочери.


Видео: 1920x1080, 4605 Kbps
Аудио1: AC3, 6 ch, 448 Kbps - РусскийРусский, Дублированный (Лицензия)
Аудио2: AC3, 6 ch, 448 Kbps - АнглийскийАнглийский, Оригинал
Субтитры: Русские

Как за пару секунд удалить ненужные аудиодорожки и субтитры (Внимание! После удаления вы не сможете поддержать раздачу)

Медиаинфо
Общее
Уникальный идентификатор : 171650860267700641388308853970583379321 (0x8122C0D03432C6CA020C09161A475D79)
Полное имя : Поиск (2018) [Локализованная версия] BDRip 1080p [HEVC] 10 bit.mkv
Формат : Matroska
Версия формата : Version 4 / Version 2
Размер файла : 3,94 Гбайт
Продолжительность : 1 ч. 42 м.
Общий поток : 5503 Кбит/сек
Название фильма : Rip_by_M@kSIMus
Дата кодирования : UTC 2019-01-15 01:53:07
Программа кодирования : mkvmerge v29.0.0 ('Like It Or Not') 64-bit
Библиотека кодирования : libebml v1.3.6 + libmatroska v1.4.9
Обложка : Yes
Attachments : cover.jpg

Видео
Идентификатор : 1
Формат : HEVC
Формат/Информация : High Efficiency Video Coding
Профиль формата : Main 10@L4.1@High
Идентификатор кодека : V_MPEGH/ISO/HEVC
Продолжительность : 1 ч. 42 м.
Битрейт : 4605 Кбит/сек
Ширина : 1920 пикселей
Высота : 1080 пикселей
Соотношение сторон : 16:9
Режим частоты кадров : Постоянный
Частота кадров : 23,976 (24000/1001) кадра/сек
Цветовое пространство : YUV
Субдискретизация насыщенности : 4:2:0
Битовая глубина : 10 бит
Бит/(Пиксели*Кадры) : 0.093
Размер потока : 3,29 Гбайт (84%)
Библиотека кодирования : x265 2.9+9-f74003e88622:[Windows][GCC 8.2.0][64 bit] 10bit
Настройки программы : cpuid=1049583 / frame-threads=5 / numa-pools=4 / wpp / no-pmode / no-pme / no-psnr / no-ssim / log-level=3 / input-csp=1 / input-res=1920x1080 / interlace=0 / total-frames=0 / level-idc=41 / high-tier=1 / uhd-bd=0 / ref=4 / allow-non-conformance / no-repeat-headers / annexb / no-aud / no-hrd / info / hash=0 / no-temporal-layers / open-gop / min-keyint=24 / keyint=240 / gop-lookahead=0 / bframes=8 / b-adapt=2 / b-pyramid / bframe-bias=0 / rc-lookahead=40 / lookahead-slices=6 / scenecut=40 / radl=0 / no-intra-refresh / ctu=64 / min-cu-size=8 / no-rect / no-amp / max-tu-size=32 / tu-inter-depth=1 / tu-intra-depth=1 / limit-tu=0 / rdoq-level=0 / dynamic-rd=0.00 / no-ssim-rd / signhide / no-tskip / nr-intra=0 / nr-inter=0 / no-constrained-intra / strong-intra-smoothing / max-merge=2 / limit-refs=3 / no-limit-modes / me=3 / subme=7 / merange=57 / temporal-mvp / weightp / no-weightb / no-analyze-src-pics / deblock=-3:-3 / no-sao / no-sao-non-deblock / rd=3 / no-early-skip / rskip / no-fast-intra / no-tskip-fast / no-cu-lossless / no-b-intra / no-splitrd-skip / rdpenalty=0 / psy-rd=2.00 / psy-rdoq=0.00 / no-rd-refine / no-lossless / cbqpoffs=0 / crqpoffs=0 / rc=crf / crf=18.0 / qcomp=0.60 / qpstep=4 / stats-write=0 / stats-read=0 / vbv-maxrate=50000 / vbv-bufsize=50000 / vbv-init=0.9 / crf-max=0.0 / crf-min=0.0 / ipratio=1.40 / pbratio=1.30 / aq-mode=1 / aq-strength=1.00 / cutree / zone-count=0 / no-strict-cbr / qg-size=32 / no-rc-grain / qpmax=69 / qpmin=0 / no-const-vbv / sar=1 / overscan=0 / videoformat=5 / range=0 / colorprim=1 / transfer=1 / colormatrix=1 / chromaloc=0 / display-window=0 / max-cll=0,0 / min-luma=0 / max-luma=1023 / log2-max-poc-lsb=8 / vui-timing-info / vui-hrd-info / slices=1 / no-opt-qp-pps / no-opt-ref-list-length-pps / no-multi-pass-opt-rps / scenecut-bias=0.05 / no-opt-cu-delta-qp / no-aq-motion / no-hdr / no-hdr-opt / no-dhdr10-opt / no-idr-recovery-sei / analysis-reuse-level=5 / scale-factor=0 / refine-intra=0 / refine-inter=0 / refine-mv=0 / no-limit-sao / ctu-info=0 / no-lowpass-dct / refine-mv-type=0 / copy-pic=1 / max-ausize-factor=1.0 / no-dynamic-refine / no-single-sei
Язык : Russian
Default : Да
Forced : Нет
Цветовой диапазон : Limited
Основные цвета : BT.709
Характеристики трансфера : BT.709
Коэффициенты матрицы : BT.709

Аудио #1
Идентификатор : 2
Формат : AC-3
Формат/Информация : Audio Coding 3
Идентификатор кодека : A_AC3
Продолжительность : 1 ч. 42 м.
Вид битрейта : Постоянный
Битрейт : 448 Кбит/сек
Каналы : 6 каналов
Расположение каналов : Front: L C R, Side: L R, LFE
Частота : 48,0 КГц
Частота кадров : 31,250 кадров/сек (1536 SPF)
Битовая глубина : 16 бит
Метод сжатия : С потерями
Размер потока : 328 Мбайт (8%)
Заголовок : Дубляж
Язык : Russian
ServiceKind/String : Complete Main
Default : Да
Forced : Нет

Аудио #2
Идентификатор : 3
Формат : AC-3
Формат/Информация : Audio Coding 3
Идентификатор кодека : A_AC3
Продолжительность : 1 ч. 42 м.
Вид битрейта : Постоянный
Битрейт : 448 Кбит/сек
Каналы : 6 каналов
Расположение каналов : Front: L C R, Side: L R, LFE
Частота : 48,0 КГц
Частота кадров : 31,250 кадров/сек (1536 SPF)
Битовая глубина : 16 бит
Метод сжатия : С потерями
Размер потока : 328 Мбайт (8%)
Заголовок : Оригинал
Язык : English
ServiceKind/String : Complete Main
Default : Нет
Forced : Нет

Текст
Идентификатор : 4
Формат : UTF-8
Идентификатор кодека : S_TEXT/UTF8
Идентификатор кодека/Информация : UTF-8 Plain Text
Продолжительность : 1 ч. 36 м.
Битрейт : 78 бит/сек
ElementCount : 984
Размер потока : 55,8 Кбайт (0%)
Заголовок : Full
Язык : Russian
Default : Нет
Forced : Нет

Меню
00:00:00.000 : en:Chapter 01
00:06:25.385 : en:Chapter 02
00:12:41.635 : en:Chapter 03
00:20:13.545 : en:Chapter 04
00:23:12.849 : en:Chapter 05
00:31:01.651 : en:Chapter 06
00:35:49.647 : en:Chapter 07
00:39:39.460 : en:Chapter 08
00:47:27.845 : en:Chapter 09
00:53:31.708 : en:Chapter 10
00:59:16.928 : en:Chapter 11
01:05:29.216 : en:Chapter 12
01:13:07.257 : en:Chapter 13
01:21:14.619 : en:Chapter 14
01:26:07.203 : en:Chapter 15
01:34:32.792 : en:Chapter 16
Загрузка...Cкриншот1 Поиск / Searching (2018) [Локализованная версия] BDRip 1080p [HEVC] 10 bit от M@kSIMusЗагрузка...Cкриншот2 Поиск / Searching (2018) [Локализованная версия] BDRip 1080p [HEVC] 10 bit от M@kSIMusЗагрузка...Cкриншот3 Поиск / Searching (2018) [Локализованная версия] BDRip 1080p [HEVC] 10 bit от M@kSIMusЗагрузка...Cкриншот4 Поиск / Searching (2018) [Локализованная версия] BDRip 1080p [HEVC] 10 bit от M@kSIMus
Сэмпл Торрент🧲 Магнет

Рейтинги КП и IMDB, кнопки "Позвать в чате" и "Спасибо", а также мультитрекерная статистика сидов и пиров доступны только зарегистрированным/авторизованным пользователям!

Файлы: 1
  • Поиск (2018) [Локализованная версия] BDRip 1080p [HEVC] 10 bit.mkv   3.94 ГБ
Поблагодарили: 24
375509, aacg, Algabas, antaures, Boogerman, brukvalub, bs158250, controller70, F2002, FijiMAX, Fiore, gelOru, hankwhat, kate kateva, krokodill777, MIGRANT, nazarvlad, NoMaD, NRK888, ostfamily, sakurarec, sergeich, VardO, vlad55
Admin
41021003.94 ГБ

Добавление нового комментария

Добавление комментариев доступно только зарегистрированным/авторизованным пользователям.
Аватар не указан
  vash1  
круто! все скрыны читаемы. колоссальная работа проделана! по сути пересняли фильм, так как он - сплошной скрин на английском
Аватар Adventurer
  Adventurer  
На удивление BAZELEVS может и не распиливать бабло и штамповать одни ёлки, а делать отлично сделанные детективы. Я ещё не видел -Убрать из друзей-, но по мне у такого жанра "кино снятого с экрана телефона или компьютера" есть будущее. Фильм было не скучно смотреть, да и реклама и не сильно раздражала. Всё же её тут очень мало в сравнении с российскими фильмами, где прямо пихают зрителю рекламу яндекса и танков. Тут же реклама очень уместно вставлена.
Аватар Adventurer
  Adventurer  
36 минута просто ор, умеют же в юмор)))))
Аватар Cthulhu
  Cthulhu  
Фильм неожиданно зацепил. Большой плюс русская локализация. Без нее смотреть этот фильм очень неудобно.