💬 Мини-чат

OldGamerнет
Giggaloнет ли у кого в планах "Давайте потанцуем" 2004
GiggaloСообщение удалено (удалил: Giggalo)
StarLordOldGamer, как дела?)
StarLordOldGamer, ура, вернулся 😄
OldGamerRezident, можете скачать этот фильм от другого релизёра, там невелика разница, а раздающие точно есть
OldGamerGiggalo, https://tsya.ru/mnemonic.html
NoMaDСообщение удалено (удалил: NoMaD)
NoMaDСообщение удалено (удалил: NoMaD)
GiggaloСообщение удалено (удалил: Giggalo)
GiggaloСообщение удалено (удалил: Giggalo)
Spartanec1308Был днём
StarLordGiggalo, наверное отрубало беднягу, целый день его нету 😅
GiggaloСообщение удалено (удалил: Giggalo)
OldGamerДоброе. Работы много, некогда на перинах валяться.
GiggaloСообщение удалено (удалил: Giggalo)
GiggaloСообщение удалено (удалил: Giggalo)
  • OldGamer
  • StarLord
  • ancestor87
  • Andrey_alex
  • MIGRANT
Отправка сообщений доступна только зарегистрированным/авторизованным пользователям.
Онлайн (за 10 мин.): 5

Ромео должен умереть / Romeo Must Die (2000) BDRip 1080p [HEVC] 8 bit от Cthulhu

HEVC
8 bit
Обложка Ромео должен умереть / Romeo Must Die (2000) BDRip 1080p [HEVC] 8 bit от Cthulhu Год: 2000
Страна: США
Студия: Silver Picture, Warner Bros. Pictures Co.
Жанр: Боевик, Триллер, Криминал
Продолжительность: 01:55:04

Режиссер: Анджей Бартковяк
В ролях: Джет Ли, Алия, Исайя Вашингтон, Расселл Вонг, Делрой Линдо, Д.Б. Вудсайд, Генри О, Джонкит Ли, Эдоардо Баллерини, Энтони Андерсон

Описание: Между китайской мафией и афроамериканской бандой идёт война. Однажды убивают младшего сына главы китайской мафии. Его старший брат Хан решает найти убийцу, но на своём пути он встречает обворожительную Триш О’Дэй. Несмотря на то, что их семьи ведут жестокую войну за передел участков в Окленде, опасности объединяют влюблённых.


Видео: 1920x800, 7790 Kbps
Аудио1: AC3, 6 ch, 384 Kbps - РусскийРусский, Дублированный (Мосфильм-Мастер)
Аудио2: AC3, 6 ch, 448 Kbps - РусскийРусский, Многоголосый (d2lab)
Аудио3: AC3, 2 ch, 192 Kbps - РусскийРусский, Многоголосый (НТВ+)
Аудио4: AC3, 6 ch, 640 Kbps - РусскийРусский, Одноголосый (Гаврилов)
Аудио5: AC3, 6 ch, 640 Kbps - РусскийРусский, Одноголосый (Чадов)
Аудио6: AC3, 2 ch, 192 Kbps - РусскийРусский, Одноголосый (Сонькин)
Аудио7: AC3, 6 ch, 640 Kbps - АнглийскийАнглийский, Оригинал
Субтитры: Русские, английские

Как за пару секунд удалить ненужные аудиодорожки и субтитры (Внимание! После удаления вы не сможете поддержать раздачу)

Медиаинфо
x265 [info]: frame I: 1979, Avg QP:16.74 kb/s: 22090.24
x265 [info]: frame P: 35548, Avg QP:18.46 kb/s: 15338.09
x265 [info]: frame B: 127983, Avg QP:20.44 kb/s: 5470.94
x265 [info]: consecutive B-frames: 10.2% 9.2% 10.7% 26.1% 9.7% 21.9% 4.9% 5.3% 1.1% 0.6% 0.1% 0.1%

General
Unique ID : 46208588588595938570778795810506281096 (0x22C373505E25A20BE3EC34EB53B21088)
Complete name : S:HEVC2Romeo Must Die (2000) BDRip-HEVC 1080p - KORSAR.mkv
Format : Matroska
Format version : Version 4 / Version 2
File size : 8.78 GiB
Duration : 1 h 55 min
Overall bit rate : 10.9 Mb/s
Movie name : Romeo Must Die (2000)_rip_by_Cthulhu
Encoded date : UTC 2019-01-17 22:49:59
Writing application : mkvmerge v28.2.0 ('The Awakening') 64-bit
Writing library : libebml v1.3.6 + libmatroska v1.4.9
Cover : Yes
Attachments : cover.jpg

Video
ID : 1
Format : HEVC
Format/Info : High Efficiency Video Coding
Format profile : Main@L4.1@High
Codec ID : V_MPEGH/ISO/HEVC
Duration : 1 h 55 min
Bit rate : 7 790 kb/s
Width : 1 920 pixels
Height : 800 pixels
Display aspect ratio : 2.40:1
Frame rate mode : Constant
Frame rate : 23.976 (24000/1001) FPS
Color space : YUV
Chroma subsampling : 4:2:0
Bit depth : 8 bits
Bits/(Pixel*Frame) : 0.212
Stream size : 6.26 GiB (71%)
Writing library : x265 2.9+2-7e978ed93d60:[Windows][MSVC 1915][64 bit] 8bit+10bit+12bit
Encoding settings : cpuid=1176575 / frame-threads=4 / numa-pools=16 / wpp / no-pmode / no-pme / no-psnr / no-ssim / log-level=2 / input-csp=1 / input-res=1920x800 / interlace=0 / total-frames=165510 / level-idc=41 / high-tier=1 / uhd-bd=0 / ref=5 / no-allow-non-conformance / no-repeat-headers / annexb / no-aud / no-hrd / info / hash=0 / no-temporal-layers / open-gop / min-keyint=23 / keyint=240 / gop-lookahead=0 / bframes=11 / b-adapt=2 / b-pyramid / bframe-bias=0 / rc-lookahead=60 / lookahead-slices=4 / scenecut=40 / radl=0 / no-intra-refresh / ctu=32 / min-cu-size=8 / rect / amp / max-tu-size=32 / tu-inter-depth=4 / tu-intra-depth=4 / limit-tu=1 / rdoq-level=2 / dynamic-rd=0.00 / no-ssim-rd / signhide / no-tskip / nr-intra=0 / nr-inter=0 / no-constrained-intra / no-strong-intra-smoothing / max-merge=5 / limit-refs=2 / limit-modes / me=3 / subme=7 / merange=57 / temporal-mvp / weightp / weightb / no-analyze-src-pics / deblock=-3:-3 / no-sao / no-sao-non-deblock / rd=6 / no-early-skip / rskip / no-fast-intra / no-tskip-fast / no-cu-lossless / b-intra / no-splitrd-skip / rdpenalty=0 / psy-rd=2.00 / psy-rdoq=1.00 / no-rd-refine / no-lossless / cbqpoffs=0 / crqpoffs=0 / rc=crf / crf=19.0 / qcomp=0.70 / qpstep=4 / stats-write=0 / stats-read=0 / vbv-maxrate=50000 / vbv-bufsize=50000 / vbv-init=0.9 / crf-max=0.0 / crf-min=0.0 / ipratio=1.40 / pbratio=1.30 / aq-mode=2 / aq-strength=0.90 / no-cutree / zone-count=0 / no-strict-cbr / qg-size=32 / no-rc-grain / qpmax=69 / qpmin=0 / no-const-vbv / sar=1 / overscan=0 / videoformat=5 / range=0 / colorprim=1 / transfer=1 / colormatrix=1 / chromaloc=0 / display-window=0 / max-cll=0,0 / min-luma=0 / max-luma=255 / log2-max-poc-lsb=8 / vui-timing-info / vui-hrd-info / slices=1 / no-opt-qp-pps / no-opt-ref-list-length-pps / no-multi-pass-opt-rps / scenecut-bias=0.05 / no-opt-cu-delta-qp / aq-motion / no-hdr / no-hdr-opt / no-dhdr10-opt / no-idr-recovery-sei / analysis-reuse-level=5 / scale-factor=0 / refine-intra=0 / refine-inter=0 / refine-mv=0 / no-limit-sao / ctu-info=0 / no-lowpass-dct / refine-mv-type=0 / copy-pic=1 / max-ausize-factor=1.0 / no-dynamic-refine / no-single-sei
Language : English
Default : Yes
Forced : No
Color range : Limited
Color primaries : BT.709
Transfer characteristics : BT.709
Matrix coefficients : BT.709

Audio #1
ID : 2
Format : AC-3
Format/Info : Audio Coding 3
Mode extension : CM (complete main)
Format settings, Endianness : Big
Codec ID : A_AC3
Duration : 1 h 55 min
Bit rate mode : Constant
Bit rate : 384 kb/s
Channel(s) : 6 channels
Channel positions : Front: L C R, Side: L R, LFE
Sampling rate : 48.0 kHz
Frame rate : 31.250 FPS (1536 spf)
Compression mode : Lossy
Stream size : 316 MiB (4%)
Title : DUB
Language : Russian
Default : Yes
Forced : No

Audio #2
ID : 3
Format : AC-3
Format/Info : Audio Coding 3
Mode extension : CM (complete main)
Format settings, Endianness : Big
Codec ID : A_AC3
Duration : 1 h 55 min
Bit rate mode : Constant
Bit rate : 448 kb/s
Channel(s) : 6 channels
Channel positions : Front: L C R, Side: L R, LFE
Sampling rate : 48.0 kHz
Frame rate : 31.250 FPS (1536 spf)
Compression mode : Lossy
Stream size : 369 MiB (4%)
Title : MVO (d2lab)
Language : Russian
Default : No
Forced : No

Audio #3
ID : 4
Format : AC-3
Format/Info : Audio Coding 3
Mode extension : CM (complete main)
Format settings, Endianness : Big
Codec ID : A_AC3
Duration : 1 h 55 min
Bit rate mode : Constant
Bit rate : 192 kb/s
Channel(s) : 2 channels
Channel positions : Front: L R
Sampling rate : 48.0 kHz
Frame rate : 31.250 FPS (1536 spf)
Compression mode : Lossy
Stream size : 158 MiB (2%)
Title : MVO (НТВ+)
Language : Russian
Default : No
Forced : No

Audio #4
ID : 5
Format : AC-3
Format/Info : Audio Coding 3
Mode extension : CM (complete main)
Format settings, Endianness : Big
Codec ID : A_AC3
Duration : 1 h 55 min
Bit rate mode : Constant
Bit rate : 640 kb/s
Channel(s) : 6 channels
Channel positions : Front: L C R, Side: L R, LFE
Sampling rate : 48.0 kHz
Frame rate : 31.250 FPS (1536 spf)
Compression mode : Lossy
Stream size : 527 MiB (6%)
Title : AVO (Гаврилов)
Language : Russian
Default : No
Forced : No

Audio #5
ID : 6
Format : AC-3
Format/Info : Audio Coding 3
Mode extension : CM (complete main)
Format settings, Endianness : Big
Codec ID : A_AC3
Duration : 1 h 55 min
Bit rate mode : Constant
Bit rate : 640 kb/s
Channel(s) : 6 channels
Channel positions : Front: L C R, Side: L R, LFE
Sampling rate : 48.0 kHz
Frame rate : 31.250 FPS (1536 spf)
Compression mode : Lossy
Stream size : 527 MiB (6%)
Title : AVO (Чадов)
Language : Russian
Default : No
Forced : No

Audio #6
ID : 7
Format : AC-3
Format/Info : Audio Coding 3
Mode extension : CM (complete main)
Format settings, Endianness : Big
Codec ID : A_AC3
Duration : 1 h 55 min
Bit rate mode : Constant
Bit rate : 192 kb/s
Channel(s) : 2 channels
Channel positions : Front: L R
Sampling rate : 48.0 kHz
Frame rate : 31.250 FPS (1536 spf)
Compression mode : Lossy
Stream size : 158 MiB (2%)
Title : AVO (Сонькин)
Language : Russian
Default : No
Forced : No

Audio #7
ID : 8
Format : AC-3
Format/Info : Audio Coding 3
Mode extension : CM (complete main)
Format settings, Endianness : Big
Codec ID : A_AC3
Duration : 1 h 55 min
Bit rate mode : Constant
Bit rate : 640 kb/s
Channel(s) : 6 channels
Channel positions : Front: L C R, Side: L R, LFE
Sampling rate : 48.0 kHz
Frame rate : 31.250 FPS (1536 spf)
Compression mode : Lossy
Stream size : 527 MiB (6%)
Language : English
Default : No
Forced : No

Text #1
ID : 9
Format : UTF-8
Codec ID : S_TEXT/UTF8
Codec ID/Info : UTF-8 Plain Text
Duration : 1 h 54 min
Bit rate : 57 b/s
Count of elements : 1021
Stream size : 47.7 KiB (0%)
Language : Russian
Default : No
Forced : No

Text #2
ID : 10
Format : UTF-8
Codec ID : S_TEXT/UTF8
Codec ID/Info : UTF-8 Plain Text
Duration : 1 h 46 min
Bit rate : 37 b/s
Count of elements : 942
Stream size : 29.2 KiB (0%)
Language : English
Default : No
Forced : No

Menu
00:00:00.000 : en:
00:02:38.365 : en:
00:07:15.559 : en:
00:11:07.124 : en:
00:13:12.625 : en:
00:15:02.026 : en:
00:16:57.683 : en:
00:18:46.291 : en:
00:21:11.019 : en:
00:22:36.355 : en:
00:27:25.226 : en:
00:29:09.289 : en:
00:30:58.314 : en:
00:33:52.321 : en:
00:36:12.085 : en:
00:39:40.210 : en:
00:42:30.506 : en:
00:44:34.380 : en:
00:47:22.297 : en:
00:48:59.186 : en:
00:50:47.460 : en:
00:54:46.241 : en:
00:56:32.680 : en:
01:00:40.595 : en:
01:03:14.247 : en:
01:05:33.888 : en:
01:09:48.559 : en:
01:12:52.533 : en:
01:14:24.084 : en:
01:17:53.502 : en:
01:21:09.281 : en:
01:25:29.290 : en:
01:29:56.599 : en:
01:34:36.712 : en:
01:37:07.404 : en:
01:40:55.215 : en:
01:43:13.979 : en:
01:47:47.419 : en:
01:49:59.634 : en:
01:55:02.895 : en:
Загрузка...Cкриншот1 Ромео должен умереть / Romeo Must Die (2000) BDRip 1080p [HEVC] 8 bit от CthulhuЗагрузка...Cкриншот2 Ромео должен умереть / Romeo Must Die (2000) BDRip 1080p [HEVC] 8 bit от CthulhuЗагрузка...Cкриншот3 Ромео должен умереть / Romeo Must Die (2000) BDRip 1080p [HEVC] 8 bit от CthulhuЗагрузка...Cкриншот4 Ромео должен умереть / Romeo Must Die (2000) BDRip 1080p [HEVC] 8 bit от Cthulhu
Сэмпл Торрент🧲 Магнет

Рейтинги КП и IMDB, кнопки "Позвать в чате" и "Спасибо", а также мультитрекерная статистика доступны только зарегистрированным/авторизованным пользователям!

Файлы: 1
  • Romeo Must Die (2000) BDRip-HEVC 1080p - KORSAR.mkv   8.78 ГБ
Поблагодарили: 10
375509, Brooklyn, brukvalub, bs158250, dimm, Dmitrrry, inoy, MIGRANT, NoMaD, Nuclear70
Cthulhu
092008.78 ГБ

Добавление нового комментария

Добавление комментариев доступно только зарегистрированным/авторизованным пользователям.