💬 Мини-чат

OldGamerну и акустические излучатели собрать хорошие, типа Penaudio Legato Signature или похожие, тут надо тщательно собирать систему для прослушивания
OldGamerне помешает ещё посетить отоларинголога для промывки слухового аппарата от серных пробок специализированным сертифицированным раствором, это (промывка) имеет немаловажное значение
OldGamer😆🤐🤐
OldGamerи всё же лучше hi-end, с подключением кабелями типа Analysis-Plus Oval 9 из бескислородной меди и с их предварительным прогревом системой типа Nordost Vidar, иначе всё теряет смысл
XuMuKManson_Fan, не надо hi-end акустики, достаточно hi-fi. "Кристольность" на высоких частотах другая, в DTS кажется более "живым" звук. Но самая большая разница, когда сравниваешь АС3 с каким-нибудь DTS-HD MA
IRITРаздайте, пожалуйста, Байки из склепа: Демон ночи / Tales from the Crypt: Demon Knight (1995) BDRip 1080p [HEVC] 10 bit от druidblack
OldGamerManson_Fan, у меня нет hi-end акустики, поэтому не слушал, не знаю, может и есть разница. За других говорить не буду. В любом случае, продвинутым слухачам будет несложно найти, скачать и прикрепить дорожки требуемого им качества.
mafo2Manson_Fan, не все телевизоры поддерживают DTS. например, мой через встроенный плеер его не воспроизводит. можно конечно смотреть через ПК, но порой хочется и через ТВ.
Manson_FanOldGamer, "Скажите зачем релизёры звук DTS 768 kbps переделывают в AC3 640 kbps" Интересно, а разницу в качестве в фильмах кому то удавалось услышать?😕 мне вот нет
Manson_Fanникто еще не сравнивал HEVC и новый AV1?
IRITРаздайте, пожалуйста, Маньяк-полицейский 3: Знак молчания / Maniac Cop 3: Badge of Silence (1993) BDRip 1080p [HEVC] 10 bit от HANNIBAL
Spartanec1308С Днём Великой Победы!
BrooklynВсех с праздником! С Днем Великой Победы! Ура-Ура-Урааааааа
BrooklynADVOKAT69, Спасибо большое!
ADVOKAT69Операция «Ы» и другие приключения Шурика (1965) раздаю
mafo2С Днем Победы!
joker63Поздравляю всех с Днем Победы!
ADVOKAT69Admin, Спасибо деду за победу!Тебе за поздравление!
AdminADVOKAT69, Дедам спасибо.
ADVOKAT69Admin, спасибо большое!✋
  • OldGamer
  • StarLord
Отправка сообщений доступна только зарегистрированным/авторизованным пользователям.
Онлайн (за 10 мин.): 2

Самурай / Le samouraï (1967) BDRip 1080p [HEVC] 10 bit от Joker63

HEVC
10 bit
Обложка Самурай / Le samouraï (1967) BDRip 1080p [HEVC] 10 bit от Joker63 Год: 1967
Страна: Франция, Италия
Жанр: Триллер, Драма, Криминал, Детектив
Продолжительность: 01:45:27

Режиссер: Жан-Пьер Мельвиль
В ролях: Ален Делон, Натали Делон, Франсуа Перье, Кати Розье, Жак Леруа, Мишель Буарон, Робер Фавар, Жан-Пьер Позье, Катрин Журдан, Роже Фраде, Карло Нелл, Робер Рондо, Андре Сальге, Андре Торан, Жак Дешам, Жорж Казати, Жак Леонар, Пьер Водье, Морис Магалон, Гастон Мёнье, Жан Голд, Жорж Билли, Ари Арикарди, Ги Боннафу, Каталано, Карл Лекнер, Мария Манева

Описание: Жеф Кастелло — наемный убийца. Умный, опытный и хладнокровный профессионал, Кастелло считается лучшим в своем деле, поэтому, получив очередной контракт на устранение одного очень влиятельного человека, Жеф выполняет заказ без особых трудностей. Убийца не оставляет следов и даже устраивает себе поистине безукоризненное алиби. Однако, неожиданно находится свидетель, который видел киллера в лицо. Комиссар полиции организует беспощадную охоту на убийцу. И заказчики преступления тоже становятся на путь преследования Кастелло. Теперь он как раненый тигр в джунглях вынужден защищаться.


Видео: HEVC/H.265, 1920x1036, 6946 Kbps
Аудио1: AC3, 1 ch, 128 Kbps - РусскийРусский, Двухголосый закадровый (Film Prestige)
Аудио2: AC3, 2 ch, 192 Kbps - РусскийРусский, Двухголосый закадровый (Профессиональный)
Аудио3: AC3, 1 ch, 128 Kbps - ФранцузскийФранцузский
Субтитры: Русские (Film Prestige)

Как за пару секунд удалить ненужные аудиодорожки и субтитры (Внимание! После удаления вы не сможете поддержать раздачу)

Медиаинфо
Общее
Уникальный идентификатор : 208423046566185276168731666011047920277 (0x9CCCD192EE11591BB06DAE95F1DD0295)
Полное имя : F:\Ален Делон\Самурай Le Samourai (1967)BDRip 1080p(HEVC)10bit.mkv
Формат : Matroska
Версия формата : Version 4 / Version 2
Размер файла : 5,45 Гбайт
Продолжительность : 1 ч. 45 м.
Общий поток : 7396 Кбит/сек
Название фильма : Рип от Joker6346 для HEVC - CLUB
Дата кодирования : UTC 2018-07-17 19:54:29
Программа кодирования : mkvmerge v24.0.0 ('Beyond The Pale') 64-bit
Библиотека кодирования : libebml v1.3.6 + libmatroska v1.4.9
Обложка : Yes
Attachments : cover.jpg

Видео
Идентификатор : 1
Формат : HEVC
Формат/Информация : High Efficiency Video Coding
Профиль формата : Main 10@L5.1@Main
Идентификатор кодека : V_MPEGH/ISO/HEVC
Продолжительность : 1 ч. 45 м.
Битрейт : 6946 Кбит/сек
Ширина : 1920 пикселей
Высота : 1036 пикселей
Соотношение сторон : 1,85:1
Режим частоты кадров : Постоянный
Частота кадров : 23,976 (24000/1001) кадра/сек
Цветовое пространство : YUV
Субдискретизация насыщенности : 4:2:0
Битовая глубина : 10 бит
Бит/(Пиксели*Кадры) : 0.146
Размер потока : 5,12 Гбайт (94%)
Библиотека кодирования : x265 2.8+19-bcdc610cf5f0:[Windows][GCC 7.3.0][64 bit] 10bit
Настройки программы : cpuid=1049583 / frame-threads=5 / numa-pools=4 / wpp / no-pmode / no-pme / no-psnr / no-ssim / log-level=3 / input-csp=1 / input-res=1920x1036 / interlace=0 / total-frames=0 / level-idc=51 / high-tier=1 / uhd-bd=0 / ref=5 / allow-non-conformance / no-repeat-headers / annexb / no-aud / no-hrd / info / hash=0 / no-temporal-layers / open-gop / min-keyint=24 / keyint=240 / gop-lookahead=0 / bframes=4 / b-adapt=2 / b-pyramid / bframe-bias=0 / rc-lookahead=20 / lookahead-slices=6 / scenecut=40 / radl=0 / no-intra-refresh / ctu=64 / min-cu-size=8 / no-rect / no-amp / max-tu-size=32 / tu-inter-depth=1 / tu-intra-depth=1 / limit-tu=0 / rdoq-level=0 / dynamic-rd=0.00 / no-ssim-rd / signhide / no-tskip / nr-intra=0 / nr-inter=0 / no-constrained-intra / strong-intra-smoothing / max-merge=2 / limit-refs=3 / no-limit-modes / me=1 / subme=2 / merange=57 / temporal-mvp / weightp / no-weightb / no-analyze-src-pics / deblock=-2:-2 / sao / no-sao-non-deblock / rd=3 / no-early-skip / rskip / no-fast-intra / no-tskip-fast / no-cu-lossless / no-b-intra / no-splitrd-skip / rdpenalty=0 / psy-rd=2.00 / psy-rdoq=0.00 / no-rd-refine / no-lossless / cbqpoffs=0 / crqpoffs=0 / rc=abr / bitrate=7000 / qcomp=0.60 / qpstep=4 / stats-write=0 / stats-read=0 / ipratio=1.40 / pbratio=1.30 / aq-mode=1 / aq-strength=1.00 / cutree / zone-count=0 / no-strict-cbr / qg-size=32 / no-rc-grain / qpmax=69 / qpmin=0 / no-const-vbv / sar=1 / overscan=0 / videoformat=5 / range=0 / colorprim=2 / transfer=2 / colormatrix=2 / chromaloc=0 / display-window=0 / max-cll=0,0 / min-luma=0 / max-luma=1023 / log2-max-poc-lsb=8 / vui-timing-info / vui-hrd-info / slices=1 / no-opt-qp-pps / no-opt-ref-list-length-pps / no-multi-pass-opt-rps / scenecut-bias=0.05 / no-opt-cu-delta-qp / no-aq-motion / no-hdr / no-hdr-opt / no-dhdr10-opt / no-idr-recovery-sei / analysis-reuse-level=5 / scale-factor=0 / refine-intra=0 / refine-inter=0 / refine-mv=0 / no-limit-sao / ctu-info=0 / no-lowpass-dct / refine-mv-type=0 / copy-pic=1 / max-ausize-factor=1.0 / no-dynamic-refine / no-single-sei
Язык : French
Default : Да
Forced : Нет

Аудио #1
Идентификатор : 2
Формат : AC-3
Формат/Информация : Audio Coding 3
Идентификатор кодека : A_AC3
Продолжительность : 1 ч. 45 м.
Вид битрейта : Постоянный
Битрейт : 128 Кбит/сек
Каналы : 1 канал
Расположение каналов : Front: C
Частота : 48,0 КГц
Частота кадров : 31,250 кадров/сек (1536 SPF)
Битовая глубина : 16 бит
Метод сжатия : С потерями
Размер потока : 96,5 Мбайт (2%)
Заголовок : DVO
Язык : Russian
ServiceKind/String : Complete Main
Default : Да
Forced : Нет

Аудио #2
Идентификатор : 3
Формат : AC-3
Формат/Информация : Audio Coding 3
Идентификатор кодека : A_AC3
Продолжительность : 1 ч. 45 м.
Вид битрейта : Постоянный
Битрейт : 192 Кбит/сек
Каналы : 2 канала
Расположение каналов : Front: L R
Частота : 48,0 КГц
Частота кадров : 31,250 кадров/сек (1536 SPF)
Битовая глубина : 16 бит
Метод сжатия : С потерями
Размер потока : 145 Мбайт (3%)
Заголовок : DVO
Язык : Russian
ServiceKind/String : Complete Main
Default : Нет
Forced : Нет

Аудио #3
Идентификатор : 4
Формат : AC-3
Формат/Информация : Audio Coding 3
Идентификатор кодека : A_AC3
Продолжительность : 1 ч. 45 м.
Вид битрейта : Постоянный
Битрейт : 128 Кбит/сек
Каналы : 1 канал
Расположение каналов : Front: C
Частота : 48,0 КГц
Частота кадров : 31,250 кадров/сек (1536 SPF)
Битовая глубина : 16 бит
Метод сжатия : С потерями
Размер потока : 96,5 Мбайт (2%)
Заголовок : original
Язык : French
ServiceKind/String : Complete Main
Default : Нет
Forced : Нет

Текст
Идентификатор : 5
Формат : UTF-8
Идентификатор кодека : S_TEXT/UTF8
Идентификатор кодека/Информация : UTF-8 Plain Text
Продолжительность : 1 ч. 42 м.
Битрейт : 40 бит/сек
ElementCount : 582
Размер потока : 30,4 Кбайт (0%)
Заголовок : srt
Язык : Russian
Default : Да
Forced : Нет

Меню
00:00:00.000 : :1. Samurai
00:04:24.221 : :2. Car
00:06:23.925 : :3. Garage
00:09:07.130 : :4. Alibi
00:12:27.288 : :5. Contract
00:19:31.587 : :6. Scene of the crime
00:22:02.238 : :7. Lineup
00:27:23.559 : :8. Investigation
00:35:56.154 : :9. "Oui ou non?"
00:39:56.019 : :10. 1, rue Lord Byron
00:43:53.297 : :11. Rendezvous
00:46:57.356 : :12. Wounded
00:49:32.344 : :13. Strategy
00:51:53.485 : :14. Sunday, 10:00 P.M.
00:56:20.752 : :15. Magnetophon 300
01:03:38.398 : :16. Valérie
01:07:04.354
Загрузка...Cкриншот1 Самурай / Le samouraï (1967) BDRip 1080p [HEVC] 10 bit от Joker63Загрузка...Cкриншот2 Самурай / Le samouraï (1967) BDRip 1080p [HEVC] 10 bit от Joker63Загрузка...Cкриншот3 Самурай / Le samouraï (1967) BDRip 1080p [HEVC] 10 bit от Joker63Загрузка...Cкриншот4 Самурай / Le samouraï (1967) BDRip 1080p [HEVC] 10 bit от Joker63
Сэмпл Торрент🧲 Магнет

Рейтинги КП и IMDB, кнопки "Позвать в чате" и "Спасибо", а также мультитрекерная статистика доступны только зарегистрированным/авторизованным пользователям!

Файлы: 1
  • Самурай Le Samourai (1967)BDRip 1080p(HEVC)10bit.mkv   5.45 ГБ
Поблагодарили: 1
brukvalub
joker63
137005.45 ГБ

Добавление нового комментария

Добавление комментариев доступно только зарегистрированным/авторизованным пользователям.
Аватар не указан
  brukvalub  
Боже мой! Классика французского кино, ее и в обычном качестве не так просто найти среди всякого современного голливудского мусора, а здесь она лежит, да еще в шикарном качестве! Как же это здорово!😃