💬 Мини-чат

Убедительная просьба не обсуждать тут политику.
AdminXuMuK, привет. По тихоньку. Начинает появляться немного свободного времени. В этом месяце вернусь к переделке сайта, которым несколько месяцев не занимался. Надо будет до весны закончить и обновиться.
SpartanecXuMuK, Привет Паш!
XuMuKSpartanec, Лёха, здарова, братишка
OldGamerXuMuK, https://forum.blu-ray.com/showthread.php?t=348907
XuMuKOldGamer, блин, исходник в bdvm. ещё и переупаковывать
XuMuKOldGamer, мне выдаёт только 2013 год релиза диска
OldGamerрано или поздно попадётся, там и посмотрим
OldGamerXuMuK, с форума blu-ray.com переходил по ссылкам на французские обзоры, там коллекционное издание выпустили
XuMuKOldGamer, хотя не факт, походу самопал
XuMuKOldGamer, на caps-a-holic нет такого трансфера. Но видимо есть на блютопии
OldGamerпрошлогодний французский трансфер хвалят по картинке, но в сети не встретился
OldGamerXuMuK, https://rutracker.org/forum/viewtopic.php?t=4986124
XuMuKOldGamer, ссылку хоть кинь
OldGamerXuMuK, я не сохранял исходник
XuMuKOldGamer, сэмпл-то дашь?
  • serg_98
Отправка сообщений доступна только зарегистрированным/авторизованным пользователям.
Онлайн (за 10 мин.): 1

Дрянные девчонки / Mean Girls (2004) BDRip 1080p [HEVC] 10 bit от HANNIBAL

HEVC
10 bit
Обложка Дрянные девчонки / Mean Girls (2004) BDRip 1080p [HEVC] 10 bit от HANNIBAL Год: 2004
Страна: США, Канада
Студия: Paramount Pictures, M.G. Films, Broadway Video
Жанр: Комедия
Продолжительность: 01:36:53

Режиссер: Марк Уотерс
В ролях: Линдси Лохан, Рэйчел МакАдамс, Лиззи Каплан, Лейси Чаберт, Аманда Сайфред, Тина Фей, Тим Медоуз, Джонатан Беннетт, Дэниэл Фрэнзиси, Эми Полер

Описание: Проведя все свое детство в Африке со своими предками-зоологами, Кэйди Хэрон решила, что знает все про правило «выживает сильнейший». Но закон джунглей полностью пересматривается, когда домашняя 15-летняя девушка в первый раз попадает в обычную школу и влюбляется в бывшего парня самой подлой девчонки в школе…


Видео: 1920x1080, 9238 Kbps
Аудио1: AC3, 6 ch, 384 Kbps - РусскийРусский, Дублированный
Аудио2: AC3, 6 ch, 448 Kbps - АнглийскийАнглийский, Оригинал
Субтитры: Русские, английские

Как за пару секунд удалить ненужные аудиодорожки и субтитры (Внимание! После удаления вы не сможете поддержать раздачу)

Медиаинфо
General
Unique ID : 68479439861723219510021813791667988855 (0x3384A90EB18C6EF95730C653CEAB2977)
Complete name : F:\[HEVC]\Mean Girls (2004) BDRip 1080p [HEVC] 10bit.mkv
Format : Matroska
Format version : Version 4
File size : 6.95 GiB
Duration : 1 h 36 min
Overall bit rate : 10.3 Mb/s
Movie name : Дрянные девчонки
Writing application : XviD4PSP 7.0.466 DAILY
Writing library : Lavf57.71.100
ErrorDetectionType : Per level 1
Attachments : poster.jpg
ACTORS : Линдси Лохан, Рэйчел МакАдамс,
COUNTRY : США
DATE : 2004
DIRECTOR : Марк Уотерс
ENCODING_INFO : MATROSKA,WEBM > MKV 1080p 10-bit / H264 > X265 CRF 19.0 Medium / AC3 > AC3 CBR 384kbps / DTS > AC3 CBR 448kbps
GENRE : комедия
HD_VIDEO : 1
Language : und
MEDIA_TYPE : 9
ORIGINAL_TITLE : Mean Girls

Video
ID : 1
Format : HEVC
Format/Info : High Efficiency Video Coding
Format profile : Main 10@L4.1@High
Codec ID : V_MPEGH/ISO/HEVC
Duration : 1 h 36 min
Bit rate : 9 238 kb/s
Width : 1 920 pixels
Height : 1 080 pixels
Display aspect ratio : 16:9
Frame rate mode : Constant
Frame rate : 23.976 (24000/1001) FPS
Color space : YUV
Chroma subsampling : 4:2:0
Bit depth : 10 bits
Bits/(Pixel*Frame) : 0.186
Stream size : 6.25 GiB (90%)
Writing library : x265 2.9+9-f74003e88622:[Windows][GCC 8.2.0][64 bit] 10bit
Encoding settings : cpuid=1111039 / frame-threads=7 / numa-pools=6 / wpp / no-pmode / no-pme / no-psnr / no-ssim / log-level=3 / input-csp=1 / input-res=1920x1080 / interlace=0 / total-frames=0 / level-idc=41 / high-tier=1 / uhd-bd=0 / ref=4 / allow-non-conformance / no-repeat-headers / annexb / no-aud / no-hrd / info / hash=0 / no-temporal-layers / open-gop / min-keyint=24 / keyint=240 / gop-lookahead=0 / bframes=8 / b-adapt=2 / b-pyramid / bframe-bias=0 / rc-lookahead=20 / lookahead-slices=6 / scenecut=40 / radl=0 / no-intra-refresh / ctu=64 / min-cu-size=8 / rect / amp / max-tu-size=32 / tu-inter-depth=1 / tu-intra-depth=1 / limit-tu=0 / rdoq-level=0 / dynamic-rd=0.00 / no-ssim-rd / signhide / no-tskip / nr-intra=0 / nr-inter=0 / no-constrained-intra / no-strong-intra-smoothing / max-merge=2 / limit-refs=3 / no-limit-modes / me=3 / subme=7 / merange=57 / temporal-mvp / weightp / no-weightb / no-analyze-src-pics / deblock=-3:-3 / no-sao / no-sao-non-deblock / rd=3 / no-early-skip / rskip / no-fast-intra / no-tskip-fast / no-cu-lossless / no-b-intra / no-splitrd-skip / rdpenalty=0 / psy-rd=2.00 / psy-rdoq=0.00 / no-rd-refine / no-lossless / cbqpoffs=0 / crqpoffs=0 / rc=crf / crf=19.0 / qcomp=0.70 / qpstep=4 / stats-write=0 / stats-read=0 / vbv-maxrate=50000 / vbv-bufsize=50000 / vbv-init=0.9 / crf-max=30.0 / crf-min=0.0 / ipratio=1.40 / pbratio=1.30 / aq-mode=1 / aq-strength=1.00 / cutree / zone-count=0 / no-strict-cbr / qg-size=32 / no-rc-grain / qpmax=69 / qpmin=0 / no-const-vbv / sar=1 / overscan=0 / videoformat=5 / range=0 / colorprim=1 / transfer=1 / colormatrix=1 / chromaloc=0 / display-window=0 / max-cll=0,0 / min-luma=0 / max-luma=1023 / log2-max-poc-lsb=8 / vui-timing-info / vui-hrd-info / slices=1 / no-opt-qp-pps / no-opt-ref-list-length-pps / no-multi-pass-opt-rps / scenecut-bias=0.05 / no-opt-cu-delta-qp / no-aq-motion / no-hdr / no-hdr-opt / no-dhdr10-opt / no-idr-recovery-sei / analysis-reuse-level=5 / scale-factor=0 / refine-intra=0 / refine-inter=0 / refine-mv=0 / no-limit-sao / ctu-info=0 / no-lowpass-dct / refine-mv-type=0 / copy-pic=1 / max-ausize-factor=1.0 / no-dynamic-refine / no-single-sei
Language : English
Default : Yes
Forced : No
Color range : Limited
Color primaries : BT.709
Transfer characteristics : BT.709
Matrix coefficients : BT.709

Audio #1
ID : 2
Format : AC-3
Format/Info : Audio Coding 3
Commercial name : Dolby Digital
Codec ID : A_AC3
Duration : 1 h 36 min
Bit rate mode : Constant
Bit rate : 384 kb/s
Channel(s) : 6 channels
Channel layout : L R C LFE Ls Rs
Sampling rate : 48.0 kHz
Frame rate : 31.250 FPS (1536 SPF)
Bit depth : 16 bits
Compression mode : Lossy
Stream size : 266 MiB (4%)
Title : Dub Пифагор
Language : Russian
Service kind : Complete Main
Default : Yes
Forced : No

Audio #2
ID : 3
Format : AC-3
Format/Info : Audio Coding 3
Commercial name : Dolby Digital
Codec ID : A_AC3
Duration : 1 h 36 min
Bit rate mode : Constant
Bit rate : 448 kb/s
Channel(s) : 6 channels
Channel layout : L R C LFE Ls Rs
Sampling rate : 48.0 kHz
Frame rate : 31.250 FPS (1536 SPF)
Bit depth : 16 bits
Compression mode : Lossy
Stream size : 310 MiB (4%)
Language : English
Service kind : Complete Main
Default : No
Forced : No

Text #1
ID : 4
Format : UTF-8
Codec ID : S_TEXT/UTF8
Codec ID/Info : UTF-8 Plain Text
Language : Russian
Default : Yes
Forced : No

Text #2
ID : 5
Format : UTF-8
Codec ID : S_TEXT/UTF8
Codec ID/Info : UTF-8 Plain Text
Language : English
Default : No
Forced : No

Menu
00:00:00.000 : :Глава 01
00:05:29.371 : :Глава 02
00:13:39.444 : :Глава 03
00:18:09.005 : :Глава 04
00:23:55.559 : :Глава 05
00:29:31.061 : :Глава 06
00:35:12.360 : :Глава 07
00:40:07.155 : :Глава 08
00:44:10.940 : :Глава 09
00:47:50.201 : :Глава 10
00:51:44.601 : :Глава 11
00:56:16.707 : :Глава 12
01:02:00.008 : :Глава 13
01:05:46.484 : :Глава 14
01:08:31.232 : :Глава 15
01:16:04.393 : :Глава 16
01:21:16.830 : :Глава 17
01:26:26.598 : :Глава 18
01:31:38.910 : :Глава 19
Загрузка...Cкриншот1 Дрянные девчонки / Mean Girls (2004) BDRip 1080p [HEVC] 10 bit от HANNIBALЗагрузка...Cкриншот2 Дрянные девчонки / Mean Girls (2004) BDRip 1080p [HEVC] 10 bit от HANNIBALЗагрузка...Cкриншот3 Дрянные девчонки / Mean Girls (2004) BDRip 1080p [HEVC] 10 bit от HANNIBALЗагрузка...Cкриншот4 Дрянные девчонки / Mean Girls (2004) BDRip 1080p [HEVC] 10 bit от HANNIBAL
Сэмпл Торрент🧲 Магнет

Рейтинги КП и IMDB, кнопки "Позвать в чате" и "Спасибо", а также мультитрекерная статистика доступны только зарегистрированным/авторизованным пользователям!

Файлы: 1
  • Mean Girls (2004) BDRip 1080p [HEVC] 10bit.mkv   6.95 ГБ
Поблагодарили: 6
375509, aacg, alexxx65, donadar, Igor Sidorov, yusali
Admin
1210016.95 ГБ

Добавление нового комментария

Добавление комментариев доступно только зарегистрированным/авторизованным пользователям.
Аватар не указан
  donadar  
Хороший фильм!