💬 Мини-чат

Для тех, кому интересен процесс переделки сайта - https://rips.club/changelog.html (обновлен 22.02.2024)
OldGamerz1M4p9i0, и этот релиз скачался
Adminatomicheart, встал, но у Вас в профиле не видно. Вам бы перекачать.
OldGamerz1M4p9i0, Хан Соло скачался, но релиз, который был на руторе, там аудиодорожек меньше, чем тут, а видеоряд тот же. Попробуйте оттуда, я пока что сидирую.
OldGamerХан Соло откуда-то по чайной ложке в час скачивается, за сутки 50%, наблюдаем-с дальше
Adminatomicheart, завтра посмотрю, он у меня должен быть.
atomicheartРаздайте, пожалуйста, Тихое место: Дилогия / A Quiet Place: Dilogy (2018-2020) UHD-BDRip 1080p [HEVC] 10 bit [HDR] от Mr. Fox
z1M4p9i0Раздайте, пожалуйста, Хан Соло: Звёздные войны. Истории / Solo: A Star Wars Story (2018) [Локализованная версия] BDRip 1080p [HEVC] 10 bit от Cthulhu
z1M4p9i0Раздайте, пожалуйста, Терминатор: Тёмные судьбы / Terminator: Dark Fate (2019) [iTunes] UHD-BDRip 1440p [HEVC] 10 bit от HANNIBAL
OldGamerKeynol, честно говоря, пока что не планировалось, так как у нас есть отличный рип этого фильма
KeynolПриветствую! А можно сделать HEVC 10 bit на Трон Наследие Hybrid ? там файл на 31 гиг :-( на рутрекере. Хороший, но очень массивный..
  • Admin
  • OldGamer
  • Alex302
  • Brooklyn
  • Goodcat
  • Ignat
  • ilyich05
  • InSpector
  • pmihail99
Отправка сообщений доступна только зарегистрированным/авторизованным пользователям.
Онлайн (за 10 мин.): 9

Звёздные войны: Последние джедаи / Star Wars: Episode VIII - The Last Jedi (2017) [Локализованная версия] BDRip 1080p [HEVC] 10 bit от Cthulhu

HEVC
10 bit
Обложка Звёздные войны: Последние джедаи / Star Wars: Episode VIII - The Last Jedi (2017) [Локализованная версия] BDRip 1080p [HEVC] 10 bit от Cthulhu Год: 2017
Страна: США
Студия: Lucasfilm Ltd., Walt Disney Pictures
Жанр: Фантастика, Боевик, Приключения
Продолжительность: 02:31:51

Режиссер: Райан Джонсон
В ролях: Джон Бойега, Дэйзи Ридли, Кэрри Фишер, Оскар Айзек, Адам Драйвер, Донал Глисон, Марк Хэмилл, Макс фон Сюдов, Энди Серкис, Лупита Нионго, Энтони Дэниелс, Питер Мейхью, Гвендолин Кристи, Пип Андерсон, Саймон Пегг, Киран Шах, Саша Фрост, Пип Торренс, Эндрю Джек

Описание: Новая история о противостоянии света и тьмы, добра и зла начинается после гибели Хана Соло. В Галактике, где Первый Орден и Сопротивление яростно сражаются друг с другом в войне, героиня Рей пробудила в себе Силу. Но что произойдет, когда она встретится с единственным оставшимся в живых рыцарем-джедаем — Люком Скайуокером? Кайло Рен перешел на Темную сторону Силы и убил собственного отца, заняв высокую позицию в Первом Ордене. Но куда приведут его неуемные амбиции, подаренные по наследству грозным дедом Дартом Вейдером? Ситуация обострится еще больше, когда мать Кайло, лидер Сопротивления Лея, вместе с По, Финном и BB-8 приступит к новой миссии.


Видео: 1920x804, 6118 Kbps
Аудио1: AC3, 6 ch, 448 Kbps - РусскийРусский, Дублированный (Лицензия)
Аудио2: AC3, 6 ch, 448 Kbps - Оригинал
Субтитры: Русские, английские

Как за пару секунд удалить ненужные аудиодорожки и субтитры (Внимание! После удаления вы не сможете поддержать раздачу)

Медиаинфо
General
Unique ID : 337652760857705939518061427236793047613 (0xFE058E694A122A4BB3EE874E66CD5A3D)
Complete name : T:\HDFILMS\Star Wars\Star Wars. Episode VIII - The Last Jedi (2017) BDRip 1080p [HEVC] 10Bit_Cthulhu.mkv
Format : Matroska
Format version : Version 4 / Version 2
File size : 7.44 GiB
Duration : 2 h 31 min
Overall bit rate : 7 016 kb/s
Movie name : Star Wars The Last Jedi (2017)_rip_by_Cthulhu
Encoded date : UTC 2018-04-30 21:35:30
Writing application : mkvmerge v21.0.0 ('Tardigrades Will Inherit The Earth') 64-bit
Writing library : libebml v1.3.5 + libmatroska v1.4.8
Cover : Yes
Attachments : cover.jpg / cover.jpg

Video
ID : 1
Format : HEVC
Format/Info : High Efficiency Video Coding
Format profile : Main 10@L4.1@High
Codec ID : V_MPEGH/ISO/HEVC
Duration : 2 h 31 min
Bit rate : 6 118 kb/s
Width : 1 920 pixels
Height : 804 pixels
Display aspect ratio : 2.40:1
Frame rate mode : Constant
Frame rate : 23.976 (24000/1001) FPS
Color space : YUV
Chroma subsampling : 4:2:0
Bit depth : 10 bits
Bits/(Pixel*Frame) : 0.165
Stream size : 6.49 GiB (87%)
Writing library : x265 2.7+340-aa9102400f24:[Windows][GCC 8.0.1][64 bit] 10bit
Encoding settings : cpuid=1049583 / frame-threads=4 / numa-pools=4 / wpp / no-pmode / no-pme / no-psnr / no-ssim / log-level=2 / input-csp=1 / input-res=1920x804 / interlace=0 / total-frames=218460 / level-idc=0 / high-tier=1 / uhd-bd=0 / ref=5 / no-allow-non-conformance / no-repeat-headers / annexb / no-aud / no-hrd / info / hash=0 / no-temporal-layers / open-gop / min-keyint=24 / keyint=240 / gop-lookahead=0 / bframes=8 / b-adapt=2 / b-pyramid / bframe-bias=0 / rc-lookahead=40 / lookahead-slices=4 / scenecut=40 / radl=0 / no-intra-refresh / ctu=64 / min-cu-size=8 / rect / no-amp / max-tu-size=32 / tu-inter-depth=3 / tu-intra-depth=3 / limit-tu=4 / rdoq-level=1 / dynamic-rd=0.00 / no-ssim-rd / signhide / no-tskip / nr-intra=0 / nr-inter=0 / no-constrained-intra / no-strong-intra-smoothing / max-merge=3 / limit-refs=2 / limit-modes / me=3 / subme=7 / merange=57 / temporal-mvp / weightp / weightb / no-analyze-src-pics / deblock=-3:-3 / no-sao / no-sao-non-deblock / rd=4 / no-early-skip / rskip / no-fast-intra / no-tskip-fast / no-cu-lossless / no-b-intra / no-splitrd-skip / rdpenalty=0 / psy-rd=2.00 / psy-rdoq=1.00 / no-rd-refine / no-lossless / cbqpoffs=0 / crqpoffs=0 / rc=crf / crf=18.0 / qcomp=0.60 / qpstep=4 / stats-write=0 / stats-read=0 / vbv-maxrate=50000 / vbv-bufsize=50000 / vbv-init=0.9 / crf-max=0.0 / crf-min=0.0 / ipratio=1.40 / pbratio=1.30 / aq-mode=1 / aq-strength=1.00 / cutree / zone-count=0 / no-strict-cbr / qg-size=32 / no-rc-grain / qpmax=69 / qpmin=0 / no-const-vbv / sar=1 / overscan=0 / videoformat=5 / range=0 / colorprim=1 / transfer=1 / colormatrix=1 / chromaloc=0 / display-window=0 / max-cll=0,0 / min-luma=0 / max-luma=1023 / log2-max-poc-lsb=8 / vui-timing-info / vui-hrd-info / slices=1 / no-opt-qp-pps / no-opt-ref-list-length-pps / no-multi-pass-opt-rps / scenecut-bias=0.05 / no-opt-cu-delta-qp / no-aq-motion / no-hdr / no-hdr-opt / no-dhdr10-opt / no-idr-recovery-sei / analysis-reuse-level=5 / scale-factor=0 / refine-intra=0 / refine-inter=0 / refine-mv=0 / no-limit-sao / ctu-info=0 / no-lowpass-dct / refine-mv-type=0 / copy-pic=1 / max-ausize-factor=1.0 / no-dynamic-refine / no-single-sei
Language : Russian
Default : Yes
Forced : No
Color range : Limited
Color primaries : BT.709
Transfer characteristics : BT.709
Matrix coefficients : BT.709

Audio #1
ID : 2
Format : AC-3
Format/Info : Audio Coding 3
Format settings, Endianness : Big
Codec ID : A_AC3
Duration : 2 h 31 min
Bit rate mode : Constant
Bit rate : 448 kb/s
Channel(s) : 6 channels
Channel positions : Front: L C R, Side: L R, LFE
Sampling rate : 48.0 kHz
Frame rate : 31.250 FPS (1536 SPF)
Bit depth : 16 bits
Compression mode : Lossy
Stream size : 487 MiB (6%)
Language : Russian
Service kind : Complete Main
Default : Yes
Forced : No

Audio #2
ID : 3
Format : AC-3
Format/Info : Audio Coding 3
Format settings, Endianness : Big
Codec ID : A_AC3
Duration : 2 h 31 min
Bit rate mode : Constant
Bit rate : 448 kb/s
Channel(s) : 6 channels
Channel positions : Front: L C R, Side: L R, LFE
Sampling rate : 48.0 kHz
Frame rate : 31.250 FPS (1536 SPF)
Bit depth : 16 bits
Compression mode : Lossy
Stream size : 487 MiB (6%)
Language : English
Service kind : Complete Main
Default : No
Forced : No

Text #1
ID : 4
Format : UTF-8
Codec ID : S_TEXT/UTF8
Codec ID/Info : UTF-8 Plain Text
Duration : 2 h 22 min
Bit rate : 1 b/s
Count of elements : 16
Stream size : 1.09 KiB (0%)
Title : Forced
Language : Russian
Default : Yes
Forced : No

Text #2
ID : 5
Format : UTF-8
Codec ID : S_TEXT/UTF8
Codec ID/Info : UTF-8 Plain Text
Duration : 2 h 20 min
Bit rate : 64 b/s
Count of elements : 1580
Stream size : 66.9 KiB (0%)
Title : Full
Language : Russian
Default : No
Forced : No

Text #3
ID : 6
Format : UTF-8
Codec ID : S_TEXT/UTF8
Codec ID/Info : UTF-8 Plain Text
Duration : 2 h 20 min
Bit rate : 39 b/s
Count of elements : 1569
Stream size : 40.4 KiB (0%)
Language : English
Default : No
Forced : No

Menu
00:00:00.000 : en:Chapter 1
00:00:18.643 : en:Chapter 2
00:01:45.730 : en:Chapter 3
00:03:11.816 : en:Chapter 4
00:07:43.296 : en:Chapter 5
00:12:48.434 : en:Chapter 6
00:13:44.573 : en:Chapter 7
00:16:29.279 : en:Chapter 8
00:19:59.281 : en:Chapter 9
00:22:51.369 : en:Chapter 10
00:26:04.980 : en:Chapter 11
00:27:22.849 : en:Chapter 12
00:31:24.757 : en:Chapter 13
00:32:54.681 : en:Chapter 14
00:35:27.667 : en:Chapter 15
00:38:11.497 : en:Chapter 16
00:41:53.427 : en:Chapter 17
00:44:29.541 : en:Chapter 18
00:46:51.475 : en:Chapter 19
00:51:41.932 : en:Chapter 20
00:53:50.060 : en:Chapter 21
00:55:41.504 : en:Chapter 22
00:57:39.581 : en:Chapter 23
00:59:16.636 : en:Chapter 24
01:02:05.847 : en:Chapter 25
01:03:07.700 : en:Chapter 26
01:05:41.729 : en:Chapter 27
01:07:03.477 : en:Chapter 28
01:10:25.721 : en:Chapter 29
01:13:30.322 : en:Chapter 30
01:17:43.450 : en:Chapter 31
01:20:53.056 : en:Chapter 32
01:24:17.969 : en:Chapter 33
01:26:23.219 : en:Chapter 34
01:27:59.524 : en:Chapter 35
01:30:49.360 : en:Chapter 36
01:32:54.568 : en:Chapter 37
01:35:53.706 : en:Chapter 38
01:37:10.616 : en:Chapter 39
01:39:12.863 : en:Chapter 40
01:42:07.663 : en:Chapter 41
01:45:03.714 : en:Chapter 42
01:49:35.694 : en:Chapter 43
01:52:20.608 : en:Chapter 44
01:56:04.749 : en:Chapter 45
01:58:52.083 : en:Chapter 46
02:03:11.133 : en:Chapter 47
02:06:39.758 : en:Chapter 48
02:11:43.604 : en:Chapter 49
02:15:12.103 : en:Chapter 50
02:20:16.699 : en:Chapter 51
02:23:39.694 : en:Chapter 52
Загрузка...Cкриншот1 Звёздные войны: Последние джедаи / Star Wars: Episode VIII - The Last Jedi (2017) [Локализованная версия] BDRip 1080p [HEVC] 10 bit от CthulhuЗагрузка...Cкриншот2 Звёздные войны: Последние джедаи / Star Wars: Episode VIII - The Last Jedi (2017) [Локализованная версия] BDRip 1080p [HEVC] 10 bit от CthulhuЗагрузка...Cкриншот3 Звёздные войны: Последние джедаи / Star Wars: Episode VIII - The Last Jedi (2017) [Локализованная версия] BDRip 1080p [HEVC] 10 bit от CthulhuЗагрузка...Cкриншот4 Звёздные войны: Последние джедаи / Star Wars: Episode VIII - The Last Jedi (2017) [Локализованная версия] BDRip 1080p [HEVC] 10 bit от Cthulhu
Сэмпл Торрент🧲 Магнет

Рейтинги КП и IMDB, кнопки "Позвать в чате" и "Спасибо", а также мультитрекерная статистика доступны только зарегистрированным/авторизованным пользователям!

Файлы: 1
  • Star Wars. Episode VIII - The Last Jedi (2017) BDRip 1080p [HEVC] 10Bit_Cthulhu.mkv   7.44 ГБ
Поблагодарили: 10
2ps63, Alex302, Art1967, Gampeldor, grudich, ko1ob, Rezident, sakurarec, Stigmatlazy, xlxxl
Cthulhu
01583007.44 ГБ

Добавление нового комментария

Добавление комментариев доступно только зарегистрированным/авторизованным пользователям.