💬 Мини-чат

Убедительная просьба не обсуждать тут политику.
AdminЛёшикоБэст, вроде потихоньку идёт. Подождем, если не докачается, то встану.
AdminЛёшикоБэст, перекачайте торрент, а то в профиле не отображается ждете или уже нет
ЛёшикоБэстРаздайте, пожалуйста, Неудержимые / The Expendables (2010) [Theatrical Cut] BDRip 1080p [HEVC] 10 bit от Spartanec1308
OldGamerДа, есть.
ЛёшикоБэстДоброго вечера) Скажите пожалуйста, есть ли в планах сделать релиз дилогии "Зорро" с Антонио Бандерасом?
HANNIBALAdmin, 👍
AdminГоро, встал
ГороРаздайте, пожалуйста, Хищники / Predators (2010) BDRip 1080p [HEVC] 10 bit от HANNIBAL
AdminHANNIBAL, привет. Не помню за сколько брал, но продление в этот раз обошлось примерно в $14 со всякими комиссиями. А аренда VDS обходится примерно в $30-35 за год. Не исключено, что всё это подорожает. Пока что пожертвования с трудом покрывают расходы. Иногда если требуется и со своего кармана оплачиваю, не страшно. Прорвемся.
HANNIBALсколько сейчас стоит
HANNIBALAdmin, ПРИВЕТ
AdminНаконец-то получил банковскую карту. Продлил доменное имя (адрес сайта) на год.
  • ivan_1965
  • Rendre
  • Shok
Отправка сообщений доступна только зарегистрированным/авторизованным пользователям.
Онлайн (за 10 мин.): 3

Ледниковый период: Пенталогия / Ice Age: Pentalogy (2002-2016) BDRip 1080p [HEVC] 10 bit от Mr. Fox

HEVC
10 bit
Обложка Ледниковый период: Пенталогия / Ice Age: Pentalogy (2002-2016) BDRip 1080p [HEVC] 10 bit от Mr. Fox Год: 2002-2016
Страна: США
Студия: Blue Sky Studios, 20th Century Fox
Жанр: Мультфильм, Комедия, Приключения, Семейный

1. Ледниковый период / Ice Age (2002) BDRip 1080p [HEVC] 10 bit от Mr. Fox
HEVC
10 bit
Обложка Ледниковый период / Ice Age (2002) BDRip 1080p [HEVC] 10 bit от Mr. Fox Год: 2002
Страна: США
Студия: Blue Sky Studios, 20th Century Fox
Жанр: Мультфильм, Приключения, Комедия, Семейный
Продолжительность: 01:21:09

Режиссер: Крис Уэдж, Карлос Салдана
В ролях: Рэй Романо, Джон Легуизамо, Дэнис Лири, Горан Вишнич, Джек Блэк, Седрик «Развлекатель», Стивен Рут, Дидрих Бадер, Алан Тьюдик, Лорри Бэгли

Описание: Действие разворачивается 20 тыс. лет назад. Чтобы избежать приближающегося из-за наступления ледникового периода холода, животные мигрируют на юг. Однако некоторые из них всё-таки решают остаться — одинокий, угрюмый мамонт Манфред, а также бесшабашный ленивец Сид. Случайно эта парочка наталкивается на человеческого детёныша. Они решаются вернуть его людям и отправляются в путешествие. По пути они встречают саблезубого хитрого тигра. И теперь этой веселой компании предстоят забавные приключения!


Видео: 1920x1040, 4768 Kbps
Аудио1: AC3, 6 ch, 640 Kbps - РусскийРусский, Дублированный
Аудио2: AC3, 2 ch, 384 Kbps - УкраинскийУкраинский, Дублированный
Аудио3: AC3, 6 ch, 640 Kbps - АнглийскийАнглийский, Оригинал
Субтитры: Русские, английские

Как за пару секунд удалить ненужные аудиодорожки и субтитры (Внимание! После удаления вы не сможете поддержать раздачу)

Медиаинфо
x265 [info]: frame I: Avg QP:14.52
x265 [info]: frame P: Avg QP:16.44
x265 [info]: frame B: Avg QP:19.62
x265 [info]: consecutive B-frames: 12.4% 7.5% 6.4% 34.2% 8.0% 13.9% 4.4% 9.0% 1.2% 0.9% 0.5% 1.0% 0.2% 0.2% 0.2%

Avg QP:18.90

Общее
Уникальный идентификатор : 291458692348686639937791175901577349034 (0xDB44E6FE176B0E1FA96D8E9A94C207AA)
Полное имя : H:InstallUploadIce Age1. Ice Age (2002) BDRip 1080p [HEVC].mkv
Формат : Matroska
Версия формата : Version 4
Размер файла : 3,65 Гбайт
Продолжительность : 1 ч. 21 м.
Общий поток : 6435 Кбит/сек
Название фильма : Ice Age (2002)
Дата кодирования : UTC 2019-08-25 12:53:27
Программа кодирования : mkvmerge v36.0.0 ('Is That Jazz?') 64-bit
Библиотека кодирования : libebml v1.3.9 + libmatroska v1.5.2
Обложка : Yes
Attachments : cover.jpg

Видео
Идентификатор : 1
Формат : HEVC
Формат/Информация : High Efficiency Video Coding
Профиль формата : Main 10@L4.1@High
Идентификатор кодека : V_MPEGH/ISO/HEVC
Продолжительность : 1 ч. 21 м.
Битрейт : 4768 Кбит/сек
Ширина : 1920 пикселей
Высота : 1040 пикселей
Соотношение сторон : 1,85:1
Режим частоты кадров : Постоянный
Частота кадров : 23,976 (23976/1000) кадра/сек
Частота кадров в оригинале : 23,976 (24000/1001) кадра/сек
Цветовое пространство : YUV
Субдискретизация насыщенности : 4:2:0
Битовая глубина : 10 бит
Бит/(Пиксели*Кадры) : 0.100
Размер потока : 2,70 Гбайт (74%)
Библиотека кодирования : x265 3.0_Au+4-dcbec33bfb0f:[Windows][MSVC 1916][64 bit] 10bit
Настройки программы : cpuid=1111039 / frame-threads=3 / numa-pools=12 / wpp / no-pmode / no-pme / no-psnr / no-ssim / log-level=2 / input-csp=1 / input-res=1920x1040 / interlace=0 / total-frames=108527 / level-idc=41 / high-tier=1 / uhd-bd=0 / ref=5 / no-allow-non-conformance / no-repeat-headers / annexb / no-aud / no-hrd / info / hash=0 / no-temporal-layers / open-gop / min-keyint=23 / keyint=240 / gop-lookahead=0 / bframes=14 / b-adapt=2 / b-pyramid / bframe-bias=0 / rc-lookahead=60 / lookahead-slices=4 / scenecut=40 / radl=0 / no-splice / no-intra-refresh / ctu=32 / min-cu-size=8 / rect / amp / max-tu-size=32 / tu-inter-depth=4 / tu-intra-depth=4 / limit-tu=1 / rdoq-level=2 / dynamic-rd=0.00 / no-ssim-rd / signhide / no-tskip / nr-intra=0 / nr-inter=0 / no-constrained-intra / no-strong-intra-smoothing / max-merge=4 / limit-refs=2 / limit-modes / me=3 / subme=7 / merange=57 / temporal-mvp / weightp / weightb / no-analyze-src-pics / deblock=-3:-3 / no-sao / no-sao-non-deblock / rd=6 / no-early-skip / no-rskip / no-fast-intra / no-tskip-fast / no-cu-lossless / no-b-intra / no-splitrd-skip / rdpenalty=0 / psy-rd=2.00 / psy-rdoq=1.00 / no-rd-refine / no-lossless / cbqpoffs=0 / crqpoffs=0 / rc=crf / crf=20.0 / qcomp=0.60 / qpstep=4 / stats-write=0 / stats-read=0 / vbv-maxrate=50000 / vbv-bufsize=50000 / vbv-init=0.9 / crf-max=0.0 / crf-min=0.0 / ipratio=1.40 / pbratio=1.30 / aq-mode=1 / aq-strength=1.00 / no-cutree / zone-count=0 / no-strict-cbr / qg-size=32 / no-rc-grain / qpmax=69 / qpmin=0 / no-const-vbv / sar=1 / overscan=0 / videoformat=5 / range=0 / colorprim=2 / transfer=2 / colormatrix=2 / chromaloc=0 / display-window=0 / max-cll=0,0 / min-luma=0 / max-luma=1023 / log2-max-poc-lsb=8 / vui-timing-info / vui-hrd-info / slices=1 / no-opt-qp-pps / no-opt-ref-list-length-pps / no-multi-pass-opt-rps / scenecut-bias=0.05 / no-opt-cu-delta-qp / no-aq-motion / no-hdr / no-hdr-opt / no-dhdr10-opt / no-idr-recovery-sei / analysis-reuse-level=5 / scale-factor=0 / refine-intra=0 / refine-inter=0 / refine-mv=0 / refine-ctu-distortion=0 / no-limit-sao / ctu-info=0 / no-lowpass-dct / refine-analysis-type=0 / copy-pic=1 / max-ausize-factor=1.0 / no-dynamic-refine / no-single-sei / no-hevc-aq / qp-adaptation-range=1.00
Default : Да
Forced : Нет

Аудио #1
Идентификатор : 2
Формат : AC-3
Формат/Информация : Audio Coding 3
Коммерческое название : Dolby Digital
Идентификатор кодека : A_AC3
Продолжительность : 1 ч. 21 м.
Вид битрейта : Постоянный
Битрейт : 640 Кбит/сек
Каналы : 6 каналов
Channel layout : L R C LFE Ls Rs
Частота : 48,0 КГц
Частота кадров : 31,250 кадров/сек (1536 SPF)
Битовая глубина : 16 бит
Метод сжатия : С потерями
Размер потока : 372 Мбайт (10%)
Заголовок : Dub (Blu-ray EUR)
Язык : Russian
ServiceKind : Complete Main
Default : Да
Forced : Нет

Аудио #2
Идентификатор : 3
Формат : AC-3
Формат/Информация : Audio Coding 3
Коммерческое название : Dolby Digital
Идентификатор кодека : A_AC3
Продолжительность : 1 ч. 21 м.
Вид битрейта : Постоянный
Битрейт : 384 Кбит/сек
Каналы : 2 канала
Channel layout : L R
Частота : 48,0 КГц
Частота кадров : 31,250 кадров/сек (1536 SPF)
Битовая глубина : 16 бит
Метод сжатия : С потерями
Размер потока : 223 Мбайт (6%)
Заголовок : Dub (Новий канал)
Язык : Ukrainian
ServiceKind : Complete Main
Default : Нет
Forced : Нет

Аудио #3
Идентификатор : 4
Формат : AC-3
Формат/Информация : Audio Coding 3
Коммерческое название : Dolby Digital
Идентификатор кодека : A_AC3
Продолжительность : 1 ч. 21 м.
Вид битрейта : Постоянный
Битрейт : 640 Кбит/сек
Каналы : 6 каналов
Channel layout : L R C LFE Ls Rs
Частота : 48,0 КГц
Частота кадров : 31,250 кадров/сек (1536 SPF)
Битовая глубина : 16 бит
Метод сжатия : С потерями
Размер потока : 372 Мбайт (10%)
Заголовок : Original
Язык : English
ServiceKind : Complete Main
Default : Нет
Forced : Нет

Текст #1
Идентификатор : 5
Формат : UTF-8
Идентификатор кодека : S_TEXT/UTF8
Идентификатор кодека/Информация : UTF-8 Plain Text
Продолжительность : 1 ч. 17 м.
Битрейт : 61 бит/сек
ElementCount : 536
Размер потока : 34,8 Кбайт (0%)
Заголовок : Blu-ray EUR
Язык : Russian
Default : Нет
Forced : Нет

Текст #2
Идентификатор : 6
Формат : UTF-8
Идентификатор кодека : S_TEXT/UTF8
Идентификатор кодека/Информация : UTF-8 Plain Text
Продолжительность : 1 ч. 17 м.
Битрейт : 39 бит/сек
ElementCount : 576
Размер потока : 22,3 Кбайт (0%)
Язык : English
Default : Нет
Forced : Нет

Меню
00:00:00.000 : en:A Squirrel's Life
00:03:52.440 : en:The Big Chill?
00:05:21.362 : en:All Alone
00:09:31.487 : en:A Great Team
00:14:41.672 : en:Tigers on the Prowl
00:17:47.775 : en:Save the Child
00:25:23.688 : en:Taking Care of the Baby
00:27:41.326 : en:Food!
00:31:26.801 : en:Bedtime
00:34:59.931 : en:Where's The Baby?
00:42:27.336 : en:A Shortcut
00:48:15.475 : en:Cave Drawings
00:51:49.981 : en:The Searchers
00:53:00.051 : en:A Hot Foot
00:56:03.443 : en:The Tiger's Plan
00:57:05.880 : en:Fire Starter
01:00:22.118 : en:Ambush!
01:08:13.756 : en:Reunited
01:13:31.824 : en:20,000 Years Later
01:15:26.480 : en:End Titles
Загрузка...Cкриншот1 Ледниковый период / Ice Age (2002) BDRip 1080p [HEVC] 10 bit от Mr. FoxЗагрузка...Cкриншот2 Ледниковый период / Ice Age (2002) BDRip 1080p [HEVC] 10 bit от Mr. FoxЗагрузка...Cкриншот3 Ледниковый период / Ice Age (2002) BDRip 1080p [HEVC] 10 bit от Mr. FoxЗагрузка...Cкриншот4 Ледниковый период / Ice Age (2002) BDRip 1080p [HEVC] 10 bit от Mr. Fox
2. Ледниковый период 2: Глобальное потепление / Ice Age: The Meltdown (2006) BDRip 1080p [HEVC] 10 bit от Mr. Fox
HEVC
10 bit
Обложка Ледниковый период 2: Глобальное потепление / Ice Age: The Meltdown (2006) BDRip 1080p [HEVC] 10 bit от Mr. Fox Год: 2006
Страна: США
Студия: Blue Sky Studios, 20th Century Fox
Жанр: Мультфильм, Комедия, Приключения, Семейный
Продолжительность: 01:30:36

Режиссер: Карлос Салдана
В ролях: Крис Уэдж, Джон Легуизамо, Рэй Романо, Денис Лири, Куин Латифа, Шон Уильям Скотт, Джош Пек

Описание: Саблезубый тигр Диего, мамонт Манфред, грызун Скрэт и ленивец Сид дожили до глобального потепления. С одной стороны, это круто — ледяная пустыня превратилась в настоящий аквапарк, где можно принимать теплые ванны и резвиться под сенью струй. С другой — не очень: стремительный паводок идет прямиком к их родной долине.


Видео: 1920x1036, 5942 Kbps
Аудио1: AC3, 6 ch, 640 Kbps - РусскийРусский, Дублированный
Аудио2: AC3, 2 ch, 384 Kbps - УкраинскийУкраинский, Дублированный
Аудио3: AC3, 6 ch, 640 Kbps - АнглийскийАнглийский, Оригинал
Субтитры: Русские, английские

Как за пару секунд удалить ненужные аудиодорожки и субтитры (Внимание! После удаления вы не сможете поддержать раздачу)

Медиаинфо
x265 [info]: frame I: Avg QP:15.79
x265 [info]: frame P: Avg QP:17.67
x265 [info]: frame B: Avg QP:20.91
x265 [info]: consecutive B-frames: 12.4% 7.5% 6.4% 34.2% 8.0% 13.9% 4.4% 9.0% 1.2% 0.9% 0.5% 1.0% 0.2%

Avg QP:20.16

Общее
Уникальный идентификатор : 251028022549896395559020033300668806778 (0xBCDA3D11AC3E8B6E686CDD01D646F67A)
Полное имя : H:InstallUploadIce Age2. Ice Age The Meltdown (2006) BDRip 1080p [HEVC].mkv
Формат : Matroska
Версия формата : Version 4
Размер файла : 4,82 Гбайт
Продолжительность : 1 ч. 30 м.
Общий поток : 7609 Кбит/сек
Название фильма : Ice Age: The Meltdown (2006)]
Дата кодирования : UTC 2019-08-30 15:38:09
Программа кодирования : mkvmerge v36.0.0 ('Is That Jazz?') 64-bit
Библиотека кодирования : libebml v1.3.9 + libmatroska v1.5.2
Обложка : Yes
Attachments : cover.jpg

Видео
Идентификатор : 1
Формат : HEVC
Формат/Информация : High Efficiency Video Coding
Профиль формата : Main 10@L4.1@High
Идентификатор кодека : V_MPEGH/ISO/HEVC
Продолжительность : 1 ч. 30 м.
Битрейт : 5942 Кбит/сек
Ширина : 1920 пикселей
Высота : 1036 пикселей
Соотношение сторон : 1,85:1
Режим частоты кадров : Постоянный
Частота кадров : 23,976 (23976/1000) кадра/сек
Частота кадров в оригинале : 23,976 (24000/1001) кадра/сек
Цветовое пространство : YUV
Субдискретизация насыщенности : 4:2:0
Битовая глубина : 10 бит
Бит/(Пиксели*Кадры) : 0.125
Размер потока : 3,76 Гбайт (78%)
Библиотека кодирования : x265 3.0_Au+4-dcbec33bfb0f:[Windows][MSVC 1916][64 bit] 10bit
Настройки программы : cpuid=1111039 / frame-threads=3 / numa-pools=12 / wpp / no-pmode / no-pme / no-psnr / no-ssim / log-level=2 / input-csp=1 / input-res=1920x1036 / interlace=0 / total-frames=120205 / level-idc=41 / high-tier=1 / uhd-bd=0 / ref=5 / no-allow-non-conformance / no-repeat-headers / annexb / no-aud / no-hrd / info / hash=0 / no-temporal-layers / open-gop / min-keyint=23 / keyint=240 / gop-lookahead=0 / bframes=12 / b-adapt=2 / b-pyramid / bframe-bias=0 / rc-lookahead=60 / lookahead-slices=4 / scenecut=40 / radl=0 / no-splice / no-intra-refresh / ctu=32 / min-cu-size=8 / rect / amp / max-tu-size=32 / tu-inter-depth=4 / tu-intra-depth=4 / limit-tu=1 / rdoq-level=2 / dynamic-rd=0.00 / no-ssim-rd / signhide / no-tskip / nr-intra=0 / nr-inter=0 / no-constrained-intra / no-strong-intra-smoothing / max-merge=4 / limit-refs=2 / limit-modes / me=3 / subme=7 / merange=57 / temporal-mvp / weightp / weightb / no-analyze-src-pics / deblock=-3:-3 / no-sao / no-sao-non-deblock / rd=6 / no-early-skip / no-rskip / no-fast-intra / no-tskip-fast / no-cu-lossless / no-b-intra / no-splitrd-skip / rdpenalty=0 / psy-rd=2.00 / psy-rdoq=1.00 / no-rd-refine / no-lossless / cbqpoffs=0 / crqpoffs=0 / rc=crf / crf=20.0 / qcomp=0.65 / qpstep=4 / stats-write=0 / stats-read=0 / vbv-maxrate=50000 / vbv-bufsize=50000 / vbv-init=0.9 / crf-max=0.0 / crf-min=0.0 / ipratio=1.40 / pbratio=1.30 / aq-mode=1 / aq-strength=1.00 / no-cutree / zone-count=0 / no-strict-cbr / qg-size=32 / no-rc-grain / qpmax=69 / qpmin=0 / no-const-vbv / sar=1 / overscan=0 / videoformat=5 / range=0 / colorprim=2 / transfer=2 / colormatrix=2 / chromaloc=0 / display-window=0 / max-cll=0,0 / min-luma=0 / max-luma=1023 / log2-max-poc-lsb=8 / vui-timing-info / vui-hrd-info / slices=1 / no-opt-qp-pps / no-opt-ref-list-length-pps / no-multi-pass-opt-rps / scenecut-bias=0.05 / no-opt-cu-delta-qp / no-aq-motion / no-hdr / no-hdr-opt / no-dhdr10-opt / no-idr-recovery-sei / analysis-reuse-level=5 / scale-factor=0 / refine-intra=0 / refine-inter=0 / refine-mv=0 / refine-ctu-distortion=0 / no-limit-sao / ctu-info=0 / no-lowpass-dct / refine-analysis-type=0 / copy-pic=1 / max-ausize-factor=1.0 / no-dynamic-refine / no-single-sei / no-hevc-aq / qp-adaptation-range=1.00
Default : Да
Forced : Нет

Аудио #1
Идентификатор : 2
Формат : AC-3
Формат/Информация : Audio Coding 3
Коммерческое название : Dolby Digital
Идентификатор кодека : A_AC3
Продолжительность : 1 ч. 30 м.
Вид битрейта : Постоянный
Битрейт : 640 Кбит/сек
Каналы : 6 каналов
Channel layout : L R C LFE Ls Rs
Частота : 48,0 КГц
Частота кадров : 31,250 кадров/сек (1536 SPF)
Битовая глубина : 16 бит
Метод сжатия : С потерями
Размер потока : 415 Мбайт (8%)
Язык : Russian
ServiceKind : Complete Main
Default : Да
Forced : Нет

Аудио #2
Идентификатор : 3
Формат : AC-3
Формат/Информация : Audio Coding 3
Коммерческое название : Dolby Digital
Идентификатор кодека : A_AC3
Продолжительность : 1 ч. 30 м.
Вид битрейта : Постоянный
Битрейт : 384 Кбит/сек
Каналы : 2 канала
Channel layout : L R
Частота : 48,0 КГц
Частота кадров : 31,250 кадров/сек (1536 SPF)
Битовая глубина : 16 бит
Метод сжатия : С потерями
Размер потока : 249 Мбайт (5%)
Язык : Ukrainian
ServiceKind : Complete Main
Default : Нет
Forced : Нет

Аудио #3
Идентификатор : 4
Формат : AC-3
Формат/Информация : Audio Coding 3
Коммерческое название : Dolby Digital
Идентификатор кодека : A_AC3
Продолжительность : 1 ч. 30 м.
Вид битрейта : Постоянный
Битрейт : 640 Кбит/сек
Каналы : 6 каналов
Channel layout : L R C LFE Ls Rs
Частота : 48,0 КГц
Частота кадров : 31,250 кадров/сек (1536 SPF)
Битовая глубина : 16 бит
Метод сжатия : С потерями
Размер потока : 415 Мбайт (8%)
Язык : English
ServiceKind : Complete Main
Default : Нет
Forced : Нет

Текст #1
Идентификатор : 5
Формат : UTF-8
Идентификатор кодека : S_TEXT/UTF8
Идентификатор кодека/Информация : UTF-8 Plain Text
Продолжительность : 1 ч. 20 м.
Битрейт : 72 бит/сек
ElementCount : 660
Размер потока : 42,9 Кбайт (0%)
Заголовок : Full
Язык : Russian
Default : Нет
Forced : Нет

Текст #2
Идентификатор : 6
Формат : UTF-8
Идентификатор кодека : S_TEXT/UTF8
Идентификатор кодека/Информация : UTF-8 Plain Text
Продолжительность : 1 ч. 20 м.
Битрейт : 43 бит/сек
ElementCount : 707
Размер потока : 25,5 Кбайт (0%)
Заголовок : Full
Язык : English
Default : Нет
Forced : Нет

Меню
00:00:00.000 : en:00:00:00.000
00:06:19.296 : en:00:06:19.296
00:07:42.671 : en:00:07:42.671
00:10:45.395 : en:00:10:45.395
00:15:23.256 : en:00:15:23.256
00:17:42.937 : en:00:17:42.937
00:19:23.162 : en:00:19:23.162
00:21:40.925 : en:00:21:40.925
00:23:14.268 : en:00:23:14.268
00:27:11.839 : en:00:27:11.839
00:30:32.247 : en:00:30:32.247
00:35:44.809 : en:00:35:44.809
00:38:48.660 : en:00:38:48.660
00:42:26.753 : en:00:42:26.753
00:45:49.705 : en:00:45:49.705
00:47:44.653 : en:00:47:44.653
00:50:17.681 : en:00:50:17.681
00:54:04.491 : en:00:54:04.491
00:58:59.244 : en:00:58:59.244
01:01:06.788 : en:01:01:06.788
01:05:11.116 : en:01:05:11.116
01:10:38.025 : en:01:10:38.025
01:20:55.476 : en:01:20:55.476
01:23:34.635 : en:01:23:34.635
Загрузка...Cкриншот1 Ледниковый период 2: Глобальное потепление / Ice Age: The Meltdown (2006) BDRip 1080p [HEVC] 10 bit от Mr. FoxЗагрузка...Cкриншот2 Ледниковый период 2: Глобальное потепление / Ice Age: The Meltdown (2006) BDRip 1080p [HEVC] 10 bit от Mr. FoxЗагрузка...Cкриншот3 Ледниковый период 2: Глобальное потепление / Ice Age: The Meltdown (2006) BDRip 1080p [HEVC] 10 bit от Mr. FoxЗагрузка...Cкриншот4 Ледниковый период 2: Глобальное потепление / Ice Age: The Meltdown (2006) BDRip 1080p [HEVC] 10 bit от Mr. Fox
3. Ледниковый период 3: Эра динозавров / Ice Age: Dawn of the Dinosaurs (2009) BDRip 1080p [HEVC] 10 bit от Mr. Fox
HEVC
10 bit
Обложка Ледниковый период 3: Эра динозавров / Ice Age: Dawn of the Dinosaurs (2009) BDRip 1080p [HEVC] 10 bit от Mr. Fox Год: 2009
Страна: США
Студия: Blue Sky Studios, 20th Century Fox
Жанр: Мультфильм, Приключения, Комедия, Семейный
Продолжительность: 01:34:03

Режиссер: Карлос Салдана, Майк Тёрмайер
В ролях: Рэй Романо, Джон Легуизамо, Денис Лири, Куин Латифа, Шонн Уильям Скотт, Джош Пек, Саймон Пегг, Крис Уэдж, Карен Дишер

Описание: К событиям «Ледникового периода 3» жизнь главных героев мультфильма потерпела некоторые изменения. Мамонты Манфред и Элли ожидают появление на свет своего детёныша; саблезубый тигр Диего впал в раздумье о том, не стал ли он слишком «мягкотелым» в компании своих друзей; ленивец Сид, бредя желанием создать собственное племя, решился украсть несколько яиц динозавра.


Видео: 1920x1036, 6522 Kbps
Аудио1: AC3, 6 ch, 640 Kbps - РусскийРусский, Дублированный
Аудио2: AC3, 2 ch, 384 Kbps - УкраинскийУкраинский, Дублированный
Аудио3: AC3, 6 ch, 640 Kbps - АнглийскийАнглийский, Оригинал
Субтитры: Русские, украинские, английские

Как за пару секунд удалить ненужные аудиодорожки и субтитры (Внимание! После удаления вы не сможете поддержать раздачу)

Медиаинфо
x265 [info]: frame I: Avg QP:16.29
x265 [info]: frame P: Avg QP:18.00
x265 [info]: frame B: Avg QP:20.72
x265 [info]: consecutive B-frames: 10.4% 8.4% 6.5% 50.9% 7.4% 8.0% 2.5% 5.2% 0.4% 0.2% 0.1% 0.1%

Avg QP:20.02

Общее
Уникальный идентификатор : 219544383744422096233290509876484037222 (0xA52AB5D4BFC00A8D838C8707C396DA66)
Полное имя : H:InstallUploadIce Age3. Ice Age Dawn of the Dinosaurs (2009) BDRip 1080p [HEVC].mkv
Формат : Matroska
Версия формата : Version 4
Размер файла : 5,38 Гбайт
Продолжительность : 1 ч. 34 м.
Общий поток : 8189 Кбит/сек
Название фильма : Ice Age: Dawn of the Dinosaurs (2009)
Дата кодирования : UTC 2019-08-29 16:44:49
Программа кодирования : mkvmerge v36.0.0 ('Is That Jazz?') 64-bit
Библиотека кодирования : libebml v1.3.9 + libmatroska v1.5.2
Обложка : Yes
Attachments : cover.jpg

Видео
Идентификатор : 1
Формат : HEVC
Формат/Информация : High Efficiency Video Coding
Профиль формата : Main 10@L4.1@High
Идентификатор кодека : V_MPEGH/ISO/HEVC
Продолжительность : 1 ч. 34 м.
Битрейт : 6522 Кбит/сек
Ширина : 1920 пикселей
Высота : 1036 пикселей
Соотношение сторон : 1,85:1
Режим частоты кадров : Постоянный
Частота кадров : 23,976 (23976/1000) кадра/сек
Частота кадров в оригинале : 23,976 (24000/1001) кадра/сек
Цветовое пространство : YUV
Субдискретизация насыщенности : 4:2:0
Битовая глубина : 10 бит
Бит/(Пиксели*Кадры) : 0.137
Размер потока : 4,28 Гбайт (80%)
Библиотека кодирования : x265 3.0_Au+4-dcbec33bfb0f:[Windows][MSVC 1916][64 bit] 10bit
Настройки программы : cpuid=1111039 / frame-threads=3 / numa-pools=12 / wpp / no-pmode / no-pme / no-psnr / no-ssim / log-level=2 / input-csp=1 / input-res=1920x1036 / interlace=0 / total-frames=124913 / level-idc=41 / high-tier=1 / uhd-bd=0 / ref=5 / no-allow-non-conformance / no-repeat-headers / annexb / no-aud / no-hrd / info / hash=0 / no-temporal-layers / open-gop / min-keyint=23 / keyint=240 / gop-lookahead=0 / bframes=11 / b-adapt=2 / b-pyramid / bframe-bias=0 / rc-lookahead=60 / lookahead-slices=4 / scenecut=40 / radl=0 / no-splice / no-intra-refresh / ctu=32 / min-cu-size=8 / rect / amp / max-tu-size=32 / tu-inter-depth=4 / tu-intra-depth=4 / limit-tu=1 / rdoq-level=2 / dynamic-rd=0.00 / no-ssim-rd / signhide / no-tskip / nr-intra=0 / nr-inter=0 / no-constrained-intra / no-strong-intra-smoothing / max-merge=4 / limit-refs=2 / limit-modes / me=3 / subme=7 / merange=57 / temporal-mvp / weightp / weightb / no-analyze-src-pics / deblock=-3:-3 / no-sao / no-sao-non-deblock / rd=6 / no-early-skip / no-rskip / no-fast-intra / no-tskip-fast / no-cu-lossless / no-b-intra / no-splitrd-skip / rdpenalty=0 / psy-rd=2.00 / psy-rdoq=1.00 / no-rd-refine / no-lossless / cbqpoffs=0 / crqpoffs=0 / rc=crf / crf=20.0 / qcomp=0.60 / qpstep=4 / stats-write=0 / stats-read=0 / vbv-maxrate=50000 / vbv-bufsize=50000 / vbv-init=0.9 / crf-max=0.0 / crf-min=0.0 / ipratio=1.40 / pbratio=1.30 / aq-mode=1 / aq-strength=1.00 / no-cutree / zone-count=0 / no-strict-cbr / qg-size=32 / no-rc-grain / qpmax=69 / qpmin=0 / no-const-vbv / sar=1 / overscan=0 / videoformat=5 / range=0 / colorprim=2 / transfer=2 / colormatrix=2 / chromaloc=0 / display-window=0 / max-cll=0,0 / min-luma=0 / max-luma=1023 / log2-max-poc-lsb=8 / vui-timing-info / vui-hrd-info / slices=1 / no-opt-qp-pps / no-opt-ref-list-length-pps / no-multi-pass-opt-rps / scenecut-bias=0.05 / no-opt-cu-delta-qp / no-aq-motion / no-hdr / no-hdr-opt / no-dhdr10-opt / no-idr-recovery-sei / analysis-reuse-level=5 / scale-factor=0 / refine-intra=0 / refine-inter=0 / refine-mv=0 / refine-ctu-distortion=0 / no-limit-sao / ctu-info=0 / no-lowpass-dct / refine-analysis-type=0 / copy-pic=1 / max-ausize-factor=1.0 / no-dynamic-refine / no-single-sei / no-hevc-aq / qp-adaptation-range=1.00
Default : Да
Forced : Нет

Аудио #1
Идентификатор : 2
Формат : AC-3
Формат/Информация : Audio Coding 3
Коммерческое название : Dolby Digital
Идентификатор кодека : A_AC3
Продолжительность : 1 ч. 34 м.
Вид битрейта : Постоянный
Битрейт : 640 Кбит/сек
Каналы : 6 каналов
Channel layout : L R C LFE Ls Rs
Частота : 48,0 КГц
Частота кадров : 31,250 кадров/сек (1536 SPF)
Битовая глубина : 16 бит
Метод сжатия : С потерями
Задержка видео : 1 с. 24 мс.
Размер потока : 430 Мбайт (8%)
Язык : Russian
ServiceKind : Complete Main
Default : Да
Forced : Нет

Аудио #2
Идентификатор : 3
Формат : AC-3
Формат/Информация : Audio Coding 3
Коммерческое название : Dolby Digital
Идентификатор кодека : A_AC3
Продолжительность : 1 ч. 34 м.
Вид битрейта : Постоянный
Битрейт : 384 Кбит/сек
Каналы : 6 каналов
Channel layout : L R C LFE Ls Rs
Частота : 48,0 КГц
Частота кадров : 31,250 кадров/сек (1536 SPF)
Битовая глубина : 16 бит
Метод сжатия : С потерями
Размер потока : 258 Мбайт (5%)
Язык : Ukrainian
ServiceKind : Complete Main
Default : Нет
Forced : Нет

Аудио #3
Идентификатор : 4
Формат : AC-3
Формат/Информация : Audio Coding 3
Коммерческое название : Dolby Digital
Идентификатор кодека : A_AC3
Продолжительность : 1 ч. 34 м.
Вид битрейта : Постоянный
Битрейт : 640 Кбит/сек
Каналы : 6 каналов
Channel layout : L R C LFE Ls Rs
Частота : 48,0 КГц
Частота кадров : 31,250 кадров/сек (1536 SPF)
Битовая глубина : 16 бит
Метод сжатия : С потерями
Задержка видео : 1 с. 24 мс.
Размер потока : 430 Мбайт (8%)
Язык : English
ServiceKind : Complete Main
Default : Нет
Forced : Нет

Текст #1
Идентификатор : 5
Формат : UTF-8
Идентификатор кодека : S_TEXT/UTF8
Идентификатор кодека/Информация : UTF-8 Plain Text
Продолжительность : 1 ч. 33 м.
Битрейт : 53 бит/сек
ElementCount : 854
Размер потока : 36,6 Кбайт (0%)
Язык : Russian
Default : Нет
Forced : Нет

Текст #2
Идентификатор : 6
Формат : UTF-8
Идентификатор кодека : S_TEXT/UTF8
Идентификатор кодека/Информация : UTF-8 Plain Text
Продолжительность : 1 ч. 33 м.
Битрейт : 52 бит/сек
ElementCount : 853
Размер потока : 35,8 Кбайт (0%)
Язык : Ukrainian
Default : Нет
Forced : Нет

Текст #3
Идентификатор : 7
Формат : UTF-8
Идентификатор кодека : S_TEXT/UTF8
Идентификатор кодека/Информация : UTF-8 Plain Text
Продолжительность : 1 ч. 20 м.
Битрейт : 43 бит/сек
ElementCount : 814
Размер потока : 25,6 Кбайт (0%)
Язык : English
Default : Нет
Forced : Нет

Меню
00:00:00.000 : :CHAPTER 1
00:03:10.815 : :CHAPTER 2
00:10:38.846 : :CHAPTER 3
00:16:05.631 : :CHAPTER 4
00:20:00.449 : :CHAPTER 5
00:24:07.654 : :CHAPTER 6
00:27:29.648 : :CHAPTER 7
00:31:47.572 : :CHAPTER 8
00:36:10.668 : :CHAPTER 9
00:41:11.594 : :CHAPTER 10
00:48:29.072 : :CHAPTER 11
00:50:46.334 : :CHAPTER 12
00:57:03.002 : :CHAPTER 13
00:58:06.149 : :CHAPTER 14
01:03:11.287 : :CHAPTER 15
01:08:05.039 : :CHAPTER 16
01:11:37.042 : :CHAPTER 17
01:16:00.305 : :CHAPTER 18
01:21:05.068 : :CHAPTER 19
01:26:50.121 : :CHAPTER 20
01:34:03.054 : :CHAPTER 21
Загрузка...Cкриншот1 Ледниковый период 3: Эра динозавров / Ice Age: Dawn of the Dinosaurs (2009) BDRip 1080p [HEVC] 10 bit от Mr. FoxЗагрузка...Cкриншот2 Ледниковый период 3: Эра динозавров / Ice Age: Dawn of the Dinosaurs (2009) BDRip 1080p [HEVC] 10 bit от Mr. FoxЗагрузка...Cкриншот3 Ледниковый период 3: Эра динозавров / Ice Age: Dawn of the Dinosaurs (2009) BDRip 1080p [HEVC] 10 bit от Mr. FoxЗагрузка...Cкриншот4 Ледниковый период 3: Эра динозавров / Ice Age: Dawn of the Dinosaurs (2009) BDRip 1080p [HEVC] 10 bit от Mr. Fox
4. Ледниковый период 4: Континентальный дрейф / Ice Age: Continental Drift (2012) BDRip 1080p [HEVC] 10 bit от Mr. Fox
HEVC
10 bit
Обложка Ледниковый период 4: Континентальный дрейф / Ice Age: Continental Drift (2012) BDRip 1080p [HEVC] 10 bit от Mr. Fox Год: 2012
Страна: США
Студия: Blue Sky Studios, 20th Century Fox
Жанр: Мультфильм, Приключения, Комедия, Семейный
Продолжительность: 01:27:45

Режиссер: Стив Мартино, Майк Тёрмайер
В ролях: Рэй Романо, Джон Легуизамо, Денис Лири, Куин Латифа, Шон Уильям Скотт, Джош Пек, Крис Уэдж, Карен Дишер, Кики Палмер

Описание: После приключений под землей прошло семь лет. Случился дрейф континентов. Главные герои мультфильма, отделённые от стада, вынуждены использовать айсберг в качестве плота. Они пересекают океан и попадают в неизвестные им ранее земли с экзотическими животными и пиратами, враждебно настроенными к ним. Скрэту удаётся получить свой жёлудь, но он перемещается в новые для него земли.


Видео: 1920x800, 6021 Kbps
Аудио1: AC3, 6 ch, 640 Kbps - РусскийРусский, Дублированный
Аудио2: AC3, 6 ch, 448 Kbps - УкраинскийУкраинский, Дублированный
Аудио3: AC3, 6 ch, 640 Kbps - АнглийскийАнглийский, Оригинал
Субтитры: Русские, украинские, английские

Как за пару секунд удалить ненужные аудиодорожки и субтитры (Внимание! После удаления вы не сможете поддержать раздачу)

Медиаинфо
x265 [info]: frame I: Avg QP:16.96
x265 [info]: frame P: Avg QP:18.36
x265 [info]: frame B: Avg QP:20.94
x265 [info]: consecutive B-frames: 10.0% 7.0% 6.3% 57.0% 7.5% 7.1% 2.0% 2.7% 0.3%

Avg QP:20.26

Общее
Уникальный идентификатор : 234896215820853428191661798286615025237 (0xB0B75D972079BAAA9503731F76C29655)
Полное имя : H:InstallUploadIce Age4. Ice Age Continental Drift (2012) BDRip 1080p [HEVC].mkv
Формат : Matroska
Версия формата : Version 4
Размер файла : 4,75 Гбайт
Продолжительность : 1 ч. 27 м.
Общий поток : 7752 Кбит/сек
Название фильма : Ice Age: Continental Drift (2012)
Дата кодирования : UTC 2019-09-02 05:37:42
Программа кодирования : mkvmerge v36.0.0 ('Is That Jazz?') 64-bit
Библиотека кодирования : libebml v1.3.9 + libmatroska v1.5.2
Обложка : Yes
Attachments : cover.jpg

Видео
Идентификатор : 1
Формат : HEVC
Формат/Информация : High Efficiency Video Coding
Профиль формата : Main 10@L4.1@High
Идентификатор кодека : V_MPEGH/ISO/HEVC
Продолжительность : 1 ч. 27 м.
Битрейт : 6021 Кбит/сек
Ширина : 1920 пикселей
Высота : 800 пикселей
Соотношение сторон : 2,40:1
Режим частоты кадров : Постоянный
Частота кадров : 23,976 (23976/1000) кадра/сек
Частота кадров в оригинале : 23,976 (24000/1001) кадра/сек
Цветовое пространство : YUV
Субдискретизация насыщенности : 4:2:0
Битовая глубина : 10 бит
Бит/(Пиксели*Кадры) : 0.164
Размер потока : 3,69 Гбайт (78%)
Библиотека кодирования : x265 3.0_Au+4-dcbec33bfb0f:[Windows][MSVC 1916][64 bit] 10bit
Настройки программы : cpuid=1111039 / frame-threads=3 / numa-pools=12 / wpp / no-pmode / no-pme / no-psnr / no-ssim / log-level=2 / input-csp=1 / input-res=1920x800 / interlace=0 / total-frames=114182 / level-idc=41 / high-tier=1 / uhd-bd=0 / ref=5 / no-allow-non-conformance / no-repeat-headers / annexb / no-aud / no-hrd / info / hash=0 / no-temporal-layers / open-gop / min-keyint=23 / keyint=240 / gop-lookahead=0 / bframes=8 / b-adapt=2 / b-pyramid / bframe-bias=0 / rc-lookahead=60 / lookahead-slices=4 / scenecut=40 / radl=0 / no-splice / no-intra-refresh / ctu=32 / min-cu-size=8 / rect / amp / max-tu-size=32 / tu-inter-depth=4 / tu-intra-depth=4 / limit-tu=1 / rdoq-level=2 / dynamic-rd=0.00 / no-ssim-rd / signhide / no-tskip / nr-intra=0 / nr-inter=0 / no-constrained-intra / no-strong-intra-smoothing / max-merge=4 / limit-refs=2 / limit-modes / me=3 / subme=7 / merange=57 / temporal-mvp / weightp / weightb / no-analyze-src-pics / deblock=-3:-3 / no-sao / no-sao-non-deblock / rd=6 / no-early-skip / no-rskip / no-fast-intra / no-tskip-fast / no-cu-lossless / no-b-intra / no-splitrd-skip / rdpenalty=0 / psy-rd=2.00 / psy-rdoq=1.00 / no-rd-refine / no-lossless / cbqpoffs=0 / crqpoffs=0 / rc=crf / crf=20.0 / qcomp=0.65 / qpstep=4 / stats-write=0 / stats-read=0 / vbv-maxrate=50000 / vbv-bufsize=50000 / vbv-init=0.9 / crf-max=0.0 / crf-min=0.0 / ipratio=1.40 / pbratio=1.30 / aq-mode=1 / aq-strength=1.00 / no-cutree / zone-count=0 / no-strict-cbr / qg-size=32 / no-rc-grain / qpmax=69 / qpmin=0 / no-const-vbv / sar=1 / overscan=0 / videoformat=5 / range=0 / colorprim=2 / transfer=2 / colormatrix=2 / chromaloc=0 / display-window=0 / max-cll=0,0 / min-luma=0 / max-luma=1023 / log2-max-poc-lsb=8 / vui-timing-info / vui-hrd-info / slices=1 / no-opt-qp-pps / no-opt-ref-list-length-pps / no-multi-pass-opt-rps / scenecut-bias=0.05 / no-opt-cu-delta-qp / no-aq-motion / no-hdr / no-hdr-opt / no-dhdr10-opt / no-idr-recovery-sei / analysis-reuse-level=5 / scale-factor=0 / refine-intra=0 / refine-inter=0 / refine-mv=0 / refine-ctu-distortion=0 / no-limit-sao / ctu-info=0 / no-lowpass-dct / refine-analysis-type=0 / copy-pic=1 / max-ausize-factor=1.0 / no-dynamic-refine / no-single-sei / no-hevc-aq / qp-adaptation-range=1.00
Default : Да
Forced : Нет

Аудио #1
Идентификатор : 2
Формат : AC-3
Формат/Информация : Audio Coding 3
Коммерческое название : Dolby Digital
Идентификатор кодека : A_AC3
Продолжительность : 1 ч. 27 м.
Вид битрейта : Постоянный
Битрейт : 640 Кбит/сек
Каналы : 6 каналов
Channel layout : L R C LFE Ls Rs
Частота : 48,0 КГц
Частота кадров : 31,250 кадров/сек (1536 SPF)
Битовая глубина : 16 бит
Метод сжатия : С потерями
Задержка видео : 1 с. 24 мс.
Размер потока : 402 Мбайт (8%)
Заголовок : Дубляж - BD CEE
Язык : Russian
ServiceKind : Complete Main
Default : Да
Forced : Нет

Аудио #2
Идентификатор : 3
Формат : AC-3
Формат/Информация : Audio Coding 3
Коммерческое название : Dolby Digital
Идентификатор кодека : A_AC3
Продолжительность : 1 ч. 27 м.
Вид битрейта : Постоянный
Битрейт : 448 Кбит/сек
Каналы : 6 каналов
Channel layout : L R C LFE Ls Rs
Частота : 48,0 КГц
Частота кадров : 31,250 кадров/сек (1536 SPF)
Битовая глубина : 16 бит
Метод сжатия : С потерями
Задержка видео : 1 с. 24 мс.
Размер потока : 281 Мбайт (6%)
Заголовок : Дубляж - BD CEE
Язык : Ukrainian
ServiceKind : Complete Main
Default : Нет
Forced : Нет

Аудио #3
Идентификатор : 4
Формат : AC-3
Формат/Информация : Audio Coding 3
Коммерческое название : Dolby Digital
Идентификатор кодека : A_AC3
Продолжительность : 1 ч. 27 м.
Вид битрейта : Постоянный
Битрейт : 640 Кбит/сек
Каналы : 6 каналов
Channel layout : L R C LFE Ls Rs
Частота : 48,0 КГц
Частота кадров : 31,250 кадров/сек (1536 SPF)
Битовая глубина : 16 бит
Метод сжатия : С потерями
Размер потока : 402 Мбайт (8%)
Заголовок : Original
Язык : English
ServiceKind : Complete Main
Default : Нет
Forced : Нет

Текст #1
Идентификатор : 5
Формат : UTF-8
Идентификатор кодека : S_TEXT/UTF8
Идентификатор кодека/Информация : UTF-8 Plain Text
Продолжительность : 1 ч. 26 м.
Битрейт : 84 бит/сек
ElementCount : 1150
Размер потока : 53,7 Кбайт (0%)
Заголовок : Полные - BD CEE
Язык : Russian
Default : Нет
Forced : Нет

Текст #2
Идентификатор : 6
Формат : UTF-8
Идентификатор кодека : S_TEXT/UTF8
Идентификатор кодека/Информация : UTF-8 Plain Text
Продолжительность : 1 ч. 26 м.
Битрейт : 84 бит/сек
ElementCount : 1148
Размер потока : 53,3 Кбайт (0%)
Заголовок : Полные - BD CEE
Язык : Ukrainian
Default : Нет
Forced : Нет

Текст #3
Идентификатор : 7
Формат : UTF-8
Идентификатор кодека : S_TEXT/UTF8
Идентификатор кодека/Информация : UTF-8 Plain Text
Продолжительность : 1 ч. 19 м.
Битрейт : 55 бит/сек
ElementCount : 1142
Размер потока : 32,0 Кбайт (0%)
Заголовок : Full - BD CEE
Язык : English
Default : Нет
Forced : Нет

Меню
00:00:00.000 : :1
00:03:25.038 : :2
00:05:08.225 : :3
00:09:34.407 : :4
00:13:09.706 : :5
00:15:56.330 : :6
00:18:23.644 : :7
00:22:24.718 : :8
00:25:57.556 : :9
00:29:18.966 : :10
00:32:58.602 : :11
00:36:15.382 : :12
00:38:42.654 : :13
00:43:49.710 : :14
00:45:30.645 : :15
00:49:39.977 : :16
00:53:50.477 : :17
00:57:23.857 : :18
01:02:32.040 : :19
01:08:09.335 : :20
01:11:11.476 : :21
01:13:15.641 : :22
01:16:54.401 : :23
01:19:24.635 : :24
Загрузка...Cкриншот1 Ледниковый период 4: Континентальный дрейф / Ice Age: Continental Drift (2012) BDRip 1080p [HEVC] 10 bit от Mr. FoxЗагрузка...Cкриншот2 Ледниковый период 4: Континентальный дрейф / Ice Age: Continental Drift (2012) BDRip 1080p [HEVC] 10 bit от Mr. FoxЗагрузка...Cкриншот3 Ледниковый период 4: Континентальный дрейф / Ice Age: Continental Drift (2012) BDRip 1080p [HEVC] 10 bit от Mr. FoxЗагрузка...Cкриншот4 Ледниковый период 4: Континентальный дрейф / Ice Age: Continental Drift (2012) BDRip 1080p [HEVC] 10 bit от Mr. Fox
5. Ледниковый период: Столкновение неизбежно / Ice Age: Collision Course (2016) BDRip 1080p [HEVC] 10 bit от Mr. Fox
HEVC
10 bit
Обложка Ледниковый период: Столкновение неизбежно / Ice Age: Collision Course (2016) BDRip 1080p [HEVC] 10 bit от Mr. Fox Год: 2016
Страна: США
Студия: Blue Sky Studios, 20th Century Fox
Жанр: Мультфильм, Приключения, Комедия, Семейный
Продолжительность: 01:34:32

Режиссер: Майк Тёрмайер, Гален Т. Чу
В ролях: Рэй Романо, Джон Легуизамо, Денис Лири, Куин Латифа, Шон Уильям Скотт, Джош Пек, Кики Палмер, Ванда Сайкс, Дженнифер Лопес, Саймон Пегг, Джесси Тайлер Фергюсон

Описание: Отчаянная погоня за неуловимым желудем катапультирует Скрата прямо в космос, где он случайно запускает целую серию космических событий. Именно они изменят весь мир Ледникового периода и станут реальной угрозой для него. Чтобы спастись, Сид, Мэнни, Диего и остальные звери должны покинуть свои дома, отправиться в забавное и захватывающее приключение в экзотические новые земли и встретиться со множеством красочных новых персонажей.


Видео: 1920x800, 5994 Kbps
Аудио1: AC3, 6 ch, 640 Kbps - РусскийРусский, Дублированный
Аудио2: AC3, 6 ch, 448 Kbps - УкраинскийУкраинский, Дублированный
Аудио3: AC3, 6 ch, 640 Kbps - АнглийскийАнглийский, Оригинал
Субтитры: Русские (форсированные, полные), украинские (форсированные, полные), английские

Как за пару секунд удалить ненужные аудиодорожки и субтитры (Внимание! После удаления вы не сможете поддержать раздачу)

Медиаинфо
x265 [info]: frame I: Avg QP:16.04
x265 [info]: frame P: Avg QP:17.81
x265 [info]: frame B: Avg QP:20.31
x265 [info]: consecutive B-frames: 10.5% 6.4% 17.8% 41.2% 10.0% 11.3% 1.4% 0.9% 0.6%

Avg QP:19.63

Общее
Уникальный идентификатор : 10443776439937764383997859582956150432 (0x7DB65EEFB3A993CF762F680EEEE1EA0)
Полное имя : H:InstallUploadIce Age5. Ice Age Collision Course (2016) BDRip 1080p [HEVC].mkv
Формат : Matroska
Версия формата : Version 4
Размер файла : 5,10 Гбайт
Продолжительность : 1 ч. 34 м.
Общий поток : 7725 Кбит/сек
Название фильма : Ice Age: Collision Course (2016)
Дата кодирования : UTC 2019-09-03 14:43:42
Программа кодирования : mkvmerge v36.0.0 ('Is That Jazz?') 64-bit
Библиотека кодирования : libebml v1.3.9 + libmatroska v1.5.2
Обложка : Yes
Attachments : cover.jpg

Видео
Идентификатор : 1
Формат : HEVC
Формат/Информация : High Efficiency Video Coding
Профиль формата : Main 10@L4.1@High
Идентификатор кодека : V_MPEGH/ISO/HEVC
Продолжительность : 1 ч. 34 м.
Битрейт : 5994 Кбит/сек
Ширина : 1920 пикселей
Высота : 800 пикселей
Соотношение сторон : 2,40:1
Режим частоты кадров : Постоянный
Частота кадров : 23,976 (23976/1000) кадра/сек
Частота кадров в оригинале : 23,976 (24000/1001) кадра/сек
Цветовое пространство : YUV
Субдискретизация насыщенности : 4:2:0
Битовая глубина : 10 бит
Бит/(Пиксели*Кадры) : 0.163
Размер потока : 3,96 Гбайт (78%)
Библиотека кодирования : x265 3.0_Au+4-dcbec33bfb0f:[Windows][MSVC 1916][64 bit] 10bit
Настройки программы : cpuid=1111039 / frame-threads=3 / numa-pools=12 / wpp / no-pmode / no-pme / no-psnr / no-ssim / log-level=2 / input-csp=1 / input-res=1920x800 / interlace=0 / total-frames=124455 / level-idc=41 / high-tier=1 / uhd-bd=0 / ref=5 / no-allow-non-conformance / no-repeat-headers / annexb / no-aud / no-hrd / info / hash=0 / no-temporal-layers / open-gop / min-keyint=23 / keyint=240 / gop-lookahead=0 / bframes=8 / b-adapt=2 / b-pyramid / bframe-bias=0 / rc-lookahead=60 / lookahead-slices=4 / scenecut=40 / radl=0 / no-splice / no-intra-refresh / ctu=32 / min-cu-size=8 / rect / amp / max-tu-size=32 / tu-inter-depth=4 / tu-intra-depth=4 / limit-tu=1 / rdoq-level=2 / dynamic-rd=0.00 / no-ssim-rd / signhide / no-tskip / nr-intra=0 / nr-inter=0 / no-constrained-intra / no-strong-intra-smoothing / max-merge=4 / limit-refs=2 / limit-modes / me=3 / subme=7 / merange=57 / temporal-mvp / weightp / weightb / no-analyze-src-pics / deblock=-3:-3 / no-sao / no-sao-non-deblock / rd=6 / no-early-skip / no-rskip / no-fast-intra / no-tskip-fast / no-cu-lossless / no-b-intra / no-splitrd-skip / rdpenalty=0 / psy-rd=2.00 / psy-rdoq=1.00 / no-rd-refine / no-lossless / cbqpoffs=0 / crqpoffs=0 / rc=crf / crf=19.0 / qcomp=0.60 / qpstep=4 / stats-write=0 / stats-read=0 / vbv-maxrate=50000 / vbv-bufsize=50000 / vbv-init=0.9 / crf-max=0.0 / crf-min=0.0 / ipratio=1.40 / pbratio=1.30 / aq-mode=1 / aq-strength=1.00 / no-cutree / zone-count=0 / no-strict-cbr / qg-size=32 / no-rc-grain / qpmax=69 / qpmin=0 / no-const-vbv / sar=1 / overscan=0 / videoformat=5 / range=0 / colorprim=2 / transfer=2 / colormatrix=2 / chromaloc=0 / display-window=0 / max-cll=0,0 / min-luma=0 / max-luma=1023 / log2-max-poc-lsb=8 / vui-timing-info / vui-hrd-info / slices=1 / no-opt-qp-pps / no-opt-ref-list-length-pps / no-multi-pass-opt-rps / scenecut-bias=0.05 / no-opt-cu-delta-qp / no-aq-motion / no-hdr / no-hdr-opt / no-dhdr10-opt / no-idr-recovery-sei / analysis-reuse-level=5 / scale-factor=0 / refine-intra=0 / refine-inter=0 / refine-mv=0 / refine-ctu-distortion=0 / no-limit-sao / ctu-info=0 / no-lowpass-dct / refine-analysis-type=0 / copy-pic=1 / max-ausize-factor=1.0 / no-dynamic-refine / no-single-sei / no-hevc-aq / qp-adaptation-range=1.00
Default : Да
Forced : Нет

Аудио #1
Идентификатор : 2
Формат : AC-3
Формат/Информация : Audio Coding 3
Коммерческое название : Dolby Digital
Идентификатор кодека : A_AC3
Продолжительность : 1 ч. 34 м.
Вид битрейта : Постоянный
Битрейт : 640 Кбит/сек
Каналы : 6 каналов
Channel layout : L R C LFE Ls Rs
Частота : 48,0 КГц
Частота кадров : 31,250 кадров/сек (1536 SPF)
Битовая глубина : 16 бит
Метод сжатия : С потерями
Размер потока : 433 Мбайт (8%)
Заголовок : Дубляж - BD Eur
Язык : Russian
ServiceKind : Complete Main
Default : Да
Forced : Нет

Аудио #2
Идентификатор : 3
Формат : AC-3
Формат/Информация : Audio Coding 3
Коммерческое название : Dolby Digital
Идентификатор кодека : A_AC3
Продолжительность : 1 ч. 34 м.
Вид битрейта : Постоянный
Битрейт : 448 Кбит/сек
Каналы : 6 каналов
Channel layout : L R C LFE Ls Rs
Частота : 48,0 КГц
Частота кадров : 31,250 кадров/сек (1536 SPF)
Битовая глубина : 16 бит
Метод сжатия : С потерями
Размер потока : 303 Мбайт (6%)
Заголовок : Дубляж - BD Eur
Язык : Ukrainian
ServiceKind : Complete Main
Default : Нет
Forced : Нет

Аудио #3
Идентификатор : 4
Формат : AC-3
Формат/Информация : Audio Coding 3
Коммерческое название : Dolby Digital
Идентификатор кодека : A_AC3
Продолжительность : 1 ч. 34 м.
Вид битрейта : Постоянный
Битрейт : 640 Кбит/сек
Каналы : 6 каналов
Channel layout : L R C LFE Ls Rs
Частота : 48,0 КГц
Частота кадров : 31,250 кадров/сек (1536 SPF)
Битовая глубина : 16 бит
Метод сжатия : С потерями
Размер потока : 432 Мбайт (8%)
Заголовок : Original
Язык : English
ServiceKind : Complete Main
Default : Нет
Forced : Нет

Текст #1
Идентификатор : 5
Формат : UTF-8
Идентификатор кодека : S_TEXT/UTF8
Идентификатор кодека/Информация : UTF-8 Plain Text
Продолжительность : 24 м. 51 с.
Битрейт : 0 бит/сек
ElementCount : 3
Размер потока : 173 байт (0%)
Заголовок : Форсированные
Язык : Russian
Default : Да
Forced : Нет

Текст #2
Идентификатор : 6
Формат : UTF-8
Идентификатор кодека : S_TEXT/UTF8
Идентификатор кодека/Информация : UTF-8 Plain Text
Продолжительность : 1 ч. 23 м.
Битрейт : 99 бит/сек
ElementCount : 1221
Размер потока : 61,1 Кбайт (0%)
Заголовок : Полные
Язык : Russian
Default : Нет
Forced : Нет

Текст #3
Идентификатор : 7
Формат : UTF-8
Идентификатор кодека : S_TEXT/UTF8
Идентификатор кодека/Информация : UTF-8 Plain Text
Продолжительность : 1 ч. 21 м.
Битрейт : 0 бит/сек
ElementCount : 3
Размер потока : 145 байт (0%)
Заголовок : Форсированные
Язык : Ukrainian
Default : Нет
Forced : Нет

Текст #4
Идентификатор : 8
Формат : UTF-8
Идентификатор кодека : S_TEXT/UTF8
Идентификатор кодека/Информация : UTF-8 Plain Text
Продолжительность : 1 ч. 33 м.
Битрейт : 89 бит/сек
ElementCount : 1225
Размер потока : 61,3 Кбайт (0%)
Заголовок : Полные
Язык : Ukrainian
Default : Нет
Forced : Нет

Текст #5
Идентификатор : 9
Формат : UTF-8
Идентификатор кодека : S_TEXT/UTF8
Идентификатор кодека/Информация : UTF-8 Plain Text
Продолжительность : 1 ч. 23 м.
Битрейт : 60 бит/сек
ElementCount : 1221
Размер потока : 36,9 Кбайт (0%)
Заголовок : Full
Язык : English
Default : Нет
Forced : Нет

Меню
00:00:00.000 : :1
00:03:09.104 : :2
00:05:24.365 : :3
00:09:06.086 : :4
00:13:22.301 : :5
00:18:05.750 : :6
00:20:50.582 : :7
00:23:10.305 : :8
00:27:29.897 : :9
00:30:15.980 : :10
00:32:54.346 : :11
00:36:13.588 : :12
00:39:33.454 : :13
00:42:58.701 : :14
00:47:35.018 : :15
00:51:11.735 : :16
00:55:50.764 : :17
01:01:09.456 : :18
01:05:06.402 : :19
01:09:39.300 : :20
01:14:36.889 : :21
01:17:41.530 : :22
01:21:43.064 : :23
01:24:46.497 : :24
Загрузка...Cкриншот1 Ледниковый период: Столкновение неизбежно / Ice Age: Collision Course (2016) BDRip 1080p [HEVC] 10 bit от Mr. FoxЗагрузка...Cкриншот2 Ледниковый период: Столкновение неизбежно / Ice Age: Collision Course (2016) BDRip 1080p [HEVC] 10 bit от Mr. FoxЗагрузка...Cкриншот3 Ледниковый период: Столкновение неизбежно / Ice Age: Collision Course (2016) BDRip 1080p [HEVC] 10 bit от Mr. FoxЗагрузка...Cкриншот4 Ледниковый период: Столкновение неизбежно / Ice Age: Collision Course (2016) BDRip 1080p [HEVC] 10 bit от Mr. Fox
Торрент🧲 Магнет

Рейтинги КП и IMDB, кнопки "Позвать в чате" и "Спасибо", а также мультитрекерная статистика доступны только зарегистрированным/авторизованным пользователям!

Файлы: 5
  • Ice Age
    • 1. Ice Age (2002) BDRip 1080p [HEVC].mkv   3.65 ГБ
    • 2. Ice Age The Meltdown (2006) BDRip 1080p [HEVC].mkv   4.82 ГБ
    • 3. Ice Age Dawn of the Dinosaurs (2009) BDRip 1080p [HEVC].mkv   5.38 ГБ
    • 4. Ice Age Continental Drift (2012) BDRip 1080p [HEVC].mkv   4.75 ГБ
    • 5. Ice Age Collision Course (2016) BDRip 1080p [HEVC].mkv   5.1 ГБ
Поблагодарили: 32
375509, 7654321, AziK017, bitum, boxgas, brukvalub, curly2, denebunix, denisptp4, dimasij, FireIce, fitaurari, ko1ob, malush, mat, maximka, MIGRANT, miro333, na3uTuB4uk, nach, netfigni, NoMaD, NRK888, pipen033, SaN161NeK, SergKote, svibog123, SYNC80001, tereban, VadimM, Vitoss6, Ярослав
Admin
33451216 (5)  23.7 ГБ

Добавление нового комментария

Добавление комментариев доступно только зарегистрированным/авторизованным пользователям.
Аватар OldGamer
  OldGamer  (Отредактировал OldGamer: )    
AziK017 писал(а):
Всем привет. Почему многие торренты медленные скорость?
Ваш клиент не может соединиться с сидами. Это часто наблюдается, когда клиент за границей (как в вашем случае), а сиды в РФ, и наоборот.
У меня эта раздача прямо сейчас скачивается со скоростью около 1.3 Мб/с.
Трассировка маршрута до вас обрывается на Узтелекоме.
Аватар AziK017
  AziK017  
Всем привет. Почему многие торренты медленные скорость?
Аватар NoMaD
  NoMaD  
Как это я пропустил.Нужно обязательно скачать