Чат

⚫︎
Список изменений сайта - https://rips.club/changelog.html (обновлен 24.05.2024)
  • arwis
  • Roman1312
  • z1M4p9i0
Онлайн (за 10 мин.): 3
Отправка сообщений доступна только зарегистрированным/авторизованным пользователям.

🎥︎🎥︎Робокоп: Трилогия / RoboCop: Trilogy (1987-1993) BDRip 1080р [HEVC] 10 bit от M@kSIMus


Обложка Робокоп: Трилогия / RoboCop: Trilogy (1987-1993) BDRip 1080р [HEVC] 10 bit от M@kSIMus
HEVC
10 bit
⤓︎Торрент🧲︎Магнет$Пожертвования
Год: 1987-1993
Страна: США
Студия: Orion Pictures, Metro-Goldwyn-Mayer
Жанр: Фантастика, Боевик, Триллер, Криминал


1. РобоКоп / RoboCop (1987) [Director's Cut | Remastered] BDRip 1080p [HEVC] 10 bit от M@kSIMus
Обложка РобоКоп / RoboCop (1987) [Director's Cut | Remastered] BDRip 1080p [HEVC] 10 bit от M@kSIMus
HEVC
10 bit
✂︎Сэмпл
Год: 1987
Страна: США
Студия: Orion Pictures
Жанр: Фантастика, Боевик, Криминал
Длительность: 01:43:17

Режиссер: Пол Верховен
В ролях: Питер Уэллер, Нэнси Аллен, Дэн О`Херлихи, Ронни Кокс, Кертвуд Смит, Мигель Феррер, Роберт Дукуй, Рэй Уайз, Фелтон Перри, Пол МакКрейн

Описание: После гибели одного из лучших полицейских врачи-экспериментаторы создают из него неуязвимого киборга Робокопа, который в одиночку борется с бандой преступников. Однако прочная броня не спасает Робокопа от мучительных, обрывочных воспоминаний о прошлом: он постоянно видит кошмарные сны, в которых погибает от рук жестоких преступников. Теперь он не только ждёт правосудия,... но и жаждет мести!


Видео: 1920x1036, 8931 Kbps
Аудио1: AC3, 6 ch, 448 Kbps - РусскийРусский, Многоголосый (Профессиональный)
Аудио2: AC3, 6 ch, 448 Kbps - АнглийскийАнглийский, Оригинал
Субтитры: Отсутствуют

Как за несколько секунд удалить ненужные аудиодорожки и субтитры (Внимание! После удаления вы не сможете поддержать раздачу)


МедиаинфоОбщее
Уникальный идентификатор : 84876204525328235605222976011301402638 (0x3FDA8FF8898511C8BE7952373F41B80E)
Полное имя : E:\Фильмы\RoboCop\01. РобоКоп (1987) BDRip 1080p [Remastered Director's Cut] [HEVC] 10 bit Rip_by_M@kSIMus.mkv
Формат : Matroska
Версия формата : Version 4 / Version 2
Размер файла : 7,09 Гбайт
Продолжительность : 1 ч. 43 м.
Общий поток : 9830 Кбит/сек
Название фильма : Rip_by_M@kSIMus
Дата кодирования : UTC 2018-08-31 10:38:22
Программа кодирования : mkvmerge v19.0.0 ('Brave Captain') 64-bit
Библиотека кодирования : libebml v1.3.5 + libmatroska v1.4.8
Обложка : Yes
Attachments : cover.jpg

Видео
Идентификатор : 1
Формат : HEVC
Формат/Информация : High Efficiency Video Coding
Профиль формата : Main 10@L5.1@High
Идентификатор кодека : V_MPEGH/ISO/HEVC
Продолжительность : 1 ч. 43 м.
Битрейт : 8931 Кбит/сек
Ширина : 1920 пикселей
Высота : 1036 пикселей
Соотношение сторон : 1,85:1
Режим частоты кадров : Постоянный
Частота кадров : 23,976 (24000/1001) кадра/сек
Цветовое пространство : YUV
Субдискретизация насыщенности : 4:2:0
Битовая глубина : 10 бит
Бит/(Пиксели*Кадры) : 0.187
Размер потока : 6,44 Гбайт (91%)
Библиотека кодирования : x265 2.8+19-bcdc610cf5f0:[Windows][GCC 7.3.0][64 bit] 10bit
Настройки программы : cpuid=1049583 / frame-threads=5 / numa-pools=4 / wpp / no-pmode / no-pme / no-psnr / no-ssim / log-level=3 / input-csp=1 / input-res=1920x1036 / interlace=0 / total-frames=0 / level-idc=51 / high-tier=1 / uhd-bd=0 / ref=5 / allow-non-conformance / no-repeat-headers / annexb / no-aud / no-hrd / info / hash=0 / no-temporal-layers / open-gop / min-keyint=24 / keyint=240 / gop-lookahead=0 / bframes=8 / b-adapt=2 / b-pyramid / bframe-bias=0 / rc-lookahead=60 / lookahead-slices=6 / scenecut=40 / radl=0 / no-intra-refresh / ctu=64 / min-cu-size=8 / no-rect / no-amp / max-tu-size=32 / tu-inter-depth=1 / tu-intra-depth=1 / limit-tu=0 / rdoq-level=0 / dynamic-rd=0.00 / no-ssim-rd / signhide / no-tskip / nr-intra=0 / nr-inter=0 / no-constrained-intra / strong-intra-smoothing / max-merge=2 / limit-refs=3 / no-limit-modes / me=3 / subme=7 / merange=57 / temporal-mvp / weightp / no-weightb / no-analyze-src-pics / deblock=-3:-3 / no-sao / no-sao-non-deblock / rd=3 / no-early-skip / rskip / no-fast-intra / no-tskip-fast / no-cu-lossless / no-b-intra / no-splitrd-skip / rdpenalty=0 / psy-rd=2.00 / psy-rdoq=0.00 / no-rd-refine / no-lossless / cbqpoffs=0 / crqpoffs=0 / rc=crf / crf=20.0 / qcomp=0.60 / qpstep=4 / stats-write=0 / stats-read=0 / vbv-maxrate=160000 / vbv-bufsize=160000 / vbv-init=0.9 / crf-max=0.0 / crf-min=0.0 / ipratio=1.40 / pbratio=1.30 / aq-mode=1 / aq-strength=1.00 / cutree / zone-count=0 / no-strict-cbr / qg-size=32 / no-rc-grain / qpmax=69 / qpmin=0 / no-const-vbv / sar=1 / overscan=0 / videoformat=5 / range=0 / colorprim=1 / transfer=1 / colormatrix=1 / chromaloc=0 / display-window=0 / max-cll=0,0 / min-luma=0 / max-luma=1023 / log2-max-poc-lsb=8 / vui-timing-info / vui-hrd-info / slices=1 / no-opt-qp-pps / no-opt-ref-list-length-pps / no-multi-pass-opt-rps / scenecut-bias=0.05 / no-opt-cu-delta-qp / no-aq-motion / no-hdr / no-hdr-opt / no-dhdr10-opt / no-idr-recovery-sei / analysis-reuse-level=5 / scale-factor=0 / refine-intra=0 / refine-inter=0 / refine-mv=0 / no-limit-sao / ctu-info=0 / no-lowpass-dct / refine-mv-type=0 / copy-pic=1 / max-ausize-factor=1.0 / no-dynamic-refine / no-single-sei
Язык : English
Default : Да
Forced : Нет
Цветовой диапазон : Limited
Основные цвета : BT.709
Характеристики трансфера : BT.709
Коэффициенты матрицы : BT.709

Аудио #1
Идентификатор : 2
Формат : AC-3
Формат/Информация : Audio Coding 3
Идентификатор кодека : A_AC3
Продолжительность : 1 ч. 43 м.
Вид битрейта : Постоянный
Битрейт : 448 Кбит/сек
Каналы : 6 каналов
Расположение каналов : Front: L C R, Side: L R, LFE
Частота : 48,0 КГц
Частота кадров : 31,250 кадров/сек (1536 SPF)
Битовая глубина : 16 бит
Метод сжатия : С потерями
Размер потока : 331 Мбайт (5%)
Заголовок : Профессиональный (многоголосый закадровый)
Язык : Russian
ServiceKind/String : Complete Main
Default : Да
Forced : Нет

Аудио #2
Идентификатор : 3
Формат : AC-3
Формат/Информация : Audio Coding 3
Идентификатор кодека : A_AC3
Продолжительность : 1 ч. 43 м.
Вид битрейта : Постоянный
Битрейт : 448 Кбит/сек
Каналы : 6 каналов
Расположение каналов : Front: L C R, Side: L R, LFE
Частота : 48,0 КГц
Частота кадров : 31,250 кадров/сек (1536 SPF)
Битовая глубина : 16 бит
Метод сжатия : С потерями
Размер потока : 331 Мбайт (5%)
Заголовок : Оригинал
Язык : English
ServiceKind/String : Complete Main
Default : Нет
Forced : Нет
Загрузка...Cкриншот1 РобоКоп / RoboCop (1987) [Director's Cut | Remastered] BDRip 1080p [HEVC] 10 bit от M@kSIMusЗагрузка...Cкриншот2 РобоКоп / RoboCop (1987) [Director's Cut | Remastered] BDRip 1080p [HEVC] 10 bit от M@kSIMusЗагрузка...Cкриншот3 РобоКоп / RoboCop (1987) [Director's Cut | Remastered] BDRip 1080p [HEVC] 10 bit от M@kSIMusЗагрузка...Cкриншот4 РобоКоп / RoboCop (1987) [Director's Cut | Remastered] BDRip 1080p [HEVC] 10 bit от M@kSIMus
2. Робокоп 2 / RoboCop 2 (1990) BDRip 1080p [HEVC] 10 bit от M@kSIMus
Обложка Робокоп 2 / RoboCop 2 (1990) BDRip 1080p [HEVC] 10 bit от M@kSIMus
HEVC
10 bit
✂︎Сэмпл
Год: 1990
Страна: США
Студия: Metro-Goldwyn-Mayer, Live Entertainment, Orion Pictures
Жанр: Фантастика, Боевик, Криминал
Длительность: 01:56:40

Режиссер: Ирвин Кершнер
В ролях: Питер Уэллер, Нэнси Аллен, Дэн О’Херлихи, Том Нунен, Белинда Бауэр, Гэбриел Дэймон, Джон Гловер, Марио Мачадо, Лиза Гиббонс, Джон Ингл

Описание: Робот - полицейский продолжает патрулировать улицы Детройта. На этот раз ему предстоит уничтожить фабрику, которая незаконно производит новый вид наркотиков, а также сразиться с роботом - убийцей, созданным в секретной лаборатории, чтобы убрать Робокопа.


Видео: 1920x1040, 9168 Kbps
Аудио1: AC3, 6 ch, 448 Kbps - РусскийРусский, Дублированный (Лицензия)
Аудио2: AC3, 6 ch, 448 Kbps - АнглийскийАнглийский, Оригинал
Субтитры: Русские (полные)

Как за несколько секунд удалить ненужные аудиодорожки и субтитры (Внимание! После удаления вы не сможете поддержать раздачу)


МедиаинфоОбщее
Уникальный идентификатор : 294269209994966433160288621976651000236 (0xDD623036013BDE3B31F9476959C769AC)
Полное имя : E:\Фильмы\RoboCop\02. РобоКоп 2 (1990) BDRip 1080p [HEVC] 10 bit Rip_by_M@kSIMus.mkv
Формат : Matroska
Версия формата : Version 4 / Version 2
Размер файла : 8,20 Гбайт
Продолжительность : 1 ч. 56 м.
Общий поток : 10,1 Мбит/сек
Название фильма : Rip_by_M@kSIMus
Дата кодирования : UTC 2018-09-02 00:31:13
Программа кодирования : mkvmerge v19.0.0 ('Brave Captain') 64-bit
Библиотека кодирования : libebml v1.3.5 + libmatroska v1.4.8
Обложка : Yes
Attachments : cover23.jpg

Видео
Идентификатор : 1
Формат : HEVC
Формат/Информация : High Efficiency Video Coding
Профиль формата : Main 10@L5.1@High
Идентификатор кодека : V_MPEGH/ISO/HEVC
Продолжительность : 1 ч. 56 м.
Битрейт : 9168 Кбит/сек
Ширина : 1920 пикселей
Высота : 1040 пикселей
Соотношение сторон : 1,85:1
Режим частоты кадров : Постоянный
Частота кадров : 23,976 (24000/1001) кадра/сек
Цветовое пространство : YUV
Субдискретизация насыщенности : 4:2:0
Битовая глубина : 10 бит
Бит/(Пиксели*Кадры) : 0.192
Размер потока : 7,47 Гбайт (91%)
Библиотека кодирования : x265 2.8+19-bcdc610cf5f0:[Windows][GCC 7.3.0][64 bit] 10bit
Настройки программы : cpuid=1049583 / frame-threads=5 / numa-pools=4 / wpp / no-pmode / no-pme / no-psnr / no-ssim / log-level=3 / input-csp=1 / input-res=1920x1040 / interlace=0 / total-frames=0 / level-idc=51 / high-tier=1 / uhd-bd=0 / ref=5 / allow-non-conformance / no-repeat-headers / annexb / no-aud / no-hrd / info / hash=0 / no-temporal-layers / open-gop / min-keyint=24 / keyint=240 / gop-lookahead=0 / bframes=8 / b-adapt=2 / b-pyramid / bframe-bias=0 / rc-lookahead=60 / lookahead-slices=6 / scenecut=40 / radl=0 / no-intra-refresh / ctu=64 / min-cu-size=8 / no-rect / no-amp / max-tu-size=32 / tu-inter-depth=1 / tu-intra-depth=1 / limit-tu=0 / rdoq-level=0 / dynamic-rd=0.00 / no-ssim-rd / signhide / no-tskip / nr-intra=0 / nr-inter=0 / no-constrained-intra / strong-intra-smoothing / max-merge=2 / limit-refs=3 / no-limit-modes / me=3 / subme=7 / merange=57 / temporal-mvp / weightp / no-weightb / no-analyze-src-pics / deblock=-3:-3 / no-sao / no-sao-non-deblock / rd=3 / no-early-skip / rskip / no-fast-intra / no-tskip-fast / no-cu-lossless / no-b-intra / no-splitrd-skip / rdpenalty=0 / psy-rd=2.00 / psy-rdoq=0.00 / no-rd-refine / no-lossless / cbqpoffs=0 / crqpoffs=0 / rc=crf / crf=20.0 / qcomp=0.60 / qpstep=4 / stats-write=0 / stats-read=0 / vbv-maxrate=160000 / vbv-bufsize=160000 / vbv-init=0.9 / crf-max=0.0 / crf-min=0.0 / ipratio=1.40 / pbratio=1.30 / aq-mode=1 / aq-strength=1.00 / cutree / zone-count=0 / no-strict-cbr / qg-size=32 / no-rc-grain / qpmax=69 / qpmin=0 / no-const-vbv / sar=1 / overscan=0 / videoformat=5 / range=0 / colorprim=1 / transfer=1 / colormatrix=1 / chromaloc=0 / display-window=0 / max-cll=0,0 / min-luma=0 / max-luma=1023 / log2-max-poc-lsb=8 / vui-timing-info / vui-hrd-info / slices=1 / no-opt-qp-pps / no-opt-ref-list-length-pps / no-multi-pass-opt-rps / scenecut-bias=0.05 / no-opt-cu-delta-qp / no-aq-motion / no-hdr / no-hdr-opt / no-dhdr10-opt / no-idr-recovery-sei / analysis-reuse-level=5 / scale-factor=0 / refine-intra=0 / refine-inter=0 / refine-mv=0 / no-limit-sao / ctu-info=0 / no-lowpass-dct / refine-mv-type=0 / copy-pic=1 / max-ausize-factor=1.0 / no-dynamic-refine / no-single-sei
Язык : English
Default : Да
Forced : Нет
Цветовой диапазон : Limited
Основные цвета : BT.709
Характеристики трансфера : BT.709
Коэффициенты матрицы : BT.709

Аудио #1
Идентификатор : 2
Формат : AC-3
Формат/Информация : Audio Coding 3
Идентификатор кодека : A_AC3
Продолжительность : 1 ч. 56 м.
Вид битрейта : Постоянный
Битрейт : 448 Кбит/сек
Каналы : 6 каналов
Расположение каналов : Front: L C R, Side: L R, LFE
Частота : 48,0 КГц
Частота кадров : 31,250 кадров/сек (1536 SPF)
Битовая глубина : 16 бит
Метод сжатия : С потерями
Размер потока : 374 Мбайт (4%)
Заголовок : Дубляж
Язык : Russian
ServiceKind/String : Complete Main
Default : Да
Forced : Нет

Аудио #2
Идентификатор : 3
Формат : AC-3
Формат/Информация : Audio Coding 3
Идентификатор кодека : A_AC3
Продолжительность : 1 ч. 56 м.
Вид битрейта : Постоянный
Битрейт : 448 Кбит/сек
Каналы : 6 каналов
Расположение каналов : Front: L C R, Side: L R, LFE
Частота : 48,0 КГц
Частота кадров : 31,250 кадров/сек (1536 SPF)
Битовая глубина : 16 бит
Метод сжатия : С потерями
Размер потока : 374 Мбайт (4%)
Заголовок : Оригинал
Язык : English
ServiceKind/String : Complete Main
Default : Нет
Forced : Нет

Текст
Идентификатор : 4
Формат : UTF-8
Идентификатор кодека : S_TEXT/UTF8
Идентификатор кодека/Информация : UTF-8 Plain Text
Продолжительность : 1 ч. 55 м.
Битрейт : 60 бит/сек
ElementCount : 920
Размер потока : 51,4 Кбайт (0%)
Заголовок : Full
Язык : Russian
Default : Да
Forced : Нет
Загрузка...Cкриншот1 Робокоп 2 / RoboCop 2 (1990) BDRip 1080p [HEVC] 10 bit от M@kSIMusЗагрузка...Cкриншот2 Робокоп 2 / RoboCop 2 (1990) BDRip 1080p [HEVC] 10 bit от M@kSIMusЗагрузка...Cкриншот3 Робокоп 2 / RoboCop 2 (1990) BDRip 1080p [HEVC] 10 bit от M@kSIMusЗагрузка...Cкриншот4 Робокоп 2 / RoboCop 2 (1990) BDRip 1080p [HEVC] 10 bit от M@kSIMus
3. Робокоп 3 / RoboCop 3 (1993) BDRip 1080p [HEVC] 10 bit от M@kSIMus
Обложка Робокоп 3 / RoboCop 3 (1993) BDRip 1080p [HEVC] 10 bit от M@kSIMus
HEVC
10 bit
✂︎Сэмпл
Год: 1993
Страна: США
Студия: Orion Pictures, Metro-Goldwyn-Mayer
Жанр: Фантастика, Боевик, Криминал
Длительность: 01:44:50

Режиссер: Фред Деккер
В ролях: Роберт Джон Бёрк, Нэнси Аллен, Рип Торн, Джон Касл, Стивен Рут, Си Си Эйч Паундер, Дэниэл фон Барген, Реми Райан, Роберт Дукуй, Марио Мачадо

Описание: Могущественная корпорация «OKP» и их «сумасшедший» управляющий Макдагет предпринимает меры помочь людям, но с другой стороны она всего лишь хочет приобрести капитал города для себя. Робот - полицейский оказывает сопротивление управляющему этой организацией Макдагетту, за это управляющий убивает Льюис напарницу Робота - полицейского и приказывает убить и того. Робокоп объединяется с повстанцами и полицией для войны с Макдагетом и его «лживой» организацией, и для этого он снаряжается реактивным ранцем.


Видео: 1920x1040, 8157 Kbps
Аудио1: AC3, 6 ch, 448 Kbps - РусскийРусский, Дублированный (Лицензия)
Аудио2: AC3, 6 ch, 448 Kbps - АнглийскийАнглийский, Оригинал
Субтитры: Русские (полные)

Как за несколько секунд удалить ненужные аудиодорожки и субтитры (Внимание! После удаления вы не сможете поддержать раздачу)


МедиаинфоОбщее
Уникальный идентификатор : 271678717302442893752896978149330997160 (0xCC636AEDC48F8D216EB681780E094FA8)
Полное имя : E:\Фильмы\RoboCop\03. РобоКоп 3 (1993) BDRip 1080p [HEVC] 10 bit Rip_by_M@kSIMus.mkv
Формат : Matroska
Версия формата : Version 4
Размер файла : 6,63 Гбайт
Продолжительность : 1 ч. 44 м.
Общий поток : 9055 Кбит/сек
Название фильма : Rip_by_M@kSIMus
Дата кодирования : UTC 2018-09-03 05:59:33
Программа кодирования : mkvmerge v19.0.0 ('Brave Captain') 64-bit
Библиотека кодирования : libebml v1.3.5 + libmatroska v1.4.8
Обложка : Yes
Attachments : cover.jpg

Видео
Идентификатор : 1
Формат : HEVC
Формат/Информация : High Efficiency Video Coding
Профиль формата : Main 10@L5.1@High
Идентификатор кодека : V_MPEGH/ISO/HEVC
Продолжительность : 1 ч. 44 м.
Битрейт : 8157 Кбит/сек
Ширина : 1920 пикселей
Высота : 1040 пикселей
Соотношение сторон : 1,85:1
Режим частоты кадров : Постоянный
Частота кадров : 23,976 (24000/1001) кадра/сек
Цветовое пространство : YUV
Субдискретизация насыщенности : 4:2:0
Битовая глубина : 10 бит
Бит/(Пиксели*Кадры) : 0.170
Размер потока : 5,97 Гбайт (90%)
Библиотека кодирования : x265 2.8+19-bcdc610cf5f0:[Windows][GCC 7.3.0][64 bit] 10bit
Настройки программы : cpuid=1049583 / frame-threads=5 / numa-pools=4 / wpp / no-pmode / no-pme / no-psnr / no-ssim / log-level=3 / input-csp=1 / input-res=1920x1040 / interlace=0 / total-frames=0 / level-idc=51 / high-tier=1 / uhd-bd=0 / ref=5 / allow-non-conformance / no-repeat-headers / annexb / no-aud / no-hrd / info / hash=0 / no-temporal-layers / open-gop / min-keyint=24 / keyint=240 / gop-lookahead=0 / bframes=8 / b-adapt=2 / b-pyramid / bframe-bias=0 / rc-lookahead=40 / lookahead-slices=6 / scenecut=40 / radl=0 / no-intra-refresh / ctu=64 / min-cu-size=8 / no-rect / no-amp / max-tu-size=32 / tu-inter-depth=1 / tu-intra-depth=1 / limit-tu=0 / rdoq-level=0 / dynamic-rd=0.00 / no-ssim-rd / signhide / no-tskip / nr-intra=0 / nr-inter=0 / no-constrained-intra / strong-intra-smoothing / max-merge=2 / limit-refs=3 / no-limit-modes / me=3 / subme=7 / merange=57 / temporal-mvp / weightp / no-weightb / no-analyze-src-pics / deblock=-3:-3 / no-sao / no-sao-non-deblock / rd=3 / no-early-skip / rskip / no-fast-intra / no-tskip-fast / no-cu-lossless / no-b-intra / no-splitrd-skip / rdpenalty=0 / psy-rd=2.00 / psy-rdoq=0.00 / no-rd-refine / no-lossless / cbqpoffs=0 / crqpoffs=0 / rc=crf / crf=18.0 / qcomp=0.60 / qpstep=4 / stats-write=0 / stats-read=0 / vbv-maxrate=160000 / vbv-bufsize=160000 / vbv-init=0.9 / crf-max=0.0 / crf-min=0.0 / ipratio=1.40 / pbratio=1.30 / aq-mode=1 / aq-strength=1.00 / cutree / zone-count=0 / no-strict-cbr / qg-size=32 / no-rc-grain / qpmax=69 / qpmin=0 / no-const-vbv / sar=1 / overscan=0 / videoformat=5 / range=0 / colorprim=1 / transfer=1 / colormatrix=1 / chromaloc=0 / display-window=0 / max-cll=0,0 / min-luma=0 / max-luma=1023 / log2-max-poc-lsb=8 / vui-timing-info / vui-hrd-info / slices=1 / no-opt-qp-pps / no-opt-ref-list-length-pps / no-multi-pass-opt-rps / scenecut-bias=0.05 / no-opt-cu-delta-qp / no-aq-motion / no-hdr / no-hdr-opt / no-dhdr10-opt / no-idr-recovery-sei / analysis-reuse-level=5 / scale-factor=0 / refine-intra=0 / refine-inter=0 / refine-mv=0 / no-limit-sao / ctu-info=0 / no-lowpass-dct / refine-mv-type=0 / copy-pic=1 / max-ausize-factor=1.0 / no-dynamic-refine / no-single-sei
Язык : English
Default : Да
Forced : Нет
Цветовой диапазон : Limited
Основные цвета : BT.709
Характеристики трансфера : BT.709
Коэффициенты матрицы : BT.709

Аудио #1
Идентификатор : 2
Формат : AC-3
Формат/Информация : Audio Coding 3
Коммерческое название : Dolby Digital
Идентификатор кодека : A_AC3
Продолжительность : 1 ч. 44 м.
Вид битрейта : Постоянный
Битрейт : 448 Кбит/сек
Каналы : 6 каналов
Channel layout : L R C LFE Ls Rs
Частота : 48,0 КГц
Частота кадров : 31,250 кадров/сек (1536 SPF)
Битовая глубина : 16 бит
Метод сжатия : С потерями
Размер потока : 336 Мбайт (5%)
Заголовок : Дубляж
Язык : Russian
ServiceKind/String : Complete Main
Default : Да
Forced : Нет

Аудио #2
Идентификатор : 3
Формат : AC-3
Формат/Информация : Audio Coding 3
Коммерческое название : Dolby Digital
Идентификатор кодека : A_AC3
Продолжительность : 1 ч. 44 м.
Вид битрейта : Постоянный
Битрейт : 448 Кбит/сек
Каналы : 6 каналов
Channel layout : L R C LFE Ls Rs
Частота : 48,0 КГц
Частота кадров : 31,250 кадров/сек (1536 SPF)
Битовая глубина : 16 бит
Метод сжатия : С потерями
Размер потока : 336 Мбайт (5%)
Заголовок : Оригинал
Язык : English
ServiceKind/String : Complete Main
Default : Нет
Forced : Нет

Текст
Идентификатор : 4
Формат : UTF-8
Идентификатор кодека : S_TEXT/UTF8
Идентификатор кодека/Информация : UTF-8 Plain Text
Продолжительность : 1 ч. 44 м.
Битрейт : 59 бит/сек
ElementCount : 822
Размер потока : 45,5 Кбайт (0%)
Заголовок : Full
Язык : Russian
Default : Нет
Forced : Нет
Загрузка...Cкриншот1 Робокоп 3 / RoboCop 3 (1993) BDRip 1080p [HEVC] 10 bit от M@kSIMusЗагрузка...Cкриншот2 Робокоп 3 / RoboCop 3 (1993) BDRip 1080p [HEVC] 10 bit от M@kSIMusЗагрузка...Cкриншот3 Робокоп 3 / RoboCop 3 (1993) BDRip 1080p [HEVC] 10 bit от M@kSIMusЗагрузка...Cкриншот4 Робокоп 3 / RoboCop 3 (1993) BDRip 1080p [HEVC] 10 bit от M@kSIMus

Поблагодарили: 207654321, Alex302, Antilord90, brukvalub, curly2, DenisDobdin, Don digidon, Gampeldor, GIS88, han-nik, IRIT, Korbis, LastSurviv0r, nach, Nikihayami, normalllhuman, petr_trnk, Remontaz, sanyahustler, SoulBoy
Файлы: 3
  • RoboCop
    • 7.09 ГБ01. РобоКоп (1987) BDRip 1080p [Remastered Director's Cut] [HEVC] 10 bit Rip_by_M@kSIMus.mkv
    • 8.2 ГБ02. РобоКоп 2 (1990) BDRip 1080p [HEVC] 10 bit Rip_by_M@kSIMus.mkv
    • 6.63 ГБ03. РобоКоп 3 (1993) BDRip 1080p [HEVC] 10 bit Rip_by_M@kSIMus.mkv

Рейтинги КП и IMDB, кнопки "Раздайте, пожалуйста" и "Спасибо", а также мультитрекерная статистика доступны только зарегистрированным/авторизованным пользователям!

MakSIMus
7015152(3) 21.93 ГБ

💬︎ Комментарии

Добавление комментариев доступно только зарегистрированным/авторизованным пользователям.

Всего: 2
Аватар MakSIMus
MakSIMus
Перенесен из темы Робокоп 3 / RoboCop 3 (1993) BDRip 1080p [HEVC] 10 bit от M@kSIMus
Priest2017 писал(а):
Спасибо большое качество супер
Наша контора работает для Вас )))
Аватар не указан
Priest2017
Перенесен из темы Робокоп 3 / RoboCop 3 (1993) BDRip 1080p [HEVC] 10 bit от M@kSIMus
Спасибо большое качество супер