💬 Мини-чат

Для тех, кому интересен процесс переделки сайта - https://rips.club/changelog.html (обновлен 22.02.2024)
OldGamerz1M4p9i0, и этот релиз скачался
Adminatomicheart, встал, но у Вас в профиле не видно. Вам бы перекачать.
OldGamerz1M4p9i0, Хан Соло скачался, но релиз, который был на руторе, там аудиодорожек меньше, чем тут, а видеоряд тот же. Попробуйте оттуда, я пока что сидирую.
OldGamerХан Соло откуда-то по чайной ложке в час скачивается, за сутки 50%, наблюдаем-с дальше
Adminatomicheart, завтра посмотрю, он у меня должен быть.
atomicheartРаздайте, пожалуйста, Тихое место: Дилогия / A Quiet Place: Dilogy (2018-2020) UHD-BDRip 1080p [HEVC] 10 bit [HDR] от Mr. Fox
z1M4p9i0Раздайте, пожалуйста, Хан Соло: Звёздные войны. Истории / Solo: A Star Wars Story (2018) [Локализованная версия] BDRip 1080p [HEVC] 10 bit от Cthulhu
z1M4p9i0Раздайте, пожалуйста, Терминатор: Тёмные судьбы / Terminator: Dark Fate (2019) [iTunes] UHD-BDRip 1440p [HEVC] 10 bit от HANNIBAL
OldGamerKeynol, честно говоря, пока что не планировалось, так как у нас есть отличный рип этого фильма
KeynolПриветствую! А можно сделать HEVC 10 bit на Трон Наследие Hybrid ? там файл на 31 гиг :-( на рутрекере. Хороший, но очень массивный..
  • OldGamer
  • Alex302
  • ancestor87
  • AndresUA
  • InSpector
Отправка сообщений доступна только зарегистрированным/авторизованным пользователям.
Онлайн (за 10 мин.): 5

Звёздные войны: Пробуждение силы / Star Wars: Episode VII - The Force Awakens (2015) [Локализованная версия] BDRip 1080p [HEVC] 10 bit от Cthulhu

HEVC
10 bit
Обложка Звёздные войны: Пробуждение силы / Star Wars: Episode VII - The Force Awakens (2015) [Локализованная версия] BDRip 1080p [HEVC] 10 bit от Cthulhu Год: 2015
Страна: США
Студия: Lucasfilm Ltd., Bad Robot
Жанр: Фантастика, Боевик, Приключения
Продолжительность: 02:18:06

Режиссер: Джей Джей Абрамс
В ролях: Джон Бойега, Дэйзи Ридли, Оскар Айзек, Адам Драйвер, Донал Глисон, Харрисон Форд, Марк Хэмилл, Кэрри Фишер, Макс фон Сюдов, Энди Серкис

Описание: Через тридцать лет после гибели Дарта Вейдера и Императора галактика по-прежнему в опасности. Государственное образование Первый Орден во главе с их таинственным верховным лидером Сноуком и его правой рукой Кайло Реном идёт по стопам Империи, пытаясь захватить всю власть. В это нелёгкое время судьба сводит юную девушку Рей и бывшего штурмовика Первого Ордена Финна с героями времён войны с Империей — Ханом Соло, Чубаккой и генералом Леей. Вместе они должны дать бой Первому Ордену, однако настаёт тот момент, когда становится очевидно, что лишь джедаи могут остановить Сноука и Кайло Рена. И в галактике в живых остаётся только один…


Видео: 1920x816, 5458 Kbps
Аудио1: AC3, 6 ch, 640 Kbps - РусскийРусский, Дублированный (Лицензия)
Аудио2: AC3, 6 ch, 640 Kbps - Оригинал
Субтитры: Русские (форсированные, полные), английские

Как за пару секунд удалить ненужные аудиодорожки и субтитры (Внимание! После удаления вы не сможете поддержать раздачу)

Медиаинфо
Общее
Уникальный идентификатор : 211337435429560377765134032039074761792 (0x9EFE1C09EBB9AFCB8BB371F3B5068C40)
Полное имя : T:\HDFILMS\Star Wars\Star Wars. Episode VII - The Force Awakens (2015) BDRip 1080p [HEVC] 10Bit.mkv
Формат : Matroska
Версия формата : Version 4 / Version 2
Размер файла : 6,50 Гбайт
Продолжительность : 2 ч. 18 м.
Общий поток : 6740 Кбит/сек
Дата кодирования : UTC 2017-10-01 08:44:51
Программа кодирования : mkvmerge v13.0.0 ('The Juggler') 64bit
Библиотека кодирования : libebml v1.3.4 + libmatroska v1.4.5
Обложка : Yes
Attachments : cover7.jpg

Видео
Идентификатор : 1
Формат : HEVC
Формат/Информация : High Efficiency Video Coding
Профиль формата : Main 10@L4.1@High
Идентификатор кодека : V_MPEGH/ISO/HEVC
Продолжительность : 2 ч. 18 м.
Битрейт : 5458 Кбит/сек
Ширина : 1920 пикселей
Высота : 800 пикселей
Соотношение сторон : 2,40:1
Режим частоты кадров : Постоянный
Частота кадров : 23,976 (24000/1001) кадра/сек
Цветовое пространство : YUV
Субдискретизация насыщенности : 4:2:0
Битовая глубина : 10 бит
Бит/(Пиксели*Кадры) : 0.148
Размер потока : 5,26 Гбайт (81%)
Библиотека кодирования : x265 2.5+17-f8ae7afc1f61:[Windows][GCC 7.1.0][64 bit] 10bit
Настройки программы : cpuid=1050111 / frame-threads=5 / numa-pools=4 / wpp / no-pmode / no-pme / no-psnr / no-ssim / log-level=3 / input-csp=1 / input-res=1920x800 / interlace=0 / total-frames=0 / level-idc=41 / high-tier=1 / uhd-bd=0 / ref=4 / no-allow-non-conformance / no-repeat-headers / annexb / no-aud / no-hrd / info / hash=0 / no-temporal-layers / open-gop / min-keyint=23 / keyint=250 / bframes=10 / b-adapt=2 / b-pyramid / bframe-bias=0 / rc-lookahead=40 / lookahead-slices=5 / scenecut=40 / no-intra-refresh / ctu=64 / min-cu-size=8 / no-rect / no-amp / max-tu-size=32 / tu-inter-depth=2 / tu-intra-depth=2 / limit-tu=0 / rdoq-level=0 / dynamic-rd=0.00 / no-ssim-rd / signhide / no-tskip / nr-intra=0 / nr-inter=0 / no-constrained-intra / strong-intra-smoothing / max-merge=3 / limit-refs=3 / no-limit-modes / me=2 / subme=6 / merange=32 / temporal-mvp / weightp / weightb / no-analyze-src-pics / deblock=-3:-3 / no-sao / no-sao-non-deblock / rd=3 / no-early-skip / rskip / no-fast-intra / no-tskip-fast / no-cu-lossless / no-b-intra / no-splitrd-skip / rdpenalty=0 / psy-rd=2.00 / psy-rdoq=0.00 / no-rd-refine / analysis-reuse-mode=0 / no-lossless / cbqpoffs=0 / crqpoffs=0 / rc=crf / crf=18.5 / qcomp=0.60 / qpstep=4 / stats-write=0 / stats-read=0 / vbv-maxrate=50000 / vbv-bufsize=35714 / vbv-init=0.9 / crf-max=30.0 / crf-min=0.0 / ipratio=1.40 / pbratio=1.30 / aq-mode=2 / aq-strength=1.00 / cutree / zone-count=0 / no-strict-cbr / qg-size=32 / no-rc-grain / qpmax=69 / qpmin=0 / no-const-vbv / sar=1 / overscan=0 / videoformat=5 / range=0 / colorprim=1 / transfer=1 / colormatrix=1 / chromaloc=0 / display-window=0 / max-cll=0,0 / min-luma=0 / max-luma=1023 / log2-max-poc-lsb=8 / vui-timing-info / vui-hrd-info / slices=1 / opt-qp-pps / opt-ref-list-length-pps / no-multi-pass-opt-rps / scenecut-bias=0.05 / no-opt-cu-delta-qp / no-aq-motion / no-hdr / no-hdr-opt / no-dhdr10-opt / analysis-reuse-level=5 / scale-factor=0 / refine-intra=0 / refine-inter=0 / refine-mv=0 / no-limit-sao / ctu-info=0
Default : Да
Forced : Нет
Цветовой диапазон : Limited
Основные цвета : BT.709
Характеристики трансфера : BT.709
Коэффициенты матрицы : BT.709

Аудио #1
Идентификатор : 2
Формат : AC-3
Формат/Информация : Audio Coding 3
Параметр Endianness формата : Big
Идентификатор кодека : A_AC3
Продолжительность : 2 ч. 18 м.
Вид битрейта : Постоянный
Битрейт : 640 Кбит/сек
Каналы : 6 каналов
Расположение каналов : Front: L C R, Side: L R, LFE
Частота : 48,0 КГц
Частота кадров : 31,250 кадров/сек (1536 SPF)
Битовая глубина : 16 бит
Метод сжатия : С потерями
Размер потока : 632 Мбайт (9%)
Язык : Russian
ServiceKind/String : Complete Main
Default : Да
Forced : Нет

Аудио #2
Идентификатор : 3
Формат : AC-3
Формат/Информация : Audio Coding 3
Параметр Endianness формата : Big
Идентификатор кодека : A_AC3
Продолжительность : 2 ч. 18 м.
Вид битрейта : Постоянный
Битрейт : 640 Кбит/сек
Каналы : 6 каналов
Расположение каналов : Front: L C R, Side: L R, LFE
Частота : 48,0 КГц
Частота кадров : 31,250 кадров/сек (1536 SPF)
Битовая глубина : 16 бит
Метод сжатия : С потерями
Размер потока : 632 Мбайт (9%)
Язык : English
ServiceKind/String : Complete Main
Default : Нет
Forced : Нет

Текст #1
Идентификатор : 4
Формат : UTF-8
Идентификатор кодека : S_TEXT/UTF8
Идентификатор кодека/Информация : UTF-8 Plain Text
Продолжительность : 2 ч. 15 м.
Битрейт : 5 бит/сек
ElementCount : 138
Размер потока : 4,97 Кбайт (0%)
Заголовок : rus forced
Язык : Russian
Default : Да
Forced : Да

Текст #2
Идентификатор : 5
Формат : UTF-8
Идентификатор кодека : S_TEXT/UTF8
Идентификатор кодека/Информация : UTF-8 Plain Text
Продолжительность : 2 ч. 15 м.
Битрейт : 59 бит/сек
ElementCount : 1292
Размер потока : 59,4 Кбайт (0%)
Заголовок : rus full
Язык : Russian
Default : Нет
Forced : Нет

Текст #3
Идентификатор : 6
Формат : UTF-8
Идентификатор кодека : S_TEXT/UTF8
Идентификатор кодека/Информация : UTF-8 Plain Text
Продолжительность : 2 ч. 17 м.
Битрейт : 40 бит/сек
ElementCount : 1496
Размер потока : 41,0 Кбайт (0%)
Язык : English
Default : Нет
Forced : Нет

Меню
00:00:00.000 : :Opening Logo
00:00:09.259 : :The Force Awakens
00:01:43.061 : :The First Order Approaches
00:03:51.857 : :Village Raid
00:06:12.289 : :Kylo Ren
00:09:33.948 : :FN-2187
00:10:43.560 : :Rey
00:12:35.713 : :Niima Outpost
00:13:39.694 : :Rey At Home
00:14:48.221 : :Saving BB-8
00:16:45.922 : :Interrogation
00:18:04.583 : :Unkar's Offer
00:19:21.535 : :Jailbreak
00:21:26.619 : :TIE Fighter Escape
00:24:03.651 : :Marooned On Jakku
00:26:47.022 : :Crossing Paths
00:29:54.668 : :Marketplace Chase
00:31:49.324 : :The Falcon Files Agian
00:35:51.775 : :Introductions
00:36:40.615 : :Kylo Is Updated
00:37:45.513 : :Fixing The Falcon
00:40:19.250 : :"Chewie, We're Home"
00:43:39.200 : :Corellian Standoff
00:45:29.560 : :Rathtar Mayhem
00:49:22.918 : :Supreme Leader
00:51:19.952 : :"It's All True"
00:54:13.750 : :Meeting Maz
00:59:48.794 : :Discussions Of Destinies
01:04:16.061 : :Visions In The Force
01:08:37.238 : :Starkiller
01:11:07.220 : :First Order Invasion
01:15:16.387 : :Resistance To The Recuse
01:16:49.897 : :Kylo Finds Rey
01:19:37.523 : :Reunion
01:20:56.894 : :Resistance Base
01:25:36.173 : :Rey Imprisoned
01:32:12.569 : :Resistance Briefing
01:35:29.015 : :Starkiller Landing
01:36:34.956 : :Base Infiltration
01:39:28.629 : :X-Wing Attack
01:41:29.959 : :Rejoining Rey
01:42:57.505 : :Into The Oscillator
01:45:00.002 : :Farther And Son
01:50:33.710 : :Dark Forest
01:53:39.771 : :Oscillattor Breached
01:55:22.165 : :Forest Duel
01:58:05.453 : :Caraclysm
02:01:05.592 : :Made Whole
02:02:32.679 : :Finding The Master
02:07:07.578 : :End Credits
Загрузка...Cкриншот1 Звёздные войны: Пробуждение силы / Star Wars: Episode VII - The Force Awakens (2015) [Локализованная версия] BDRip 1080p [HEVC] 10 bit от CthulhuЗагрузка...Cкриншот2 Звёздные войны: Пробуждение силы / Star Wars: Episode VII - The Force Awakens (2015) [Локализованная версия] BDRip 1080p [HEVC] 10 bit от CthulhuЗагрузка...Cкриншот3 Звёздные войны: Пробуждение силы / Star Wars: Episode VII - The Force Awakens (2015) [Локализованная версия] BDRip 1080p [HEVC] 10 bit от CthulhuЗагрузка...Cкриншот4 Звёздные войны: Пробуждение силы / Star Wars: Episode VII - The Force Awakens (2015) [Локализованная версия] BDRip 1080p [HEVC] 10 bit от Cthulhu
Сэмпл Торрент🧲 Магнет

Рейтинги КП и IMDB, кнопки "Позвать в чате" и "Спасибо", а также мультитрекерная статистика доступны только зарегистрированным/авторизованным пользователям!

Файлы: 1
  • Star Wars. Episode VII - The Force Awakens (2015) BDRip 1080p [HEVC] 10Bit.mkv   6.5 ГБ
Поблагодарили: 10
Alex302, Art1967, grudich, ko1ob, normalllhuman, Rezident, sakurarec, silver, Stigmatlazy, zibo
Cthulhu
0713106.5 ГБ

Добавление нового комментария

Добавление комментариев доступно только зарегистрированным/авторизованным пользователям.