💬 Мини-чат

GiggaloСообщение удалено (удалил: Giggalo)
StarLordOldGamer, как дела?)
StarLordOldGamer, ура, вернулся 😄
OldGamerRezident, можете скачать этот фильм от другого релизёра, там невелика разница, а раздающие точно есть
OldGamerGiggalo, https://tsya.ru/mnemonic.html
NoMaDСообщение удалено (удалил: NoMaD)
NoMaDСообщение удалено (удалил: NoMaD)
GiggaloСообщение удалено (удалил: Giggalo)
GiggaloСообщение удалено (удалил: Giggalo)
Spartanec1308Был днём
StarLordGiggalo, наверное отрубало беднягу, целый день его нету 😅
GiggaloСообщение удалено (удалил: Giggalo)
OldGamerДоброе. Работы много, некогда на перинах валяться.
GiggaloСообщение удалено (удалил: Giggalo)
GiggaloСообщение удалено (удалил: Giggalo)
  • Spartanec1308
  • Giggalo
  • Blaster
  • litanglong
Отправка сообщений доступна только зарегистрированным/авторизованным пользователям.
Онлайн (за 10 мин.): 4

Матрица: Трилогия / The Matrix: Trilogy (1999-2003) BDRip 1080p [HEVC] 8 bit от XuMuK

HEVC
8 bit
Обложка Матрица: Трилогия / The Matrix: Trilogy (1999-2003) BDRip 1080p [HEVC] 8 bit от XuMuK Год: 1999-2003
Страна: США
Студия: Groucho II Film Partnership, Silver Pictures, Village Roadshow Pictures, Warner Bros. Pictures Co
Жанр: Фантастика, Боевик

1. Матрица / The Matrix (1999) BDRip 1080p [HEVC] 8 bit от XuMuK
HEVC
8 bit
Обложка Матрица / The Matrix (1999) BDRip 1080p [HEVC] 8 bit от XuMuK Год: 1999
Страна: США
Студия: Groucho II Film Partnership, Silver Pictures, Village Roadshow Pictures, Warner Bros. Pictures Co
Жанр: Фантастика, Боевик
Продолжительность: 02:16:17

Режиссер: Лэрри Вачовски, Энди Вачовски
В ролях: Киану Ривз, Лоренс Фишбёрн, Кэрри-Энн Мосс, Хьюго Уивинг, Джо Пантольяно, Глория Фостер, Маркус Чонг, Джулиан Араханга, Мэтт Доран, Белинда МакКлори, Энтони Рэй Паркер, Пол Годдард

Описание: Жизнь Томаса Андерсона разделена на две части: днём он — самый обычный офисный работник, получающий нагоняи от начальства, а ночью превращается в хакера по имени Нео, и нет места в сети, куда он не смог бы дотянуться. Но однажды всё меняется — герой, сам того не желая, узнаёт страшную правду: всё, что его окружает — не более, чем иллюзия, Матрица, а люди — всего лишь источник питания для искусственного интеллекта, поработившего человечество. И только Нео под силу изменить расстановку сил в этом чужом и страшном мире.


Видео: 1920x792, 4950 Kbps
Аудио1: AC3, 6 ch, 448 Kbps - РусскийРусский, Дублированный
Аудио2: AC3, 6 ch, 448 Kbps - АнглийскийАнглийский, Оригинал
Субтитры: Русские, английские

Как за пару секунд удалить ненужные аудиодорожки и субтитры (Внимание! После удаления вы не сможете поддержать раздачу)

Медиаинфо
General
Unique ID : 181791822382188430184535661475262978310 (0x88C3D4D90F1DD5199C0DCA863D895906)
Complete name : H:HEVC 2Matrix Trilogy1 The Matrix_1999_BDRip_1080p_[HEVC].mkv
Format : Matroska
Format version : Version 4 / Version 2
File size : 5.59 GiB
Duration : 2 h 16 min
Overall bit rate : 5 867 kb/s
Encoded date : UTC 2017-12-31 07:04:38
Writing application : mkvmerge v18.0.0 ('Apricity') 64-bit
Writing library : libebml v1.3.5 + libmatroska v1.4.8
Cover : Yes
Attachments : cover.png

Video
ID : 1
Format : HEVC
Format/Info : High Efficiency Video Coding
Format profile : Main@L4.1@High
Codec ID : V_MPEGH/ISO/HEVC
Duration : 2 h 16 min
Bit rate : 4 950 kb/s
Width : 1 920 pixels
Height : 792 pixels
Display aspect ratio : 2.40:1
Frame rate mode : Constant
Frame rate : 23.976 (24000/1001) FPS
Color space : YUV
Chroma subsampling : 4:2:0
Bit depth : 8 bits
Bits/(Pixel*Frame) : 0.136
Stream size : 4.71 GiB (84%)
Writing library : x265 2.4+6-fd01abfc7898:[Windows][GCC 6.3.0][64 bit] 8bit+10bit+12bit
Encoding settings : cpuid=1173503 / frame-threads=3 / numa-pools=8 / wpp / no-pmode / no-pme / no-psnr / no-ssim / log-level=2 / input-csp=1 / input-res=1920x792 / interlace=0 / total-frames=0 / level-idc=41 / high-tier=1 / uhd-bd=0 / ref=4 / no-allow-non-conformance / no-repeat-headers / annexb / no-aud / no-hrd / info / hash=0 / no-temporal-layers / open-gop / min-keyint=23 / keyint=240 / bframes=10 / b-adapt=2 / b-pyramid / bframe-bias=0 / rc-lookahead=25 / lookahead-slices=4 / scenecut=40 / no-intra-refresh / ctu=64 / min-cu-size=8 / rect / no-amp / max-tu-size=32 / tu-inter-depth=3 / tu-intra-depth=3 / limit-tu=0 / rdoq-level=2 / dynamic-rd=0.00 / no-ssim-rd / signhide / no-tskip / nr-intra=0 / nr-inter=0 / no-constrained-intra / strong-intra-smoothing / max-merge=3 / limit-refs=3 / limit-modes / me=2 / subme=7 / merange=32 / temporal-mvp / weightp / weightb / no-analyze-src-pics / deblock=-3:-3 / no-sao / no-sao-non-deblock / rd=4 / no-early-skip / rskip / no-fast-intra / no-tskip-fast / no-cu-lossless / no-b-intra / rdpenalty=0 / psy-rd=2.00 / psy-rdoq=2.00 / no-rd-refine / analysis-mode=0 / no-lossless / cbqpoffs=0 / crqpoffs=0 / rc=crf / crf=18.0 / qcomp=0.60 / qpstep=4 / stats-write=0 / stats-read=0 / vbv-maxrate=50000 / vbv-bufsize=50000 / vbv-init=0.9 / crf-max=0.0 / crf-min=0.0 / ipratio=1.40 / pbratio=1.30 / aq-mode=3 / aq-strength=0.90 / cutree / zone-count=1 / zones: / start-frame=186174 / end-frame=196075 / qp=35 / no-strict-cbr / qg-size=32 / no-rc-grain / qpmax=69 / qpmin=0 / sar=0 / overscan=0 / videoformat=5 / range=0 / colorprim=2 / transfer=2 / colormatrix=1 / chromaloc=0 / display-window=0 / max-cll=0,0 / min-luma=0 / max-luma=255 / log2-max-poc-lsb=8 / vui-timing-info / vui-hrd-info / slices=1 / opt-qp-pps / opt-ref-list-length-pps / no-multi-pass-opt-rps / scenecut-bias=0.05 / no-opt-cu-delta-qp / aq-motion / no-hdr / no-hdr-opt / no-dhdr10-opt / refine-level=5 / no-limit-sao
Default : Yes
Forced : Yes
Color range : Limited
Matrix coefficients : BT.709

Audio #1
ID : 4
Format : AC-3
Format/Info : Audio Coding 3
Format settings, Endianness : Big
Codec ID : A_AC3
Duration : 2 h 16 min
Bit rate mode : Constant
Bit rate : 448 kb/s
Channel(s) : 6 channels
Channel positions : Front: L C R, Side: L R, LFE
Sampling rate : 48.0 kHz
Frame rate : 31.250 FPS (1536 SPF)
Bit depth : 16 bits
Compression mode : Lossy
Stream size : 437 MiB (8%)
Title : Дублированный
Language : Russian
Service kind : Complete Main
Default : Yes
Forced : No

Audio #2
ID : 5
Format : AC-3
Format/Info : Audio Coding 3
Format settings, Endianness : Big
Codec ID : A_AC3
Duration : 2 h 16 min
Bit rate mode : Constant
Bit rate : 448 kb/s
Channel(s) : 6 channels
Channel positions : Front: L C R, Side: L R, LFE
Sampling rate : 48.0 kHz
Frame rate : 31.250 FPS (1536 SPF)
Bit depth : 16 bits
Compression mode : Lossy
Stream size : 437 MiB (8%)
Title : Оригинал
Language : English
Service kind : Complete Main
Default : No
Forced : No

Text #1
ID : 2
Format : PGS
Muxing mode : zlib
Codec ID : S_HDMV/PGS
Codec ID/Info : Picture based subtitle format used on BDs/HD-DVDs
Duration : 2 h 15 min
Bit rate : 20.6 kb/s
Count of elements : 2734
Stream size : 20.0 MiB (0%)
Title : Русские
Language : Russian
Default : Yes
Forced : No

Text #2
ID : 3
Format : PGS
Muxing mode : zlib
Codec ID : S_HDMV/PGS
Codec ID/Info : Picture based subtitle format used on BDs/HD-DVDs
Duration : 2 h 15 min
Bit rate : 21.3 kb/s
Count of elements : 2744
Stream size : 20.6 MiB (0%)
Title : Оригинал
Language : English
Default : No
Forced : No

Menu
00:00:00.000 : en:Chapter 00
00:03:25.788 : en:Chapter 01
00:06:35.645 : en:Chapter 02
00:09:42.665 : en:Chapter 03
00:11:58.300 : en:Chapter 04
00:16:47.423 : en:Chapter 05
00:21:33.542 : en:Chapter 06
00:25:08.590 : en:Chapter 07
00:28:51.146 : en:Chapter 08
00:32:25.193 : en:Chapter 09
00:35:21.869 : en:Chapter 10
00:38:40.901 : en:Chapter 11
00:44:22.576 : en:Chapter 12
00:46:33.540 : en:Chapter 13
00:48:57.851 : en:Chapter 14
00:53:31.291 : en:Chapter 15
00:56:32.138 : en:Chapter 16
00:59:01.287 : en:Chapter 17
01:01:08.581 : en:Chapter 18
01:05:16.495 : en:Chapter 19
01:07:46.812 : en:Chapter 20
01:12:33.432 : en:Chapter 21
01:17:49.581 : en:Chapter 22
01:21:03.108 : en:Chapter 23
01:25:05.350 : en:Chapter 24
01:29:45.129 : en:Chapter 25
01:31:27.565 : en:Chapter 26
01:37:25.256 : en:Chapter 27
01:41:04.975 : en:Chapter 28
01:44:20.337 : en:Chapter 29
01:47:00.497 : en:Chapter 30
01:50:18.528 : en:Chapter 31
01:52:56.686 : en:Chapter 32
01:56:36.906 : en:Chapter 33
01:58:49.372 : en:Chapter 34
02:02:27.423 : en:Chapter 35
02:05:41.784 : en:Chapter 36
02:08:46.802 : en:Chapter 37
Загрузка...Cкриншот1 Матрица / The Matrix (1999) BDRip 1080p [HEVC] 8 bit от XuMuKЗагрузка...Cкриншот2 Матрица / The Matrix (1999) BDRip 1080p [HEVC] 8 bit от XuMuKЗагрузка...Cкриншот3 Матрица / The Matrix (1999) BDRip 1080p [HEVC] 8 bit от XuMuKЗагрузка...Cкриншот4 Матрица / The Matrix (1999) BDRip 1080p [HEVC] 8 bit от XuMuK
2. Матрица: Перезагрузка / The Matrix Reloaded (2003) BDRip 1080p [HEVC] 8 bit от XuMuK
HEVC
8 bit
Обложка Матрица: Перезагрузка / The Matrix Reloaded (2003) BDRip 1080p [HEVC] 8 bit от XuMuK Год: 2003
Страна: США, Австралия
Студия: Heineken Branded Entertainment, NPV Entertainment, Silver Pictures, Village Roadshow Pictures, Warner Bros. Pictures Co.
Жанр: Фантастика, Боевик
Продолжительность: 02:18:15

Режиссер: Лэрри Вачовски, Энди Вачовски
В ролях: Киану Ривз, Хьюго Уивинг, Кэрри-Энн Мосс, Лоренс Фишбёрн, Хэролд Перрино, Джада Пинкетт Смит, Моника Беллуччи, Глория Фостер, Джина Торрес, Нэтаниэл Лис, Гарри Дж. Ленникс, Колин Чоу

Описание: Борцы за свободу Нео, Тринити и Морфеус продолжают руководить восстанием людей против Армии Машин. Для уничтожения системы репрессий и эксплуатации они вынуждены прибегнуть не только к арсеналу превосходного оружия, но и к своим выдающимся навыкам. Участие в миссии по спасению человеческой расы от ее полного истребления приносит им более глубокое понимание конструкции Матрицы и осознание центральной роли Нео в судьбе человечества.


Видео: 1920x792, 4974 Kbps
Аудио1: AC3, 6 ch, 448 Kbps - РусскийРусский, Дублированный
Аудио2: AC3, 6 ch, 448 Kbps - АнглийскийАнглийский, Оригинал
Субтитры: Русские, английские

Как за пару секунд удалить ненужные аудиодорожки и субтитры (Внимание! После удаления вы не сможете поддержать раздачу)

Медиаинфо
General
Unique ID : 204851866824211708915027591075061975511 (0x9A1D08D1962AB07C9174829BB3F649D7)
Complete name : H:HEVC 2Matrix Trilogy2 The Matrix_Reloaded_2003_BDRip_1080p_[HEVC].mkv
Format : Matroska
Format version : Version 4 / Version 2
File size : 5.69 GiB
Duration : 2 h 18 min
Overall bit rate : 5 893 kb/s
Encoded date : UTC 2017-12-31 07:06:36
Writing application : mkvmerge v18.0.0 ('Apricity') 64-bit
Writing library : libebml v1.3.5 + libmatroska v1.4.8
Cover : Yes
Attachments : cover.png

Video
ID : 1
Format : HEVC
Format/Info : High Efficiency Video Coding
Format profile : Main@L4.1@High
Codec ID : V_MPEGH/ISO/HEVC
Duration : 2 h 18 min
Bit rate : 4 974 kb/s
Width : 1 920 pixels
Height : 792 pixels
Display aspect ratio : 2.40:1
Frame rate mode : Constant
Frame rate : 23.976 (24000/1001) FPS
Color space : YUV
Chroma subsampling : 4:2:0
Bit depth : 8 bits
Bits/(Pixel*Frame) : 0.136
Stream size : 4.80 GiB (84%)
Writing library : x265 2.4+6-fd01abfc7898:[Windows][GCC 6.3.0][64 bit] 8bit+10bit+12bit
Encoding settings : cpuid=1173503 / frame-threads=3 / numa-pools=8 / wpp / no-pmode / no-pme / no-psnr / no-ssim / log-level=2 / input-csp=1 / input-res=1920x792 / interlace=0 / total-frames=0 / level-idc=41 / high-tier=1 / uhd-bd=0 / ref=4 / no-allow-non-conformance / no-repeat-headers / annexb / no-aud / no-hrd / info / hash=0 / no-temporal-layers / open-gop / min-keyint=23 / keyint=240 / bframes=10 / b-adapt=2 / b-pyramid / bframe-bias=0 / rc-lookahead=25 / lookahead-slices=4 / scenecut=40 / no-intra-refresh / ctu=64 / min-cu-size=8 / rect / no-amp / max-tu-size=32 / tu-inter-depth=3 / tu-intra-depth=3 / limit-tu=0 / rdoq-level=2 / dynamic-rd=0.00 / no-ssim-rd / signhide / no-tskip / nr-intra=0 / nr-inter=0 / no-constrained-intra / strong-intra-smoothing / max-merge=3 / limit-refs=3 / limit-modes / me=3 / subme=3 / merange=32 / temporal-mvp / weightp / weightb / no-analyze-src-pics / deblock=-3:-3 / no-sao / no-sao-non-deblock / rd=4 / no-early-skip / rskip / no-fast-intra / no-tskip-fast / no-cu-lossless / no-b-intra / rdpenalty=0 / psy-rd=2.00 / psy-rdoq=2.00 / no-rd-refine / analysis-mode=0 / no-lossless / cbqpoffs=0 / crqpoffs=0 / rc=crf / crf=18.0 / qcomp=0.60 / qpstep=4 / stats-write=0 / stats-read=0 / vbv-maxrate=50000 / vbv-bufsize=50000 / vbv-init=0.9 / crf-max=0.0 / crf-min=0.0 / ipratio=1.40 / pbratio=1.30 / aq-mode=3 / aq-strength=0.90 / cutree / zone-count=1 / zones: / start-frame=182828 / end-frame=198893 / qp=35 / no-strict-cbr / qg-size=32 / no-rc-grain / qpmax=69 / qpmin=0 / sar=0 / overscan=0 / videoformat=5 / range=0 / colorprim=2 / transfer=2 / colormatrix=1 / chromaloc=0 / display-window=0 / max-cll=0,0 / min-luma=0 / max-luma=255 / log2-max-poc-lsb=8 / vui-timing-info / vui-hrd-info / slices=1 / opt-qp-pps / opt-ref-list-length-pps / no-multi-pass-opt-rps / scenecut-bias=0.05 / no-opt-cu-delta-qp / aq-motion / no-hdr / no-hdr-opt / no-dhdr10-opt / refine-level=5 / no-limit-sao
Default : Yes
Forced : Yes
Color range : Limited
Matrix coefficients : BT.709

Audio #1
ID : 4
Format : AC-3
Format/Info : Audio Coding 3
Format settings, Endianness : Big
Codec ID : A_AC3
Duration : 2 h 18 min
Bit rate mode : Constant
Bit rate : 448 kb/s
Channel(s) : 6 channels
Channel positions : Front: L C R, Side: L R, LFE
Sampling rate : 48.0 kHz
Frame rate : 31.250 FPS (1536 SPF)
Bit depth : 16 bits
Compression mode : Lossy
Stream size : 443 MiB (8%)
Title : Дублированный
Language : Russian
Service kind : Complete Main
Default : Yes
Forced : No

Audio #2
ID : 5
Format : AC-3
Format/Info : Audio Coding 3
Format settings, Endianness : Big
Codec ID : A_AC3
Duration : 2 h 18 min
Bit rate mode : Constant
Bit rate : 448 kb/s
Channel(s) : 6 channels
Channel positions : Front: L C R, Side: L R, LFE
Sampling rate : 48.0 kHz
Frame rate : 31.250 FPS (1536 SPF)
Bit depth : 16 bits
Compression mode : Lossy
Stream size : 443 MiB (8%)
Title : Оригинал
Language : English
Service kind : Complete Main
Default : No
Forced : No

Text #1
ID : 2
Format : PGS
Muxing mode : zlib
Codec ID : S_HDMV/PGS
Codec ID/Info : Picture based subtitle format used on BDs/HD-DVDs
Duration : 2 h 17 min
Bit rate : 21.8 kb/s
Count of elements : 2372
Stream size : 21.5 MiB (0%)
Title : Русские
Language : Russian
Default : Yes
Forced : No

Text #2
ID : 3
Format : PGS
Muxing mode : zlib
Codec ID : S_HDMV/PGS
Codec ID/Info : Picture based subtitle format used on BDs/HD-DVDs
Duration : 2 h 16 min
Bit rate : 24.4 kb/s
Count of elements : 2458
Stream size : 23.9 MiB (0%)
Title : Оригинал
Language : English
Default : No
Forced : No

Menu
00:00:00.000 : :Chapter 00
00:03:50.230 : :Chapter 01
00:08:55.368 : :Chapter 02
00:12:16.902 : :Chapter 03
00:16:24.316 : :Chapter 04
00:19:43.182 : :Chapter 05
00:23:29.408 : :Chapter 06
00:27:26.811 : :Chapter 07
00:32:01.252 : :Chapter 08
00:33:43.187 : :Chapter 09
00:37:57.441 : :Chapter 10
00:40:55.619 : :Chapter 11
00:43:44.955 : :Chapter 12
00:50:42.706 : :Chapter 13
00:55:08.471 : :Chapter 14
01:00:03.099 : :Chapter 15
01:02:49.766 : :Chapter 16
01:08:52.294 : :Chapter 17
01:13:06.882 : :Chapter 18
01:16:21.410 : :Chapter 19
01:20:31.827 : :Chapter 20
01:22:47.128 : :Chapter 21
01:26:12.500 : :Chapter 22
01:29:52.887 : :Chapter 23
01:32:50.898 : :Chapter 24
01:37:10.825 : :Chapter 25
01:40:51.378 : :Chapter 26
01:44:57.791 : :Chapter 27
01:48:12.152 : :Chapter 28
01:52:25.572 : :Chapter 29
01:55:42.936 : :Chapter 30
01:57:37.550 : :Chapter 31
02:01:51.470 : :Chapter 32
02:04:18.451 : :Chapter 33
02:07:04.116 : :Chapter 34
02:16:29.681 : :Chapter 35
Загрузка...Cкриншот1 Матрица: Перезагрузка / The Matrix Reloaded (2003) BDRip 1080p [HEVC] 8 bit от XuMuKЗагрузка...Cкриншот2 Матрица: Перезагрузка / The Matrix Reloaded (2003) BDRip 1080p [HEVC] 8 bit от XuMuKЗагрузка...Cкриншот3 Матрица: Перезагрузка / The Matrix Reloaded (2003) BDRip 1080p [HEVC] 8 bit от XuMuKЗагрузка...Cкриншот4 Матрица: Перезагрузка / The Matrix Reloaded (2003) BDRip 1080p [HEVC] 8 bit от XuMuK
3. Матрица: Революция / The Matrix Revolutions (2003) BDRip 1080p [HEVC] 8 bit от XuMuK
HEVC
8 bit
Обложка Матрица: Революция / The Matrix Revolutions (2003) BDRip 1080p [HEVC] 8 bit от XuMuK Год: 2003
Страна: Австралия, США
Студия: NPV Entertainment, Silver Pictures, Village Roadshow Pictures, Warner Bros. Pictures Co.
Жанр: Фантастика, Боевик
Продолжительность: 02:09:16

Режиссер: Лэрри Вачовски, Энди Вачовски
В ролях: Киану Ривз, Лоуренс Фишберн, Кэрри-Энн Мосс, Моника Беллуччи, Хьюго Уивинг, Ламбер Вильсон, Энтони Вон, Гарри Дж. Ленникс, Рэндолл Дак Ким, Глория Фостер, Колин Чоу, Рэй Энтони, Йен Блисс, Хельмут Бакайтис, Кристин Ану, Энди Арнесс, Стив Бастони, Дон Бейти, Дэниэл Бернхард, Майкл Бадд, Келли Батлер, Кристофер Кирби, Мэтт МакКольм, Робин Невин, Джада Пинкетт Смит, Дэвид Робертс, Клэйтон Уотсон, Энтони Зербе

Описание: Пока армия Машин пытается уничтожить Зион, его жители из последних сил держат оборону. Но удастся ли им предотвратить полное вторжение в город кишащей орды беспощадных машин до того, как Нео соберет все свои силы и положит конец войне?


Видео: 1920x792, 5850 Kbps
Аудио1: AC3, 6 ch, 448 Kbps - РусскийРусский, Дублированный
Аудио2: AC3, 6 ch, 448 Kbps - АнглийскийАнглийский, Оригинал
Субтитры: Русские, английские

Как за пару секунд удалить ненужные аудиодорожки и субтитры (Внимание! После удаления вы не сможете поддержать раздачу)

Медиаинфо
General
Unique ID : 180245949080721282433832549100187067554 (0x879A1B68DE28DDAD99116A506C1CA4A2)
Complete name : H:HEVC 2Matrix Trilogy3 The Matrix Revolution_2003_BDRip_1080p_[HEVC].mkv
Format : Matroska
Format version : Version 4 / Version 2
File size : 6.11 GiB
Duration : 2 h 9 min
Overall bit rate : 6 767 kb/s
Encoded date : UTC 2017-12-31 07:08:43
Writing application : mkvmerge v18.0.0 ('Apricity') 64-bit
Writing library : libebml v1.3.5 + libmatroska v1.4.8
Cover : Yes
Attachments : cover.png

Video
ID : 1
Format : HEVC
Format/Info : High Efficiency Video Coding
Format profile : Main@L4.1@High
Codec ID : V_MPEGH/ISO/HEVC
Duration : 2 h 9 min
Bit rate : 5 850 kb/s
Width : 1 920 pixels
Height : 792 pixels
Display aspect ratio : 2.40:1
Frame rate mode : Constant
Frame rate : 23.976 (24000/1001) FPS
Color space : YUV
Chroma subsampling : 4:2:0
Bit depth : 8 bits
Bits/(Pixel*Frame) : 0.160
Stream size : 5.28 GiB (86%)
Writing library : x265 2.4+6-fd01abfc7898:[Windows][GCC 6.3.0][64 bit] 8bit+10bit+12bit
Encoding settings : cpuid=1173503 / frame-threads=3 / numa-pools=8 / wpp / no-pmode / no-pme / no-psnr / no-ssim / log-level=2 / input-csp=1 / input-res=1920x792 / interlace=0 / total-frames=0 / level-idc=41 / high-tier=1 / uhd-bd=0 / ref=4 / no-allow-non-conformance / no-repeat-headers / annexb / no-aud / no-hrd / info / hash=0 / no-temporal-layers / open-gop / min-keyint=23 / keyint=240 / bframes=10 / b-adapt=2 / b-pyramid / bframe-bias=0 / rc-lookahead=25 / lookahead-slices=4 / scenecut=40 / no-intra-refresh / ctu=64 / min-cu-size=8 / rect / no-amp / max-tu-size=32 / tu-inter-depth=3 / tu-intra-depth=3 / limit-tu=0 / rdoq-level=2 / dynamic-rd=0.00 / no-ssim-rd / signhide / no-tskip / nr-intra=0 / nr-inter=0 / no-constrained-intra / strong-intra-smoothing / max-merge=3 / limit-refs=3 / limit-modes / me=2 / subme=5 / merange=32 / temporal-mvp / weightp / weightb / no-analyze-src-pics / deblock=-3:-3 / no-sao / no-sao-non-deblock / rd=4 / no-early-skip / rskip / no-fast-intra / no-tskip-fast / no-cu-lossless / no-b-intra / rdpenalty=0 / psy-rd=2.00 / psy-rdoq=2.00 / no-rd-refine / analysis-mode=0 / no-lossless / cbqpoffs=0 / crqpoffs=0 / rc=crf / crf=18.0 / qcomp=0.60 / qpstep=4 / stats-write=0 / stats-read=0 / vbv-maxrate=50000 / vbv-bufsize=50000 / vbv-init=0.9 / crf-max=0.0 / crf-min=0.0 / ipratio=1.40 / pbratio=1.30 / aq-mode=3 / aq-strength=0.90 / cutree / zone-count=1 / zones: / start-frame=172885 / end-frame=185957 / qp=35 / no-strict-cbr / qg-size=32 / no-rc-grain / qpmax=69 / qpmin=0 / sar=0 / overscan=0 / videoformat=5 / range=0 / colorprim=2 / transfer=2 / colormatrix=1 / chromaloc=0 / display-window=0 / max-cll=0,0 / min-luma=0 / max-luma=255 / log2-max-poc-lsb=8 / vui-timing-info / vui-hrd-info / slices=1 / opt-qp-pps / opt-ref-list-length-pps / no-multi-pass-opt-rps / scenecut-bias=0.05 / no-opt-cu-delta-qp / aq-motion / no-hdr / no-hdr-opt / no-dhdr10-opt / refine-level=5 / no-limit-sao
Default : Yes
Forced : Yes
Color range : Limited
Matrix coefficients : BT.709

Audio #1
ID : 4
Format : AC-3
Format/Info : Audio Coding 3
Format settings, Endianness : Big
Codec ID : A_AC3
Duration : 2 h 9 min
Bit rate mode : Constant
Bit rate : 448 kb/s
Channel(s) : 6 channels
Channel positions : Front: L C R, Side: L R, LFE
Sampling rate : 48.0 kHz
Frame rate : 31.250 FPS (1536 SPF)
Bit depth : 16 bits
Compression mode : Lossy
Stream size : 414 MiB (7%)
Title : Дублированный
Language : Russian
Service kind : Complete Main
Default : Yes
Forced : No

Audio #2
ID : 5
Format : AC-3
Format/Info : Audio Coding 3
Format settings, Endianness : Big
Codec ID : A_AC3
Duration : 2 h 9 min
Bit rate mode : Constant
Bit rate : 448 kb/s
Channel(s) : 6 channels
Channel positions : Front: L C R, Side: L R, LFE
Sampling rate : 48.0 kHz
Frame rate : 31.250 FPS (1536 SPF)
Bit depth : 16 bits
Compression mode : Lossy
Stream size : 414 MiB (7%)
Title : Оригинал
Language : English
Service kind : Complete Main
Default : No
Forced : No

Text #1
ID : 2
Format : PGS
Muxing mode : zlib
Codec ID : S_HDMV/PGS
Codec ID/Info : Picture based subtitle format used on BDs/HD-DVDs
Duration : 2 h 8 min
Bit rate : 19.6 kb/s
Count of elements : 2170
Stream size : 18.1 MiB (0%)
Title : Русские
Language : Russian
Default : Yes
Forced : No

Text #2
ID : 3
Format : PGS
Muxing mode : zlib
Codec ID : S_HDMV/PGS
Codec ID/Info : Picture based subtitle format used on BDs/HD-DVDs
Duration : 2 h 7 min
Bit rate : 21.4 kb/s
Count of elements : 2220
Stream size : 19.6 MiB (0%)
Title : Оригинал
Language : English
Default : No
Forced : No

Menu
00:00:00.000 : :Chapter 00
00:03:55.401 : :Chapter 01
00:07:33.119 : :Chapter 02
00:10:19.952 : :Chapter 03
00:14:44.383 : :Chapter 04
00:17:58.744 : :Chapter 05
00:23:33.245 : :Chapter 06
00:30:06.304 : :Chapter 07
00:35:35.633 : :Chapter 08
00:39:34.205 : :Chapter 09
00:42:58.909 : :Chapter 10
00:46:43.300 : :Chapter 11
00:49:02.606 : :Chapter 12
00:51:53.610 : :Chapter 13
00:58:00.643 : :Chapter 14
01:00:19.115 : :Chapter 15
01:02:29.746 : :Chapter 16
01:08:00.910 : :Chapter 17
01:10:29.225 : :Chapter 18
01:14:33.802 : :Chapter 19
01:18:23.365 : :Chapter 20
01:23:08.984 : :Chapter 21
01:25:55.817 : :Chapter 22
01:29:13.348 : :Chapter 23
01:31:51.672 : :Chapter 24
01:36:51.472 : :Chapter 25
01:41:55.275 : :Chapter 26
01:44:53.120 : :Chapter 27
01:48:06.646 : :Chapter 28
01:51:30.850 : :Chapter 29
01:55:05.899 : :Chapter 30
01:57:31.210 : :Chapter 31
02:00:12.371 : :Chapter 32
Загрузка...Cкриншот1 Матрица: Революция / The Matrix Revolutions (2003) BDRip 1080p [HEVC] 8 bit от XuMuKЗагрузка...Cкриншот2 Матрица: Революция / The Matrix Revolutions (2003) BDRip 1080p [HEVC] 8 bit от XuMuKЗагрузка...Cкриншот3 Матрица: Революция / The Matrix Revolutions (2003) BDRip 1080p [HEVC] 8 bit от XuMuKЗагрузка...Cкриншот4 Матрица: Революция / The Matrix Revolutions (2003) BDRip 1080p [HEVC] 8 bit от XuMuK
Торрент🧲 Магнет

Рейтинги КП и IMDB, кнопки "Позвать в чате" и "Спасибо", а также мультитрекерная статистика доступны только зарегистрированным/авторизованным пользователям!

Файлы: 6
  • Matrix Trilogy
    • 1 The Matrix_1999_BDRip_1080p_[HEVC].mkv   5.59 ГБ
    • 2 The Matrix_Reloaded_2003_BDRip_1080p_[HEVC].mkv   5.69 ГБ
    • 3 The Matrix Revolution_2003_BDRip_1080p_[HEVC].mkv   6.11 ГБ
    • cover1.png   351.95 КБ
    • cover2.png   450.31 КБ
    • cover3.png   470.17 КБ
Поблагодарили: 12
e7e1, Gampeldor, hold, Makar0n, misharev1970, mr_nikitin, Pinnhate, Prince, SGun, SoulBoy, stormbringer, xlxxl
Admin
1136900 (6)  17.39 ГБ

Добавление нового комментария

Добавление комментариев доступно только зарегистрированным/авторизованным пользователям.
Аватар не указан
  Vvulpes  
двух точно
Аватар Adagon
  Adagon  
Vvulpes писал(а):
похоже я не дождусь ремастера...
А был ремастер? Всех частей?
Аватар Студень
  Студень  
Vvulpes писал(а):
похоже я не дождусь ремастера...
первая есть в х264 от V_ad
Аватар не указан
  Vvulpes  
похоже я не дождусь ремастера...
Аватар Admin
  Admin  (Отредактировал Admin)    
A1eksandr1 писал(а):
А режиссёры всё равно талантливые, облачный атлас ещё у них весьма не плох, тогда они вроде ещё на полпути были, брат и сестра ))
Хм, а дело не в хеше раздачи, а в хешах файлов. Либо релиз перекодировался заново, либо что то не то с данными.
Облачный атлас по мне как раз таки очень плох. Думаю догадаешься почему.
Аватар Admin
  Admin  
A1eksandr1 писал(а):
Хеш раздачи почему то не совпал с другими источниками (ННМ, КИНОЗАЛ, hevc-club-который на юкозе). Обычно совпадал и к раздаче можно было присоединиться, может просто размер блока выбран другой.
Там старые. Там аудио AAC, здесь AC3.
Аватар Студень
  Студень  
A1eksandr1 писал(а):
Хеш раздачи почему то не совпал с другими источниками (ННМ, КИНОЗАЛ, hevc-club-который на юкозе). Обычно совпадал и к раздаче можно было присоединиться, может просто размер блока выбран другой.
хэш совпадает с рутором
Аватар не указан
  mikl1978  
Сделайте в 10bit . Плизз....
Аватар не указан
  A1eksandr1  (Отредактировал A1eksandr1)    
А режиссёры всё равно талантливые, облачный атлас ещё у них весьма не плох, тогда они вроде ещё на полпути были, брат и сестра ))
Хм, а дело не в хеше раздачи, а в хешах файлов. Либо релиз перекодировался заново, либо что то не то с данными.
Аватар не указан
  A1eksandr1  
Хеш раздачи почему то не совпал с другими источниками (ННМ, КИНОЗАЛ, hevc-club-который на юкозе). Обычно совпадал и к раздаче можно было присоединиться, может просто размер блока выбран другой.
Аватар Admin
  Admin  (Отредактировал Admin)    
Пока заполнял режиссеров чуть не проблевался. Раньше они назывались братья Вачовски, а теперь - сестры Вачовски.