💬 Мини-чат

Убедительная просьба не обсуждать тут политику.
AdminЛёшикоБэст, вроде потихоньку идёт. Подождем, если не докачается, то встану.
AdminЛёшикоБэст, перекачайте торрент, а то в профиле не отображается ждете или уже нет
ЛёшикоБэстРаздайте, пожалуйста, Неудержимые / The Expendables (2010) [Theatrical Cut] BDRip 1080p [HEVC] 10 bit от Spartanec1308
OldGamerДа, есть.
ЛёшикоБэстДоброго вечера) Скажите пожалуйста, есть ли в планах сделать релиз дилогии "Зорро" с Антонио Бандерасом?
HANNIBALAdmin, 👍
AdminГоро, встал
ГороРаздайте, пожалуйста, Хищники / Predators (2010) BDRip 1080p [HEVC] 10 bit от HANNIBAL
AdminHANNIBAL, привет. Не помню за сколько брал, но продление в этот раз обошлось примерно в $14 со всякими комиссиями. А аренда VDS обходится примерно в $30-35 за год. Не исключено, что всё это подорожает. Пока что пожертвования с трудом покрывают расходы. Иногда если требуется и со своего кармана оплачиваю, не страшно. Прорвемся.
HANNIBALсколько сейчас стоит
HANNIBALAdmin, ПРИВЕТ
AdminНаконец-то получил банковскую карту. Продлил доменное имя (адрес сайта) на год.
  • OldGamer
  • ivan_1965
Отправка сообщений доступна только зарегистрированным/авторизованным пользователям.
Онлайн (за 10 мин.): 2

Челюсти: Квадрология / Jaws: Quadrilogy (1975-1987) BDRip 1080p [HEVC] 8 bit от Cthulhu

HEVC
8 bit
Обложка Челюсти: Квадрология / Jaws: Quadrilogy (1975-1987) BDRip 1080p [HEVC] 8 bit от Cthulhu Год: 1975-1987
Страна: США
Жанр: Триллер, Приключения, Ужасы

1. Челюсти / Jaws (1975) BDRip 1080p [HEVC] 8 bit от Cthulhu
HEVC
8 bit
Обложка Челюсти / Jaws (1975) BDRip 1080p [HEVC] 8 bit от Cthulhu Год: 1975
Страна: США
Жанр: Триллер, Приключения, Ужасы
Продолжительность: 02:03:54

Режиссер: Стивен Спилберг
В ролях: Рой Шайдер, Роберт Шоу, Ричард Дрейфусс, Лоррэйн Гари, Мюррэй Хэмилтон, Карл Готтлиб, Джефри Крамер, Сьюзэн Бэклайни, Джонатан Филли, Крис Ребелло

Описание: Действие картины протекает в течение пяти дней — на острове Э́мити, где расположен небольшой курортный городок. В этом тихом и солнечном месте произошли ужасные трагические события, начало которым было положено ранним утром, когда шеф местной полиции Мартин Броуди и его помощник находят на берегу остатки тела девушки. Она стала первой жертвой огромной белой акулы, которая появилась у берегов Эмити… С каждым днем число жертв кровожадной акулы продолжает увеличиваться. Сможет ли отважный охотник на акул, ветеран Второй мировой войны, рыбак Квинт на своём судне выловить и убить акулу-людоеда? В опасную морскую экспедицию вместе с ним отправляются Мартин Броуди и прибывший на остров эксперт из национального института океанографии Мэтт Хупер.


Видео: 1920x812, 5472 Kbps
Аудио1: AC3, 6 ch, 448 Kbps - РусскийРусский, Многоголосый
Аудио2: AC3, 6 ch, 448 Kbps - АнглийскийАнглийский, Оригинал
Субтитры: Русские

Как за пару секунд удалить ненужные аудиодорожки и субтитры (Внимание! После удаления вы не сможете поддержать раздачу)

Медиаинфо
General
Unique ID : 249748104510842957733398224165023909739 (0xBBE3BC3CD394A6E6857261B7E8AE076B)
Complete name : T:\HEVC3\Jaws. Quadrilogy\Jaws (1975) BDRip 1080p [HEVC].mkv
Format : Matroska
Format version : Version 4 / Version 2
File size : 5.52 GiB
Duration : 2 h 3 min
Overall bit rate : 6 378 kb/s
Encoded date : UTC 2017-06-28 15:31:20
Writing application : mkvmerge v13.0.0 ('The Juggler') 64bit
Writing library : libebml v1.3.4 + libmatroska v1.4.5
Cover : Yes
Attachments : cover.jpg

Video
ID : 1
Format : HEVC
Format/Info : High Efficiency Video Coding
Format profile : Main@L4.1@High
Codec ID : V_MPEGH/ISO/HEVC
Duration : 2 h 3 min
Bit rate : 5 472 kb/s
Width : 1 920 pixels
Height : 812 pixels
Display aspect ratio : 2.35:1
Frame rate mode : Constant
Frame rate : 23.976 (24000/1001) FPS
Color space : YUV
Chroma subsampling : 4:2:0
Bit depth : 8 bits
Bits/(Pixel*Frame) : 0.146
Stream size : 4.74 GiB (86%)
Writing library : x265 2.4+26-355cf3582263:[Windows][GCC 7.1.0][64 bit] 8bit
Encoding settings : cpuid=1050111 / frame-threads=5 / numa-pools=4 / wpp / no-pmode / no-pme / no-psnr / no-ssim / log-level=3 / input-csp=1 / input-res=1920x812 / interlace=0 / total-frames=0 / level-idc=41 / high-tier=1 / uhd-bd=0 / ref=4 / no-allow-non-conformance / no-repeat-headers / annexb / no-aud / no-hrd / info / hash=0 / no-temporal-layers / open-gop / min-keyint=23 / keyint=240 / bframes=10 / b-adapt=2 / b-pyramid / bframe-bias=0 / rc-lookahead=30 / lookahead-slices=5 / scenecut=40 / no-intra-refresh / ctu=64 / min-cu-size=8 / no-rect / no-amp / max-tu-size=32 / tu-inter-depth=1 / tu-intra-depth=1 / limit-tu=0 / rdoq-level=0 / dynamic-rd=0.00 / no-ssim-rd / signhide / no-tskip / nr-intra=0 / nr-inter=0 / no-constrained-intra / strong-intra-smoothing / max-merge=2 / limit-refs=3 / no-limit-modes / me=2 / subme=6 / merange=32 / temporal-mvp / weightp / weightb / no-analyze-src-pics / deblock=-3:-3 / sao / no-sao-non-deblock / rd=3 / no-early-skip / rskip / no-fast-intra / no-tskip-fast / no-cu-lossless / no-b-intra / rdpenalty=0 / psy-rd=1.00 / psy-rdoq=0.00 / no-rd-refine / analysis-mode=0 / no-lossless / cbqpoffs=0 / crqpoffs=0 / rc=crf / crf=17.0 / qcomp=0.60 / qpstep=1 / stats-write=0 / stats-read=0 / vbv-maxrate=50000 / vbv-bufsize=35714 / vbv-init=0.9 / crf-max=30.0 / crf-min=0.0 / ipratio=1.40 / pbratio=1.30 / aq-mode=1 / aq-strength=0.00 / cutree / zone-count=0 / no-strict-cbr / qg-size=32 / no-rc-grain / qpmax=69 / qpmin=0 / sar=1 / overscan=0 / videoformat=5 / range=0 / colorprim=2 / transfer=2 / colormatrix=2 / chromaloc=0 / display-window=0 / max-cll=0,0 / min-luma=0 / max-luma=255 / log2-max-poc-lsb=8 / vui-timing-info / vui-hrd-info / slices=1 / opt-qp-pps / opt-ref-list-length-pps / no-multi-pass-opt-rps / scenecut-bias=0.05 / no-opt-cu-delta-qp / no-aq-motion / no-hdr / no-hdr-opt / no-dhdr10-opt / refine-level=5 / no-limit-sao / ctu-info=0
Language : English
Default : Yes
Forced : No

Audio #1
ID : 2
Format : AC-3
Format/Info : Audio Coding 3
Mode extension : CM (complete main)
Format settings, Endianness : Big
Codec ID : A_AC3
Duration : 2 h 3 min
Bit rate mode : Constant
Bit rate : 448 kb/s
Channel(s) : 6 channels
Channel positions : Front: L C R, Side: L R, LFE
Sampling rate : 48.0 kHz
Frame rate : 31.250 FPS (1536 spf)
Compression mode : Lossy
Stream size : 397 MiB (7%)
Language : Russian
Default : Yes
Forced : No

Audio #2
ID : 3
Format : AC-3
Format/Info : Audio Coding 3
Mode extension : CM (complete main)
Format settings, Endianness : Big
Codec ID : A_AC3
Duration : 2 h 3 min
Bit rate mode : Constant
Bit rate : 448 kb/s
Channel(s) : 6 channels
Channel positions : Front: L C R, Side: L R, LFE
Sampling rate : 48.0 kHz
Frame rate : 31.250 FPS (1536 spf)
Compression mode : Lossy
Stream size : 397 MiB (7%)
Language : English
Default : No
Forced : No

Text
ID : 4
Format : PGS
Muxing mode : zlib
Codec ID : S_HDMV/PGS
Codec ID/Info : Picture based subtitle format used on BDs/HD-DVDs
Duration : 2 h 1 min
Bit rate : 29.7 kb/s
Count of elements : 2297
Stream size : 25.8 MiB (0%)
Language : Russian
Default : Yes
Forced : No

Menu
00:00:00.000 : :Глава 1
00:01:48.900 : :Глава 2
00:07:33.786 : :Глава 3
00:11:20.179 : :Глава 4
00:13:35.356 : :Глава 5
00:18:11.590 : :Глава 6
00:24:30.260 : :Глава 7
00:27:41.242 : :Глава 8
00:32:46.673 : :Глава 9
00:45:18.006 : :Глава 10
00:53:31.041 : :Глава 11
01:01:28.643 : :Глава 12
01:06:11.801 : :Глава 13
01:21:03.191 : :Глава 14
01:26:24.971 : :Глава 15
01:36:24.236 : :Глава 16
01:50:00.802 : :Глава 17
01:56:47.166 : :Глава 18
01:57:52.356 : :Глава 19
02:02:35.639 : :Глава 20
02:03:54.427 : :Глава 21
Загрузка...Cкриншот1 Челюсти / Jaws (1975) BDRip 1080p [HEVC] 8 bit от CthulhuЗагрузка...Cкриншот2 Челюсти / Jaws (1975) BDRip 1080p [HEVC] 8 bit от CthulhuЗагрузка...Cкриншот3 Челюсти / Jaws (1975) BDRip 1080p [HEVC] 8 bit от CthulhuЗагрузка...Cкриншот4 Челюсти / Jaws (1975) BDRip 1080p [HEVC] 8 bit от Cthulhu
2. Челюсти 2 / Jaws 2 (1978) BDRip 1080p [HEVC] 8 bit от Cthulhu
HEVC
8 bit
Обложка Челюсти 2 / Jaws 2 (1978) BDRip 1080p [HEVC] 8 bit от Cthulhu Год: 1978
Страна: США
Жанр: Ужасы, Триллер, Приключения
Продолжительность: 01:56:15

Режиссер: Жанно Шварц
В ролях: Рой Шайдер, Лоррэйн Гари, Мюррэй Хэмилтон, Джозеф Масколо, Джефри Крамер, Коллин Уилкокс Пэкстон, Энн Дьюзенберри, Марк Грюнер, Бэрри Коу, Сьюзэн Френч

Описание: Акула-убийца, несколько лет назад терроризировавшая побережье курортного городка Эмити, вернулась! Гигантский хищник снова начал охоту. Рискуя жизнью, шеф полиции морского парка Мартин Броди вступает в борьбу с чудовищем, чей голод теперь во много раз сильнее!


Видео: 1920x816, 6116 Kbps
Аудио1: AC3, 2 ch, 384 Kbps - РусскийРусский, Многоголосый
Аудио2: AC3, 2 ch, 384 Kbps - АнглийскийАнглийский, Оригинал
Субтитры: Русские

Как за пару секунд удалить ненужные аудиодорожки и субтитры (Внимание! После удаления вы не сможете поддержать раздачу)

Медиаинфо
General
Unique ID : 225052894418940977019045999991081141850 (0xA94F9C60391375EF85DF2B5D111C065A)
Complete name : T:\HEVC3\Jaws. Quadrilogy\Jaws 2 (1978) BDRip 1080p [HEVC].mkv
Format : Matroska
Format version : Version 4 / Version 2
File size : 5.65 GiB
Duration : 1 h 56 min
Overall bit rate : 6 955 kb/s
Encoded date : UTC 2017-06-28 15:43:29
Writing application : mkvmerge v13.0.0 ('The Juggler') 64bit
Writing library : libebml v1.3.4 + libmatroska v1.4.5
Cover : Yes
Attachments : cover102.jpg

Video
ID : 1
Format : HEVC
Format/Info : High Efficiency Video Coding
Format profile : Main@L4.1@High
Codec ID : V_MPEGH/ISO/HEVC
Duration : 1 h 56 min
Bit rate : 6 116 kb/s
Width : 1 920 pixels
Height : 816 pixels
Display aspect ratio : 2.35:1
Frame rate mode : Constant
Frame rate : 23.976 (24000/1001) FPS
Color space : YUV
Chroma subsampling : 4:2:0
Bit depth : 8 bits
Bits/(Pixel*Frame) : 0.163
Stream size : 4.97 GiB (88%)
Writing library : x265 2.4+26-355cf3582263:[Windows][GCC 7.1.0][64 bit] 8bit
Encoding settings : cpuid=1050111 / frame-threads=5 / numa-pools=4 / wpp / no-pmode / no-pme / no-psnr / no-ssim / log-level=3 / input-csp=1 / input-res=1920x816 / interlace=0 / total-frames=0 / level-idc=41 / high-tier=1 / uhd-bd=0 / ref=4 / no-allow-non-conformance / no-repeat-headers / annexb / no-aud / no-hrd / info / hash=0 / no-temporal-layers / open-gop / min-keyint=23 / keyint=240 / bframes=10 / b-adapt=2 / b-pyramid / bframe-bias=0 / rc-lookahead=25 / lookahead-slices=5 / scenecut=40 / no-intra-refresh / ctu=64 / min-cu-size=8 / no-rect / no-amp / max-tu-size=32 / tu-inter-depth=1 / tu-intra-depth=1 / limit-tu=0 / rdoq-level=0 / dynamic-rd=0.00 / no-ssim-rd / signhide / no-tskip / nr-intra=0 / nr-inter=0 / no-constrained-intra / strong-intra-smoothing / max-merge=2 / limit-refs=3 / no-limit-modes / me=2 / subme=7 / merange=32 / temporal-mvp / weightp / weightb / no-analyze-src-pics / deblock=-3:-3 / sao / no-sao-non-deblock / rd=3 / no-early-skip / rskip / no-fast-intra / no-tskip-fast / no-cu-lossless / no-b-intra / rdpenalty=0 / psy-rd=1.00 / psy-rdoq=0.00 / no-rd-refine / analysis-mode=0 / no-lossless / cbqpoffs=0 / crqpoffs=0 / rc=crf / crf=17.0 / qcomp=0.60 / qpstep=4 / stats-write=0 / stats-read=0 / vbv-maxrate=50000 / vbv-bufsize=35714 / vbv-init=0.9 / crf-max=30.0 / crf-min=0.0 / ipratio=1.40 / pbratio=1.30 / aq-mode=1 / aq-strength=0.00 / cutree / zone-count=0 / no-strict-cbr / qg-size=32 / no-rc-grain / qpmax=69 / qpmin=0 / sar=1 / overscan=0 / videoformat=5 / range=0 / colorprim=2 / transfer=2 / colormatrix=2 / chromaloc=0 / display-window=0 / max-cll=0,0 / min-luma=0 / max-luma=255 / log2-max-poc-lsb=8 / vui-timing-info / vui-hrd-info / slices=1 / opt-qp-pps / opt-ref-list-length-pps / no-multi-pass-opt-rps / scenecut-bias=0.05 / no-opt-cu-delta-qp / no-aq-motion / no-hdr / no-hdr-opt / no-dhdr10-opt / refine-level=5 / no-limit-sao / ctu-info=0
Language : English
Default : Yes
Forced : No

Audio #1
ID : 2
Format : AC-3
Format/Info : Audio Coding 3
Mode extension : CM (complete main)
Format settings, Endianness : Big
Codec ID : A_AC3
Duration : 1 h 56 min
Bit rate mode : Constant
Bit rate : 384 kb/s
Channel(s) : 2 channels
Channel positions : Front: L R
Sampling rate : 48.0 kHz
Frame rate : 31.250 FPS (1536 spf)
Compression mode : Lossy
Stream size : 319 MiB (6%)
Language : Russian
Default : Yes
Forced : No

Audio #2
ID : 3
Format : AC-3
Format/Info : Audio Coding 3
Mode extension : CM (complete main)
Format settings, Endianness : Big
Codec ID : A_AC3
Duration : 1 h 56 min
Bit rate mode : Constant
Bit rate : 448 kb/s
Channel(s) : 2 channels
Channel positions : Front: L R
Sampling rate : 48.0 kHz
Frame rate : 31.250 FPS (1536 spf)
Compression mode : Lossy
Stream size : 373 MiB (6%)
Language : English
Default : No
Forced : No

Text
ID : 4
Format : PGS
Muxing mode : zlib
Codec ID : S_HDMV/PGS
Codec ID/Info : Picture based subtitle format used on BDs/HD-DVDs
Duration : 1 h 53 min
Bit rate : 18.1 kb/s
Count of elements : 1754
Stream size : 14.6 MiB (0%)
Language : Russian
Default : Yes
Forced : No

Menu
00:00:00.000 : :Глава 1
00:02:05.125 : :Глава 2
00:04:50.038 : :Глава 3
00:12:29.456 : :Глава 4
00:18:15.969 : :Глава 5
00:27:26.809 : :Глава 6
00:34:28.023 : :Глава 7
00:41:00.791 : :Глава 8
00:56:59.873 : :Глава 9
01:01:30.518 : :Глава 10
01:11:55.225 : :Глава 11
01:16:27.872 : :Глава 12
01:22:33.198 : :Глава 13
01:29:46.506 : :Глава 14
01:41:16.904 : :Глава 15
01:43:14.395 : :Глава 16
01:48:01.515 : :Глава 17
01:53:29.719 : :Глава 18
01:56:15.216 : :Глава 19
Загрузка...Cкриншот1 Челюсти 2 / Jaws 2 (1978) BDRip 1080p [HEVC] 8 bit от CthulhuЗагрузка...Cкриншот2 Челюсти 2 / Jaws 2 (1978) BDRip 1080p [HEVC] 8 bit от CthulhuЗагрузка...Cкриншот3 Челюсти 2 / Jaws 2 (1978) BDRip 1080p [HEVC] 8 bit от CthulhuЗагрузка...Cкриншот4 Челюсти 2 / Jaws 2 (1978) BDRip 1080p [HEVC] 8 bit от Cthulhu
3. Челюсти 3 / Jaws 3-D (1983) BDRip 1080p [HEVC] 8 bit от Cthulhu
HEVC
8 bit
Обложка Челюсти 3 / Jaws 3-D (1983) BDRip 1080p [HEVC] 8 bit от Cthulhu Год: 1983
Страна: США
Жанр: Ужасы, Триллер, Приключения
Продолжительность: 01:38:20

Режиссер: Джо Элвс
В ролях: Деннис Куэйд, Бесс Армстронг, Саймон МакКоркиндейл, Луис Госсет мл., Джон Путч, Лиа Томпсон, П.Х. Мориарти, Дэн Бласко, Лиз Моррис, Лиза Морер

Описание: Руководство крупнейшего во Флориде океанического парка развлечений после появления в прибрежных водах большой белой акулы решает поймать её для дополнительного привлечения туристов. Спустя некоторое время работники парка Майк Броди и Кетлин Морган понимают, что пойманная ими акула — детёныш, а в акваторию проникла её огромная мамаша…


Видео: 1920x804, 5948 Kbps
Аудио1: AC3, 6 ch, 448 Kbps - РусскийРусский, Многоголосый
Аудио2: AC3, 2 ch, 384 Kbps - АнглийскийАнглийский, Оригинал
Субтитры: Русские

Как за пару секунд удалить ненужные аудиодорожки и субтитры (Внимание! После удаления вы не сможете поддержать раздачу)

Медиаинфо
General
Unique ID : 240479702262905175656499515654872561580 (0xB4EAB4B9D48F9E62B6692AECA90CF7AC)
Complete name : T:\HEVC3\Jaws. Quadrilogy\Jaws 3 (1983) BDRip 1080p [HEVC].mkv
Format : Matroska
Format version : Version 4 / Version 2
File size : 4.66 GiB
Duration : 1 h 38 min
Overall bit rate : 6 786 kb/s
Encoded date : UTC 2017-07-04 20:00:14
Writing application : mkvmerge v13.0.0 ('The Juggler') 64bit
Writing library : libebml v1.3.4 + libmatroska v1.4.5
Cover : Yes
Attachments : cover103.jpg

Video
ID : 1
Format : HEVC
Format/Info : High Efficiency Video Coding
Format profile : Main@L4.1@Main
Codec ID : V_MPEGH/ISO/HEVC
Duration : 1 h 38 min
Bit rate : 5 948 kb/s
Width : 1 920 pixels
Height : 804 pixels
Display aspect ratio : 2.40:1
Frame rate mode : Constant
Frame rate : 23.976 (24000/1001) FPS
Color space : YUV
Chroma subsampling : 4:2:0
Bit depth : 8 bits
Bits/(Pixel*Frame) : 0.161
Stream size : 4.09 GiB (88%)
Writing library : x265 2.4+94-0216c8ccfdb7:[Windows][GCC 7.1.0][64 bit] 8bit
Encoding settings : cpuid=1050111 / frame-threads=5 / numa-pools=4 / wpp / no-pmode / no-pme / no-psnr / no-ssim / log-level=3 / input-csp=1 / input-res=1920x804 / interlace=0 / total-frames=0 / level-idc=41 / high-tier=1 / uhd-bd=0 / ref=4 / no-allow-non-conformance / no-repeat-headers / annexb / no-aud / no-hrd / info / hash=0 / no-temporal-layers / open-gop / min-keyint=23 / keyint=240 / bframes=10 / b-adapt=2 / b-pyramid / bframe-bias=0 / rc-lookahead=25 / lookahead-slices=5 / scenecut=40 / no-intra-refresh / ctu=64 / min-cu-size=8 / no-rect / no-amp / max-tu-size=32 / tu-inter-depth=1 / tu-intra-depth=1 / limit-tu=0 / rdoq-level=0 / dynamic-rd=0.00 / no-ssim-rd / signhide / no-tskip / nr-intra=0 / nr-inter=0 / no-constrained-intra / strong-intra-smoothing / max-merge=2 / limit-refs=3 / no-limit-modes / me=2 / subme=6 / merange=32 / temporal-mvp / weightp / weightb / no-analyze-src-pics / deblock=-3:-3 / sao / no-sao-non-deblock / rd=3 / no-early-skip / rskip / no-fast-intra / no-tskip-fast / no-cu-lossless / no-b-intra / rdpenalty=0 / psy-rd=1.00 / psy-rdoq=0.00 / no-rd-refine / analysis-reuse-mode=0 / no-lossless / cbqpoffs=0 / crqpoffs=0 / rc=cbr / bitrate=6000 / qcomp=0.60 / qpstep=4 / stats-write=0 / stats-read=0 / vbv-maxrate=6000 / vbv-bufsize=4285 / vbv-init=0.9 / ipratio=1.40 / pbratio=1.30 / aq-mode=1 / aq-strength=0.00 / cutree / zone-count=0 / no-strict-cbr / qg-size=32 / no-rc-grain / qpmax=69 / qpmin=0 / no-const-vbv / sar=1 / overscan=0 / videoformat=5 / range=0 / colorprim=2 / transfer=2 / colormatrix=2 / chromaloc=0 / display-window=0 / max-cll=0,0 / min-luma=0 / max-luma=255 / log2-max-poc-lsb=8 / vui-timing-info / vui-hrd-info / slices=1 / opt-qp-pps / opt-ref-list-length-pps / no-multi-pass-opt-rps / scenecut-bias=0.05 / no-opt-cu-delta-qp / no-aq-motion / no-hdr / no-hdr-opt / no-dhdr10-opt / analysis-reuse-level=5 / scale-factor=0 / refine-intra=0 / refine-inter=0 / refine-mv=0 / no-limit-sao / ctu-info=0
Language : English
Default : Yes
Forced : No

Audio #1
ID : 2
Format : AC-3
Format/Info : Audio Coding 3
Mode extension : CM (complete main)
Format settings, Endianness : Big
Codec ID : A_AC3
Duration : 1 h 38 min
Bit rate mode : Constant
Bit rate : 448 kb/s
Channel(s) : 6 channels
Channel positions : Front: L C R, Side: L R, LFE
Sampling rate : 48.0 kHz
Frame rate : 31.250 FPS (1536 spf)
Compression mode : Lossy
Stream size : 314 MiB (7%)
Language : Russian
Default : Yes
Forced : No

Audio #2
ID : 3
Format : AC-3
Format/Info : Audio Coding 3
Mode extension : CM (complete main)
Format settings, Endianness : Big
Codec ID : A_AC3
Duration : 1 h 38 min
Bit rate mode : Constant
Bit rate : 384 kb/s
Channel(s) : 2 channels
Channel positions : Front: L R
Sampling rate : 48.0 kHz
Frame rate : 31.250 FPS (1536 spf)
Compression mode : Lossy
Stream size : 270 MiB (6%)
Language : English
Default : No
Forced : No

Text
ID : 4
Format : PGS
Muxing mode : zlib
Codec ID : S_HDMV/PGS
Codec ID/Info : Picture based subtitle format used on BDs/HD-DVDs
Duration : 1 h 35 min
Bit rate : 22.7 kb/s
Count of elements : 1770
Stream size : 15.5 MiB (0%)
Language : Russian
Default : Yes
Forced : No

Menu
00:00:00.000 : :Глава 1
00:04:41.488 : :Глава 2
00:12:55.441 : :Глава 3
00:17:37.637 : :Глава 4
00:21:50.017 : :Глава 5
00:27:01.327 : :Глава 6
00:32:08.175 : :Глава 7
00:37:56.190 : :Глава 8
00:43:36.070 : :Глава 9
00:48:50.427 : :Глава 10
00:51:07.396 : :Глава 11
00:58:03.521 : :Глава 12
01:01:13.960 : :Глава 13
01:04:21.940 : :Глава 14
01:10:05.326 : :Глава 15
01:15:27.564 : :Глава 16
01:20:13.099 : :Глава 17
01:25:02.470 : :Глава 18
01:30:23.501 : :Глава 19
01:34:24.115 : :Глава 20
01:38:20.685 : :Глава 21
Загрузка...Cкриншот1 Челюсти 3 / Jaws 3-D (1983) BDRip 1080p [HEVC] 8 bit от CthulhuЗагрузка...Cкриншот2 Челюсти 3 / Jaws 3-D (1983) BDRip 1080p [HEVC] 8 bit от CthulhuЗагрузка...Cкриншот3 Челюсти 3 / Jaws 3-D (1983) BDRip 1080p [HEVC] 8 bit от CthulhuЗагрузка...Cкриншот4 Челюсти 3 / Jaws 3-D (1983) BDRip 1080p [HEVC] 8 bit от Cthulhu
4. Челюсти 4: Месть / Jaws: The Revenge (1987) BDRip 1080p [HEVC] 8 bit от Cthulhu
HEVC
8 bit
Обложка Челюсти 4: Месть / Jaws: The Revenge (1987) BDRip 1080p [HEVC] 8 bit от Cthulhu Год: 1987
Страна: США
Жанр: Ужасы, Триллер, Приключения
Продолжительность: 01:30:10

Режиссер: Джозеф Сарджент
В ролях: Лоррэйн Гари, Лэнс Гест, Марио Ван Пиблз, Карен Янг, Майкл Кейн, Джудит Барси, Митчелл Андерсон, Линн Уитфилд, Джей Мелло, Седрик Скотт

Описание: Полицейский Мартин Броди умирает от сердечного приступа. Его младший сын Шон погибает в схватке с большой белой акулой. Эллен Броди абсолютно убеждена, что гигантское белое чудовище мстит ее семье. Миссис Броди летит на Багамы к старшему сыну Майклу, который работает морским биологом, чтобы предупредить о смертельной опасности…


Видео: 1920x816, 5666 Kbps
Аудио1: AC3, 6 ch, 448 Kbps - РусскийРусский, Многоголосый
Аудио2: AC3, 6 ch, 448 Kbps - АнглийскийАнглийский, Оригинал
Субтитры: Русские

Как за пару секунд удалить ненужные аудиодорожки и субтитры (Внимание! После удаления вы не сможете поддержать раздачу)

Медиаинфо
General
Unique ID : 240799162189405634913448053025588628049 (0xB5283B50FAA869ED859372F527A3CA51)
Complete name : T:\HEVC3\Jaws. Quadrilogy\Jaws 4. The Revenge (1987) BDRip 1080p [HEVC].mkv
Format : Matroska
Format version : Version 4 / Version 2
File size : 4.14 GiB
Duration : 1 h 30 min
Overall bit rate : 6 569 kb/s
Encoded date : UTC 2017-07-05 18:50:27
Writing application : mkvmerge v13.0.0 ('The Juggler') 64bit
Writing library : libebml v1.3.4 + libmatroska v1.4.5
Cover : Yes
Attachments : cover104.jpg

Video
ID : 1
Format : HEVC
Format/Info : High Efficiency Video Coding
Format profile : Main@L4.1@Main
Codec ID : V_MPEGH/ISO/HEVC
Duration : 1 h 30 min
Bit rate : 5 666 kb/s
Width : 1 920 pixels
Height : 816 pixels
Display aspect ratio : 2.35:1
Frame rate mode : Constant
Frame rate : 23.976 (24000/1001) FPS
Color space : YUV
Chroma subsampling : 4:2:0
Bit depth : 8 bits
Bits/(Pixel*Frame) : 0.151
Stream size : 3.57 GiB (86%)
Writing library : x265 2.4+94-0216c8ccfdb7:[Windows][GCC 7.1.0][64 bit] 8bit
Encoding settings : cpuid=1050111 / frame-threads=5 / numa-pools=4 / wpp / no-pmode / no-pme / no-psnr / no-ssim / log-level=3 / input-csp=1 / input-res=1920x816 / interlace=0 / total-frames=0 / level-idc=41 / high-tier=1 / uhd-bd=0 / ref=4 / no-allow-non-conformance / no-repeat-headers / annexb / no-aud / no-hrd / info / hash=0 / no-temporal-layers / open-gop / min-keyint=23 / keyint=240 / bframes=10 / b-adapt=2 / b-pyramid / bframe-bias=0 / rc-lookahead=25 / lookahead-slices=5 / scenecut=40 / no-intra-refresh / ctu=64 / min-cu-size=8 / no-rect / no-amp / max-tu-size=32 / tu-inter-depth=1 / tu-intra-depth=1 / limit-tu=0 / rdoq-level=0 / dynamic-rd=0.00 / no-ssim-rd / signhide / no-tskip / nr-intra=0 / nr-inter=0 / no-constrained-intra / strong-intra-smoothing / max-merge=2 / limit-refs=3 / no-limit-modes / me=2 / subme=6 / merange=32 / temporal-mvp / weightp / weightb / no-analyze-src-pics / deblock=-3:-3 / sao / no-sao-non-deblock / rd=3 / no-early-skip / rskip / no-fast-intra / no-tskip-fast / no-cu-lossless / no-b-intra / rdpenalty=0 / psy-rd=1.00 / psy-rdoq=0.00 / no-rd-refine / analysis-reuse-mode=0 / no-lossless / cbqpoffs=0 / crqpoffs=0 / rc=cbr / bitrate=5700 / qcomp=0.60 / qpstep=4 / stats-write=0 / stats-read=0 / vbv-maxrate=5700 / vbv-bufsize=4071 / vbv-init=0.9 / ipratio=1.40 / pbratio=1.30 / aq-mode=1 / aq-strength=0.00 / cutree / zone-count=0 / no-strict-cbr / qg-size=32 / no-rc-grain / qpmax=69 / qpmin=0 / no-const-vbv / sar=1 / overscan=0 / videoformat=5 / range=0 / colorprim=2 / transfer=2 / colormatrix=2 / chromaloc=0 / display-window=0 / max-cll=0,0 / min-luma=0 / max-luma=255 / log2-max-poc-lsb=8 / vui-timing-info / vui-hrd-info / slices=1 / opt-qp-pps / opt-ref-list-length-pps / no-multi-pass-opt-rps / scenecut-bias=0.05 / no-opt-cu-delta-qp / no-aq-motion / no-hdr / no-hdr-opt / no-dhdr10-opt / analysis-reuse-level=5 / scale-factor=0 / refine-intra=0 / refine-inter=0 / refine-mv=0 / no-limit-sao / ctu-info=0
Language : English
Default : Yes
Forced : No

Audio #1
ID : 2
Format : AC-3
Format/Info : Audio Coding 3
Mode extension : CM (complete main)
Format settings, Endianness : Big
Codec ID : A_AC3
Duration : 1 h 30 min
Bit rate mode : Constant
Bit rate : 448 kb/s
Channel(s) : 6 channels
Channel positions : Front: L C R, Side: L R, LFE
Sampling rate : 48.0 kHz
Frame rate : 31.250 FPS (1536 spf)
Compression mode : Lossy
Stream size : 289 MiB (7%)
Language : Russian
Default : Yes
Forced : No

Audio #2
ID : 3
Format : AC-3
Format/Info : Audio Coding 3
Mode extension : CM (complete main)
Format settings, Endianness : Big
Codec ID : A_AC3
Duration : 1 h 30 min
Bit rate mode : Constant
Bit rate : 448 kb/s
Channel(s) : 6 channels
Channel positions : Front: L C R, Side: L R, LFE
Sampling rate : 48.0 kHz
Frame rate : 31.250 FPS (1536 spf)
Compression mode : Lossy
Stream size : 289 MiB (7%)
Language : English
Default : No
Forced : No

Text
ID : 4
Format : PGS
Muxing mode : zlib
Codec ID : S_HDMV/PGS
Codec ID/Info : Picture based subtitle format used on BDs/HD-DVDs
Duration : 1 h 25 min
Bit rate : 23.3 kb/s
Count of elements : 1620
Stream size : 14.3 MiB (0%)
Language : Russian
Default : Yes
Forced : No

Menu
00:00:00.000 : :Глава 1
00:02:42.036 : :Глава 2
00:07:25.945 : :Глава 3
00:11:02.328 : :Глава 4
00:15:51.408 : :Глава 5
00:19:33.380 : :Глава 6
00:22:55.582 : :Глава 7
00:25:12.219 : :Глава 8
00:27:34.861 : :Глава 9
00:33:10.822 : :Глава 10
00:38:13.498 : :Глава 11
00:42:16.742 : :Глава 12
00:47:30.138 : :Глава 13
00:53:17.193 : :Глава 14
00:57:59.809 : :Глава 15
01:03:06.699 : :Глава 16
01:09:06.308 : :Глава 17
01:14:33.385 : :Глава 18
01:20:15.519 : :Глава 19
01:25:14.567 : :Глава 20
01:30:10.446 : :Глава 21
Загрузка...Cкриншот1 Челюсти 4: Месть / Jaws: The Revenge (1987) BDRip 1080p [HEVC] 8 bit от CthulhuЗагрузка...Cкриншот2 Челюсти 4: Месть / Jaws: The Revenge (1987) BDRip 1080p [HEVC] 8 bit от CthulhuЗагрузка...Cкриншот3 Челюсти 4: Месть / Jaws: The Revenge (1987) BDRip 1080p [HEVC] 8 bit от CthulhuЗагрузка...Cкриншот4 Челюсти 4: Месть / Jaws: The Revenge (1987) BDRip 1080p [HEVC] 8 bit от Cthulhu
Торрент🧲 Магнет

Рейтинги КП и IMDB, кнопки "Позвать в чате" и "Спасибо", а также мультитрекерная статистика доступны только зарегистрированным/авторизованным пользователям!

Файлы: 4
  • Jaws. Quadrilogy
    • Jaws (1975) BDRip 1080p [HEVC].mkv   5.52 ГБ
    • Jaws 2 (1978) BDRip 1080p [HEVC].mkv   5.65 ГБ
    • Jaws 3 (1983) BDRip 1080p [HEVC].mkv   4.66 ГБ
    • Jaws 4. The Revenge (1987) BDRip 1080p [HEVC].mkv   4.14 ГБ
Поблагодарили: 16
375509, brukvalub, cnn, donadar, EiffeL, icesnoop, ivan_1965, Kilop77, Lab165, LastSurviv0r, mvclub, Nuclear70, OldGamer, rodina_45, SaN161NeK, Undervest
Cthulhu
23905 (4)  19.97 ГБ

Добавление нового комментария

Добавление комментариев доступно только зарегистрированным/авторизованным пользователям.
Аватар не указан
  phillip  
Встаньте на раздачу пожалуйста. 😏
Аватар xxx71
  xxx71  
Спасибо. Качество 3 части полный шлак