Регистрация / Смена пароля

💬 Мини-чат

Адрес сайта поменялся с hevc-club.video на rips.club. Новый адрес анонсера - http://rips.club:2710/announce
ADVOKAT69rodina_45, буду перекодировать!
rodina_45Раздайте, пожалуйста, Царевна-лягушка (1954) BDRip 1080p [HEVC] 10 bit от ADVOKAT69
OldGamerДа всегда пожалуйста
UndervestСообщение удалено (удалил: Undervest)
StarLordOldGamer, очень жаль... Возможно сам возьмусь)
OldGamerStarLord, в планах такого нету :)
StarLordOldGamer, еще бы "Бомжа с дробовиком" в придачу к "Мачете" =))
warner98Раздайте, пожалуйста, Кошмар на улице Вязов / A Nightmare on Elm Street (2010) BDRip 1080p [HEVC] 10 bit от Cthulhu
VISРаздайте, пожалуйста, Доспехи Бога / Lung hing foo dai (1986) BDRip 1080p [HEVC] 10 bit от joker63
  • Admin
  • AlexTwitt
Отправка сообщений доступна только зарегистрированным/авторизованным пользователям.
Онлайн (за 10 мин.): 2

Обитель зла: Антология / Resident Evil: Anthology (2002-2016) BDRip 1080p [HEVC] 10 bit от AlexTwitt

HEVC
10 bit
Обложка Обитель зла: Антология / Resident Evil: Anthology (2002-2016) BDRip 1080p [HEVC] 10 bit от AlexTwitt Год: 2002-2016
Страна: Германия, Франция, США, Канада, Великобритания
Студия: Constantin Film Produktion GmbH, Davis-Films, Impact Pictures
Жанр: Ужасы, Боевик, Фантастика, Триллер

1. Обитель зла / Resident Evil (2002) BDRip 1080p [HEVC] 10 bit от AlexTwitt
HEVC
10 bit
Обложка Обитель зла / Resident Evil (2002) BDRip 1080p [HEVC] 10 bit от AlexTwitt Год: 2002
Страна: Германия, США
Студия: Constantin Film Produktion GmbH, Davis-Films, Impact Pictures, New Legacy
Жанр: Ужасы, Боевик, Фантастика, Триллер
Продолжительность: 01:40:30

Режиссер: Пол У. С. Андерсон
В ролях: Милла Йовович, Мишель Родригес, Эрик Мэбиас, Джеймс Пьюрфой, Мартин Крюз, Колин Сэлмон, Райан МакКласки, Оскар Пирс, Индра Ове, Анна Болт

Описание: В гигантской подземной лаборатории на волю вырывается опаснейший вирус, мгновенно превращая своих жертв в прожорливых зомби. Достаточно одного их укуса или царапины страшных когтей, чтобы человек стал обезумевшим пожирателем живой плоти. Военные посылают в секретный комплекс, кишащий ужасными мутировавшими животными и голодными монстрами, группу спецназа, к которой присоединяются очаровательная Элис и отважный полицейский Мэтт. У них есть только три часа, чтобы уничтожить вирус до того, как он распространится по всей Земле.


Видео: 1920x1040, ~7036 Kbps
Аудио: AC3, 6 ch, 640 Kbps - РусскийРусский, Дублированный (Лицензия)
Субтитры: Отсутствуют

Медиаинфо
Общее
Уникальный идентификатор : 133394287637076879945332633971883650440 (0x645ACE27F278052A56C640D4E9DE2D88)
Полное имя : D:\encoded\Resident Evil\01 Resident Evil.mkv
Формат : Matroska
Версия формата : Version 4
Размер файла : 5,50 Гбайт
Продолжительность : 1 ч. 40 м.
Общий поток : 7832 Кбит/сек
Программа кодирования : XviD4PSP 7.0.459 DAILY
Библиотека кодирования : Lavf57.71.100
ErrorDetectionType : Per level 1
ENCODING_INFO : MATROSKA,WEBM > MKV 1080p 10-bit / H264 > X265 CRF 18.0 Medium / TRUEHD > AC3 CBR 640kbps

Видео
Идентификатор : 1
Формат : HEVC
Формат/Информация : High Efficiency Video Coding
Профиль формата : Main 10@L5.1@High
Идентификатор кодека : V_MPEGH/ISO/HEVC
Продолжительность : 1 ч. 40 м.
Битрейт : 7036 Кбит/сек
Ширина : 1920 пикселей
Высота : 1040 пикселей
Соотношение сторон : 1,85:1
Режим частоты кадров : Постоянный
Частота кадров : 23,976 (24000/1001) кадра/сек
Цветовое пространство : YUV
Субдискретизация насыщенности : 4:2:0
Битовая глубина : 10 бит
Бит/(Пиксели*Кадры) : 0.147
Размер потока : 4,94 Гбайт (90%)
Заголовок : Resident.Evil.2002.BDRemux.1080p
Библиотека кодирования : x265 2.8+74-fd517ae68f93:[Windows][GCC 7.3.0][64 bit] 10bit
Настройки программы : cpuid=1049583 / frame-threads=5 / numa-pools=4 / wpp / no-pmode / no-pme / no-psnr / no-ssim / log-level=3 / input-csp=1 / input-res=1920x1040 / interlace=0 / total-frames=0 / level-idc=51 / high-tier=1 / uhd-bd=0 / ref=5 / allow-non-conformance / no-repeat-headers / annexb / no-aud / no-hrd / info / hash=0 / no-temporal-layers / open-gop / min-keyint=24 / keyint=240 / gop-lookahead=0 / bframes=8 / b-adapt=2 / b-pyramid / bframe-bias=0 / rc-lookahead=40 / lookahead-slices=6 / scenecut=40 / radl=0 / no-intra-refresh / ctu=64 / min-cu-size=8 / rect / amp / max-tu-size=32 / tu-inter-depth=1 / tu-intra-depth=1 / limit-tu=0 / rdoq-level=0 / dynamic-rd=0.00 / no-ssim-rd / signhide / no-tskip / nr-intra=0 / nr-inter=0 / no-constrained-intra / strong-intra-smoothing / max-merge=2 / limit-refs=3 / no-limit-modes / me=3 / subme=7 / merange=57 / temporal-mvp / weightp / no-weightb / no-analyze-src-pics / deblock=-3:-3 / no-sao / no-sao-non-deblock / rd=3 / no-early-skip / rskip / no-fast-intra / no-tskip-fast / no-cu-lossless / no-b-intra / no-splitrd-skip / rdpenalty=0 / psy-rd=2.00 / psy-rdoq=0.00 / no-rd-refine / no-lossless / cbqpoffs=0 / crqpoffs=0 / rc=crf / crf=18.0 / qcomp=0.60 / qpstep=4 / stats-write=0 / stats-read=0 / vbv-maxrate=160000 / vbv-bufsize=160000 / vbv-init=0.9 / crf-max=0.0 / crf-min=0.0 / ipratio=1.40 / pbratio=1.30 / aq-mode=1 / aq-strength=1.00 / cutree / zone-count=0 / no-strict-cbr / qg-size=32 / no-rc-grain / qpmax=69 / qpmin=0 / no-const-vbv / sar=1 / overscan=0 / videoformat=5 / range=0 / colorprim=2 / transfer=2 / colormatrix=2 / chromaloc=0 / display-window=0 / max-cll=0,0 / min-luma=0 / max-luma=1023 / log2-max-poc-lsb=8 / vui-timing-info / vui-hrd-info / slices=1 / no-opt-qp-pps / no-opt-ref-list-length-pps / no-multi-pass-opt-rps / scenecut-bias=0.05 / no-opt-cu-delta-qp / no-aq-motion / no-hdr / no-hdr-opt / no-dhdr10-opt / no-idr-recovery-sei / analysis-reuse-level=5 / scale-factor=0 / refine-intra=0 / refine-inter=0 / refine-mv=0 / no-limit-sao / ctu-info=0 / no-lowpass-dct / refine-mv-type=0 / copy-pic=1 / max-ausize-factor=1.0 / no-dynamic-refine / no-single-sei
Язык : English
Default : Да
Forced : Нет

Аудио
Идентификатор : 2
Формат : AC-3
Формат/Информация : Audio Coding 3
Коммерческое название : Dolby Digital
Идентификатор кодека : A_AC3
Продолжительность : 1 ч. 40 м.
Вид битрейта : Постоянный
Битрейт : 640 Кбит/сек
Каналы : 6 каналов
Channel layout : L R C LFE Ls Rs
Частота : 48,0 КГц
Частота кадров : 31,250 кадров/сек (1536 SPF)
Битовая глубина : 16 бит
Метод сжатия : С потерями
Размер потока : 460 Мбайт (8%)
Заголовок : Russian, TrueHD, 6 ch, 2866 kb/s
Язык : Russian
ServiceKind/String : Complete Main
Default : Да
Forced : Нет

Меню
00:00:00.000 : :(01)00:00:00:000
00:08:22.585 : :(02)00:08:22:585
00:11:00.409 : :(03)00:11:00:409
00:19:09.940 : :(04)00:19:09:940
00:23:49.010 : :(05)00:23:49:010
00:29:22.469 : :(06)00:29:22:469
00:37:51.227 : :(07)00:37:51:227
00:41:14.555 : :(08)00:41:14:555
00:47:11.829 : :(09)00:47:11:829
00:52:16.591 : :(10)00:52:16:591
01:00:47.977 : :(11)01:00:47:977
01:08:35.694 : :(12)01:08:35:694
01:12:05.321 : :(13)01:12:05:321
01:18:33.667 : :(14)01:18:33:667
01:24:22.348 : :(15)01:24:22:348
01:30:16.160 : :(16)01:30:16:160
Загрузка...Cкриншот1 Обитель зла / Resident Evil (2002) BDRip 1080p [HEVC] 10 bit от AlexTwittЗагрузка...Cкриншот2 Обитель зла / Resident Evil (2002) BDRip 1080p [HEVC] 10 bit от AlexTwittЗагрузка...Cкриншот3 Обитель зла / Resident Evil (2002) BDRip 1080p [HEVC] 10 bit от AlexTwittЗагрузка...Cкриншот4 Обитель зла / Resident Evil (2002) BDRip 1080p [HEVC] 10 bit от AlexTwitt
2. Обитель зла 2: Апокалипсис / Resident Evil: Apocalypse (2004) [Theatrical Cut | Open Matte] BDRip 1080p [HEVC] 10 bit от AlexTwitt
HEVC
10 bit
Обложка Обитель зла 2: Апокалипсис / Resident Evil: Apocalypse (2004) [Theatrical Cut | Open Matte] BDRip 1080p [HEVC] 10 bit от AlexTwitt Год: 2004
Страна: США, Германия, Франция, Великобритания, Канада
Студия: Constantin Film Produktion GmbH, Davis-Films, Impact Pictures, Screen Gems
Жанр: Ужасы, Боевик, Фантастика, Триллер
Продолжительность: 01:33:35

Режиссер: Александр Уитт
В ролях: Милла Йовович, Сиенна Гиллори, Одед Фер, Томас Кречман, Софи Вавасо, Разаак Адоти, Джаред Харрис, Майк Эппс, Сандрин Холт, Мэттью Дж. Тейлор, Зак Уорд, Иэн Глен, Дэйв Николс, Стефен Хэйес, Джеффри Паунсетт, Шон Остин-Ольсен

Описание: Действие картины разворачивается на улицах Ракун-сити — города, контролируемого могущественной корпорацией «Амбрелла». После бактериологической катастрофы все жители медленно превращаются в зомби, а те немногочисленные граждане, чей разум ещё не до конца изъеден ужасным вирусом, доживают свои последние дни в атмосфере страха и с желанием скорейшей смерти…


Видео: 1920x1080, ~9436 Kbps
Аудио: AC3, 6 ch, 640 Kbps - РусскийРусский, Дублированный (Лицензия)
Субтитры: Отсутствуют

Медиаинфо
Общее
Уникальный идентификатор : 81093469613700834662789652282301557625 (0x3D0208BD8D3764984E34AC384C812B79)
Полное имя : D:\encoded\Resident Evil\02 Apocalypse.mkv
Формат : Matroska
Версия формата : Version 4
Размер файла : 6,59 Гбайт
Продолжительность : 1 ч. 33 м.
Общий поток : 10,1 Мбит/сек
Дата кодирования : UTC 2018-11-23 12:25:28
Программа кодирования : mkvmerge v28.2.0 ('The Awakening') 64-bit
Библиотека кодирования : libebml v1.3.6 + libmatroska v1.4.9 / Lavf57.71.100
ENCODING_INFO : MATROSKA,WEBM > MKV 1080p 10-bit / H264 > X265 CRF 19.0 Medium / DTS-HD MA > AC3 CBR 640kbps

Видео
Идентификатор : 1
Формат : HEVC
Формат/Информация : High Efficiency Video Coding
Профиль формата : Main 10@L5.1@High
Идентификатор кодека : V_MPEGH/ISO/HEVC
Продолжительность : 1 ч. 33 м.
Битрейт : 9436 Кбит/сек
Ширина : 1920 пикселей
Высота : 1080 пикселей
Соотношение сторон : 16:9
Режим частоты кадров : Постоянный
Частота кадров : 59,940 (60000/1001) кадров/сек
Цветовое пространство : YUV
Субдискретизация насыщенности : 4:2:0
Битовая глубина : 10 бит
Бит/(Пиксели*Кадры) : 0.076
Размер потока : 6,17 Гбайт (94%)
Библиотека кодирования : x265 2.8+74-fd517ae68f93:[Windows][GCC 7.3.0][64 bit] 10bit
Настройки программы : cpuid=1049583 / frame-threads=5 / numa-pools=4 / wpp / no-pmode / no-pme / no-psnr / no-ssim / log-level=3 / input-csp=1 / input-res=1920x1080 / interlace=0 / total-frames=0 / level-idc=51 / high-tier=1 / uhd-bd=0 / ref=5 / allow-non-conformance / no-repeat-headers / annexb / no-aud / no-hrd / info / hash=0 / no-temporal-layers / open-gop / min-keyint=60 / keyint=600 / gop-lookahead=0 / bframes=8 / b-adapt=2 / b-pyramid / bframe-bias=0 / rc-lookahead=40 / lookahead-slices=6 / scenecut=40 / radl=0 / no-intra-refresh / ctu=64 / min-cu-size=8 / no-rect / no-amp / max-tu-size=32 / tu-inter-depth=1 / tu-intra-depth=1 / limit-tu=0 / rdoq-level=0 / dynamic-rd=0.00 / no-ssim-rd / signhide / no-tskip / nr-intra=0 / nr-inter=0 / no-constrained-intra / strong-intra-smoothing / max-merge=2 / limit-refs=3 / no-limit-modes / me=3 / subme=7 / merange=57 / temporal-mvp / weightp / no-weightb / no-analyze-src-pics / deblock=-3:-3 / no-sao / no-sao-non-deblock / rd=3 / no-early-skip / rskip / no-fast-intra / no-tskip-fast / no-cu-lossless / no-b-intra / no-splitrd-skip / rdpenalty=0 / psy-rd=2.00 / psy-rdoq=0.00 / no-rd-refine / no-lossless / cbqpoffs=0 / crqpoffs=0 / rc=crf / crf=19.0 / qcomp=0.75 / qpstep=4 / stats-write=0 / stats-read=0 / vbv-maxrate=160000 / vbv-bufsize=160000 / vbv-init=0.9 / crf-max=0.0 / crf-min=0.0 / ipratio=1.40 / pbratio=1.30 / aq-mode=1 / aq-strength=1.00 / cutree / zone-count=0 / no-strict-cbr / qg-size=32 / no-rc-grain / qpmax=69 / qpmin=0 / no-const-vbv / sar=1 / overscan=0 / videoformat=5 / range=0 / colorprim=1 / transfer=1 / colormatrix=1 / chromaloc=0 / display-window=0 / max-cll=0,0 / min-luma=0 / max-luma=1023 / log2-max-poc-lsb=8 / vui-timing-info / vui-hrd-info / slices=1 / no-opt-qp-pps / no-opt-ref-list-length-pps / no-multi-pass-opt-rps / scenecut-bias=0.05 / no-opt-cu-delta-qp / no-aq-motion / no-hdr / no-hdr-opt / no-dhdr10-opt / no-idr-recovery-sei / analysis-reuse-level=5 / scale-factor=0 / refine-intra=0 / refine-inter=0 / refine-mv=0 / no-limit-sao / ctu-info=0 / no-lowpass-dct / refine-mv-type=0 / copy-pic=1 / max-ausize-factor=1.0 / no-dynamic-refine / no-single-sei
Язык : English
Default : Да
Forced : Нет
Цветовой диапазон : Limited
Основные цвета : BT.709
Характеристики трансфера : BT.709
Коэффициенты матрицы : BT.709

Аудио
Идентификатор : 2
Формат : AC-3
Формат/Информация : Audio Coding 3
Коммерческое название : Dolby Digital
Идентификатор кодека : A_AC3
Продолжительность : 1 ч. 33 м.
Вид битрейта : Постоянный
Битрейт : 640 Кбит/сек
Каналы : 6 каналов
Channel layout : L R C LFE Ls Rs
Частота : 48,0 КГц
Частота кадров : 31,250 кадров/сек (1536 SPF)
Битовая глубина : 16 бит
Метод сжатия : С потерями
Размер потока : 428 Мбайт (6%)
Заголовок : Dub
Язык : Russian
ServiceKind/String : Complete Main
Default : Да
Forced : Нет
Загрузка...Cкриншот1 Обитель зла 2: Апокалипсис / Resident Evil: Apocalypse (2004) [Theatrical Cut | Open Matte] BDRip 1080p [HEVC] 10 bit от AlexTwittЗагрузка...Cкриншот2 Обитель зла 2: Апокалипсис / Resident Evil: Apocalypse (2004) [Theatrical Cut | Open Matte] BDRip 1080p [HEVC] 10 bit от AlexTwittЗагрузка...Cкриншот3 Обитель зла 2: Апокалипсис / Resident Evil: Apocalypse (2004) [Theatrical Cut | Open Matte] BDRip 1080p [HEVC] 10 bit от AlexTwittЗагрузка...Cкриншот4 Обитель зла 2: Апокалипсис / Resident Evil: Apocalypse (2004) [Theatrical Cut | Open Matte] BDRip 1080p [HEVC] 10 bit от AlexTwitt
3. Обитель зла 3 / Resident Evil: Extinction (2007) BDRip 1080p [HEVC] 10 bit от AlexTwitt
HEVC
10 bit
Обложка Обитель зла 3 / Resident Evil: Extinction (2007) BDRip 1080p [HEVC] 10 bit от AlexTwitt Год: 2007
Страна: США, Германия, Австралия, Великобритания, Франция
Студия: Constantin Film Produktion GmbH, Davis-Films, Impact Pictures, Resident Evil Productions
Жанр: Ужасы, Боевик, Фантастика, Триллер
Продолжительность: 01:34:05

Режиссер: Рассел Малкэй
В ролях: Милла Йовович, Эли Лартер, Одед Фер, Иэн Глен, Ашанти, Кристофер Иган, Спенсер Лок, Мэттью Мэрсден, Линден Эшби, Джейсон О’Мара, Майк Эппс, Джо Херсли, Джон Бентли, Джеймс Тумминиа, Кирк Б.Р. Уоллер, Рик Крамер, Мадлен Кэрролл

Описание: Элис, не раз уже спасавшая мир от смертельных вирусов и неминуемой гибели, вновь взялась за оружие. На этот раз ей предстоит сразиться с корпорацией «Амбрелла», работающей над реализацией зверского антигуманного проекта. Коварные политики и прагматичные ученые стремятся уничтожить людей и заменить их на более «совершенные» создания, заселив Землю неуязвимыми бессмертными клонами…


Видео: 1920x800, ~6347 Kbps
Аудио: AC3, 6 ch, 640 Kbps - РусскийРусский, Дублированный (Лицензия)
Субтитры: Отсутствуют

Медиаинфо
Общее
Уникальный идентификатор : 236263923805095858586814985683673199559 (0xB1BEC6CCDD010CA991F44AE1A286B3C7)
Полное имя : D:\encoded\Resident Evil\03 Extinction.mkv
Формат : Matroska
Версия формата : Version 4
Размер файла : 4,68 Гбайт
Продолжительность : 1 ч. 34 м.
Общий поток : 7129 Кбит/сек
Программа кодирования : XviD4PSP 7.0.459 DAILY
Библиотека кодирования : Lavf57.71.100
ErrorDetectionType : Per level 1
ENCODING_INFO : MATROSKA,WEBM > MKV / H264 > X265 CRF 18.0 Medium / TRUEHD > AC3 CBR 640kbps

Видео
Идентификатор : 1
Формат : HEVC
Формат/Информация : High Efficiency Video Coding
Профиль формата : Main 10@L5.1@High
Идентификатор кодека : V_MPEGH/ISO/HEVC
Продолжительность : 1 ч. 34 м.
Битрейт : 6347 Кбит/сек
Ширина : 1920 пикселей
Высота : 800 пикселей
Соотношение сторон : 2,40:1
Режим частоты кадров : Постоянный
Частота кадров : 23,976 (24000/1001) кадра/сек
Цветовое пространство : YUV
Субдискретизация насыщенности : 4:2:0
Битовая глубина : 10 бит
Бит/(Пиксели*Кадры) : 0.172
Размер потока : 4,17 Гбайт (89%)
Заголовок : Resident.Evil.Extinction.2007.BDRemux.1080p
Библиотека кодирования : x265 2.8+74-fd517ae68f93:[Windows][GCC 7.3.0][64 bit] 10bit
Настройки программы : cpuid=1049583 / frame-threads=5 / numa-pools=4 / wpp / no-pmode / no-pme / no-psnr / no-ssim / log-level=3 / input-csp=1 / input-res=1920x800 / interlace=0 / total-frames=0 / level-idc=51 / high-tier=1 / uhd-bd=0 / ref=5 / allow-non-conformance / no-repeat-headers / annexb / no-aud / no-hrd / info / hash=0 / no-temporal-layers / open-gop / min-keyint=24 / keyint=240 / gop-lookahead=0 / bframes=8 / b-adapt=2 / b-pyramid / bframe-bias=0 / rc-lookahead=40 / lookahead-slices=5 / scenecut=40 / radl=0 / no-intra-refresh / ctu=64 / min-cu-size=8 / rect / amp / max-tu-size=32 / tu-inter-depth=1 / tu-intra-depth=1 / limit-tu=0 / rdoq-level=0 / dynamic-rd=0.00 / no-ssim-rd / signhide / no-tskip / nr-intra=0 / nr-inter=0 / no-constrained-intra / strong-intra-smoothing / max-merge=2 / limit-refs=3 / no-limit-modes / me=3 / subme=7 / merange=57 / temporal-mvp / weightp / no-weightb / no-analyze-src-pics / deblock=-3:-3 / no-sao / no-sao-non-deblock / rd=3 / no-early-skip / rskip / no-fast-intra / no-tskip-fast / no-cu-lossless / no-b-intra / no-splitrd-skip / rdpenalty=0 / psy-rd=2.00 / psy-rdoq=0.00 / no-rd-refine / no-lossless / cbqpoffs=0 / crqpoffs=0 / rc=crf / crf=18.0 / qcomp=0.60 / qpstep=4 / stats-write=0 / stats-read=0 / vbv-maxrate=160000 / vbv-bufsize=160000 / vbv-init=0.9 / crf-max=0.0 / crf-min=0.0 / ipratio=1.40 / pbratio=1.30 / aq-mode=1 / aq-strength=1.00 / cutree / zone-count=0 / no-strict-cbr / qg-size=32 / no-rc-grain / qpmax=69 / qpmin=0 / no-const-vbv / sar=1 / overscan=0 / videoformat=5 / range=0 / colorprim=1 / transfer=1 / colormatrix=1 / chromaloc=0 / display-window=0 / max-cll=0,0 / min-luma=0 / max-luma=1023 / log2-max-poc-lsb=8 / vui-timing-info / vui-hrd-info / slices=1 / no-opt-qp-pps / no-opt-ref-list-length-pps / no-multi-pass-opt-rps / scenecut-bias=0.05 / no-opt-cu-delta-qp / no-aq-motion / no-hdr / no-hdr-opt / no-dhdr10-opt / no-idr-recovery-sei / analysis-reuse-level=5 / scale-factor=0 / refine-intra=0 / refine-inter=0 / refine-mv=0 / no-limit-sao / ctu-info=0 / no-lowpass-dct / refine-mv-type=0 / copy-pic=1 / max-ausize-factor=1.0 / no-dynamic-refine / no-single-sei
Язык : English
Default : Да
Forced : Нет
Цветовой диапазон : Limited
Основные цвета : BT.709
Характеристики трансфера : BT.709
Коэффициенты матрицы : BT.709

Аудио
Идентификатор : 2
Формат : AC-3
Формат/Информация : Audio Coding 3
Коммерческое название : Dolby Digital
Идентификатор кодека : A_AC3
Продолжительность : 1 ч. 34 м.
Вид битрейта : Постоянный
Битрейт : 640 Кбит/сек
Каналы : 6 каналов
Channel layout : L R C LFE Ls Rs
Частота : 48,0 КГц
Частота кадров : 31,250 кадров/сек (1536 SPF)
Битовая глубина : 16 бит
Метод сжатия : С потерями
Размер потока : 431 Мбайт (9%)
Заголовок : Russian, TrueHD, 6 ch, 1513 kb/s
Язык : Russian
ServiceKind/String : Complete Main
Default : Да
Forced : Нет

Меню
00:00:00.000 : :(01)00:00:00:000
00:07:32.368 : :(02)00:07:32:368
00:13:39.318 : :(03)00:13:39:318
00:18:25.437 : :(04)00:18:25:437
00:25:13.386 : :(05)00:25:13:386
00:30:07.806 : :(06)00:30:07:806
00:32:17.727 : :(07)00:32:17:727
00:38:53.497 : :(08)00:38:53:497
00:44:21.784 : :(09)00:44:21:784
00:50:56.053 : :(10)00:50:56:053
00:55:23.653 : :(11)00:55:23:653
01:01:46.160 : :(12)01:01:46:160
01:08:50.376 : :(13)01:08:50:376
01:14:42.769 : :(14)01:14:42:769
01:19:13.248 : :(15)01:19:13:248
01:24:15.550 : :(16)01:24:15:550
01:34:04.472 : :(17)01:34:04:472
Загрузка...Cкриншот1 Обитель зла 3 / Resident Evil: Extinction (2007) BDRip 1080p [HEVC] 10 bit от AlexTwittЗагрузка...Cкриншот2 Обитель зла 3 / Resident Evil: Extinction (2007) BDRip 1080p [HEVC] 10 bit от AlexTwittЗагрузка...Cкриншот3 Обитель зла 3 / Resident Evil: Extinction (2007) BDRip 1080p [HEVC] 10 bit от AlexTwittЗагрузка...Cкриншот4 Обитель зла 3 / Resident Evil: Extinction (2007) BDRip 1080p [HEVC] 10 bit от AlexTwitt
4. Обитель зла 4: Жизнь после смерти / Resident Evil: Afterlife (2010) BDRip 1080p [HEVC] 10 bit от AlexTwitt
HEVC
10 bit
Обложка Обитель зла 4: Жизнь после смерти / Resident Evil: Afterlife (2010) BDRip 1080p [HEVC] 10 bit от AlexTwitt Год: 2010
Страна: Германия, Франция, США, Канада, Великобритания
Студия: Impact Pictures
Жанр: Ужасы, Боевик, Фантастика, Триллер
Продолжительность: 01:36:52

Режиссер: Пол У. С. Андерсон
В ролях: Милла Йовович, Эли Лартер, Ким Коутс, Шон Робертс, Серджо Перис-Менчета, Спенсер Лок, Борис Коджо, Вентворт Миллер, Сиенна Гиллори, Кейси Барнфилд

Описание: Элис продолжает свой путь в мире, поражённом вирусной инфекцией, превращающей людей в нежить. Героиня ищет оставшихся в живых, чтобы вывести их в безопасное место. Её смертельная битва с корпорацией Амбрелла выходит на новый уровень…


Видео: 1920x800, ~4359 Kbps
Аудио: AC3, 6 ch, 448 Kbps - РусскийРусский, Дублированный (Лицензия)
Субтитры: Русские (форсированные)

Медиаинфо
Общее
Уникальный идентификатор : 153641670373331942804676975279500581289 (0x73964F32B9DB14A604CBD36BAA2A59A9)
Полное имя : D:\encoded\Resident Evil\04 Afterlife.mkv
Формат : Matroska
Версия формата : Version 4
Размер файла : 3,32 Гбайт
Продолжительность : 1 ч. 36 м.
Общий поток : 4905 Кбит/сек
Программа кодирования : XviD4PSP 7.0.459 DAILY
Библиотека кодирования : Lavf57.71.100
ErrorDetectionType : Per level 1
ENCODING_INFO : MATROSKA,WEBM > MKV / H264 > X265 CRF 18.0 Medium / AC3 > COPY Безопасное

Видео
Идентификатор : 1
Формат : HEVC
Формат/Информация : High Efficiency Video Coding
Профиль формата : Main 10@L5.1@High
Идентификатор кодека : V_MPEGH/ISO/HEVC
Продолжительность : 1 ч. 36 м.
Битрейт : 4359 Кбит/сек
Ширина : 1920 пикселей
Высота : 800 пикселей
Соотношение сторон : 2,40:1
Режим частоты кадров : Постоянный
Частота кадров : 23,976 (24000/1001) кадра/сек
Цветовое пространство : YUV
Субдискретизация насыщенности : 4:2:0
Битовая глубина : 10 бит
Бит/(Пиксели*Кадры) : 0.118
Размер потока : 2,95 Гбайт (89%)
Заголовок : Resident.Evil.Afterlife.2010.BDRemux.1080p
Библиотека кодирования : x265 2.8+74-fd517ae68f93:[Windows][GCC 7.3.0][64 bit] 10bit
Настройки программы : cpuid=1049583 / frame-threads=5 / numa-pools=4 / wpp / no-pmode / no-pme / no-psnr / no-ssim / log-level=3 / input-csp=1 / input-res=1920x800 / interlace=0 / total-frames=0 / level-idc=51 / high-tier=1 / uhd-bd=0 / ref=5 / allow-non-conformance / no-repeat-headers / annexb / no-aud / no-hrd / info / hash=0 / no-temporal-layers / open-gop / min-keyint=24 / keyint=240 / gop-lookahead=0 / bframes=8 / b-adapt=2 / b-pyramid / bframe-bias=0 / rc-lookahead=40 / lookahead-slices=5 / scenecut=40 / radl=0 / no-intra-refresh / ctu=64 / min-cu-size=8 / rect / amp / max-tu-size=32 / tu-inter-depth=1 / tu-intra-depth=1 / limit-tu=0 / rdoq-level=0 / dynamic-rd=0.00 / no-ssim-rd / signhide / no-tskip / nr-intra=0 / nr-inter=0 / no-constrained-intra / strong-intra-smoothing / max-merge=2 / limit-refs=3 / no-limit-modes / me=3 / subme=7 / merange=57 / temporal-mvp / weightp / no-weightb / no-analyze-src-pics / deblock=-3:-3 / no-sao / no-sao-non-deblock / rd=3 / no-early-skip / rskip / no-fast-intra / no-tskip-fast / no-cu-lossless / no-b-intra / no-splitrd-skip / rdpenalty=0 / psy-rd=2.00 / psy-rdoq=0.00 / no-rd-refine / no-lossless / cbqpoffs=0 / crqpoffs=0 / rc=crf / crf=18.0 / qcomp=0.60 / qpstep=4 / stats-write=0 / stats-read=0 / vbv-maxrate=160000 / vbv-bufsize=160000 / vbv-init=0.9 / crf-max=0.0 / crf-min=0.0 / ipratio=1.40 / pbratio=1.30 / aq-mode=1 / aq-strength=1.00 / cutree / zone-count=0 / no-strict-cbr / qg-size=32 / no-rc-grain / qpmax=69 / qpmin=0 / no-const-vbv / sar=1 / overscan=0 / videoformat=5 / range=0 / colorprim=1 / transfer=1 / colormatrix=1 / chromaloc=0 / display-window=0 / max-cll=0,0 / min-luma=0 / max-luma=1023 / log2-max-poc-lsb=8 / vui-timing-info / vui-hrd-info / slices=1 / no-opt-qp-pps / no-opt-ref-list-length-pps / no-multi-pass-opt-rps / scenecut-bias=0.05 / no-opt-cu-delta-qp / no-aq-motion / no-hdr / no-hdr-opt / no-dhdr10-opt / no-idr-recovery-sei / analysis-reuse-level=5 / scale-factor=0 / refine-intra=0 / refine-inter=0 / refine-mv=0 / no-limit-sao / ctu-info=0 / no-lowpass-dct / refine-mv-type=0 / copy-pic=1 / max-ausize-factor=1.0 / no-dynamic-refine / no-single-sei
Язык : English
Default : Да
Forced : Нет
Цветовой диапазон : Limited
Основные цвета : BT.709
Характеристики трансфера : BT.709
Коэффициенты матрицы : BT.709

Аудио
Идентификатор : 2
Формат : AC-3
Формат/Информация : Audio Coding 3
Коммерческое название : Dolby Digital
Идентификатор кодека : A_AC3
Продолжительность : 1 ч. 36 м.
Вид битрейта : Постоянный
Битрейт : 448 Кбит/сек
Каналы : 6 каналов
Channel layout : L R C LFE Ls Rs
Частота : 48,0 КГц
Частота кадров : 31,250 кадров/сек (1536 SPF)
Битовая глубина : 16 бит
Метод сжатия : С потерями
Размер потока : 310 Мбайт (9%)
Заголовок : Russian, АС3, 6 ch, 448 kb/s
Язык : Russian
ServiceKind/String : Complete Main
Default : Да
Forced : Нет

Текст
Идентификатор : 3
Формат : UTF-8
Идентификатор кодека : S_TEXT/UTF8
Идентификатор кодека/Информация : UTF-8 Plain Text
Заголовок : Forced
Язык : Russian
Default : Да
Forced : Да

Меню
00:00:00.000 : :(01)00:00:00:000
00:07:51.304 : :(02)00:07:51:304
00:14:04.552 : :(03)00:14:04:552
00:19:21.368 : :(04)00:19:21:368
00:25:23.939 : :(05)00:25:23:939
00:30:07.222 : :(06)00:30:07:222
00:35:08.188 : :(07)00:35:08:189
00:41:51.091 : :(08)00:41:51:091
00:47:07.241 : :(09)00:47:07:241
00:53:41.468 : :(10)00:53:41:468
01:00:53.941 : :(11)01:00:53:941
01:07:58.532 : :(12)01:07:58:532
01:14:07.985 : :(13)01:14:07:985
01:17:54.711 : :(14)01:17:54:711
01:23:39.014 : :(15)01:23:39:014
01:27:24.489 : :(16)01:27:24:489
Загрузка...Cкриншот1 Обитель зла 4: Жизнь после смерти / Resident Evil: Afterlife (2010) BDRip 1080p [HEVC] 10 bit от AlexTwittЗагрузка...Cкриншот2 Обитель зла 4: Жизнь после смерти / Resident Evil: Afterlife (2010) BDRip 1080p [HEVC] 10 bit от AlexTwittЗагрузка...Cкриншот3 Обитель зла 4: Жизнь после смерти / Resident Evil: Afterlife (2010) BDRip 1080p [HEVC] 10 bit от AlexTwittЗагрузка...Cкриншот4 Обитель зла 4: Жизнь после смерти / Resident Evil: Afterlife (2010) BDRip 1080p [HEVC] 10 bit от AlexTwitt
5. Обитель зла: Возмездие / Resident Evil: Retribution (2012) BDRip 1080p [HEVC] 10 bit от AlexTwitt
HEVC
10 bit
Обложка Обитель зла: Возмездие / Resident Evil: Retribution (2012) BDRip 1080p [HEVC] 10 bit от AlexTwitt Год: 2012
Страна: США, Германия, Франция, Канада
Студия: Constantin Film Produktion GmbH, Davis-Films, Impact Pictures
Жанр: Ужасы, Боевик, Фантастика, Триллер
Продолжительность: 01:35:38

Режиссер: Пол У. С. Андерсон
В ролях: Милла Йовович, Сиенна Гиллори, Йохан Урб, Ли Бинбин, Ариана Энджинир, Мишель Родригес, Борис Коджо, Кевин Дюран, Одед Фер, Колин Сэлмон, Робин Касянов, Офилио Портильо, Шон Робертс, Тошио Оки, Такато Йамашита, Меган Чарпентье

Описание: Смертельный T-вирус, созданный в лабораториях корпорации «Амбрелла», продолжает захватывать Землю, превращая мировое население в легионы пожирающих плоть зомби. Последняя надежда человечества Элис внедряется в самое сердце самой тайной исследовательской базы корпорации и узнает еще больше о собственном таинственном прошлом. Не имея путей к отступлению, Элис продолжает искать виновных в глобальной катастрофе. Вызов, который она принимала в Токио, Нью-Йорке, Вашингтоне и даже в Москве, приводит ее в итоге к взрывающему сознание откровению, которое заставит ее переосмыслить все, что она полагала правдой. С помощью новых союзников и старых друзей, Элис будет сражаться за выживание и убегать из враждебного мира. Отсчет времени начат…


Видео: 1920x800, ~4540 Kbps
Аудио: AC3, 6 ch, 640 Kbps - РусскийРусский, Дублированный (Лицензия)
Субтитры: Отсутствуют

Медиаинфо
Общее
Уникальный идентификатор : 333638396180446720161100297034275166628 (0xFB006AF3A367A59B7BF1F90611E319A4)
Полное имя : D:\encoded\Resident Evil\05 Retribution.mkv
Формат : Matroska
Версия формата : Version 4
Размер файла : 3,53 Гбайт
Продолжительность : 1 ч. 35 м.
Общий поток : 5285 Кбит/сек
Программа кодирования : XviD4PSP 7.0.459 DAILY
Библиотека кодирования : Lavf57.71.100
ErrorDetectionType : Per level 1
ENCODING_INFO : MATROSKA,WEBM > MKV / H264 > X265 CRF 18.0 Medium / AC3 > COPY Безопасное

Видео
Идентификатор : 1
Формат : HEVC
Формат/Информация : High Efficiency Video Coding
Профиль формата : Main 10@L5.1@High
Идентификатор кодека : V_MPEGH/ISO/HEVC
Продолжительность : 1 ч. 35 м.
Битрейт : 4540 Кбит/сек
Ширина : 1920 пикселей
Высота : 800 пикселей
Соотношение сторон : 2,40:1
Режим частоты кадров : Постоянный
Частота кадров : 23,976 (24000/1001) кадра/сек
Цветовое пространство : YUV
Субдискретизация насыщенности : 4:2:0
Битовая глубина : 10 бит
Бит/(Пиксели*Кадры) : 0.123
Размер потока : 3,03 Гбайт (86%)
Заголовок : Resident.Evil.Retribution.2012.BDRemux.1080p
Библиотека кодирования : x265 2.8+74-fd517ae68f93:[Windows][GCC 7.3.0][64 bit] 10bit
Настройки программы : cpuid=1049583 / frame-threads=5 / numa-pools=4 / wpp / no-pmode / no-pme / no-psnr / no-ssim / log-level=3 / input-csp=1 / input-res=1920x800 / interlace=0 / total-frames=0 / level-idc=51 / high-tier=1 / uhd-bd=0 / ref=5 / allow-non-conformance / no-repeat-headers / annexb / no-aud / no-hrd / info / hash=0 / no-temporal-layers / open-gop / min-keyint=24 / keyint=240 / gop-lookahead=0 / bframes=8 / b-adapt=2 / b-pyramid / bframe-bias=0 / rc-lookahead=40 / lookahead-slices=5 / scenecut=40 / radl=0 / no-intra-refresh / ctu=64 / min-cu-size=8 / rect / amp / max-tu-size=32 / tu-inter-depth=1 / tu-intra-depth=1 / limit-tu=0 / rdoq-level=0 / dynamic-rd=0.00 / no-ssim-rd / signhide / no-tskip / nr-intra=0 / nr-inter=0 / no-constrained-intra / strong-intra-smoothing / max-merge=2 / limit-refs=3 / no-limit-modes / me=3 / subme=7 / merange=57 / temporal-mvp / weightp / no-weightb / no-analyze-src-pics / deblock=-3:-3 / no-sao / no-sao-non-deblock / rd=3 / no-early-skip / rskip / no-fast-intra / no-tskip-fast / no-cu-lossless / no-b-intra / no-splitrd-skip / rdpenalty=0 / psy-rd=2.00 / psy-rdoq=0.00 / no-rd-refine / no-lossless / cbqpoffs=0 / crqpoffs=0 / rc=crf / crf=18.0 / qcomp=0.60 / qpstep=4 / stats-write=0 / stats-read=0 / vbv-maxrate=160000 / vbv-bufsize=160000 / vbv-init=0.9 / crf-max=0.0 / crf-min=0.0 / ipratio=1.40 / pbratio=1.30 / aq-mode=1 / aq-strength=1.00 / cutree / zone-count=0 / no-strict-cbr / qg-size=32 / no-rc-grain / qpmax=69 / qpmin=0 / no-const-vbv / sar=1 / overscan=0 / videoformat=5 / range=0 / colorprim=1 / transfer=1 / colormatrix=1 / chromaloc=0 / display-window=0 / max-cll=0,0 / min-luma=0 / max-luma=1023 / log2-max-poc-lsb=8 / vui-timing-info / vui-hrd-info / slices=1 / no-opt-qp-pps / no-opt-ref-list-length-pps / no-multi-pass-opt-rps / scenecut-bias=0.05 / no-opt-cu-delta-qp / no-aq-motion / no-hdr / no-hdr-opt / no-dhdr10-opt / no-idr-recovery-sei / analysis-reuse-level=5 / scale-factor=0 / refine-intra=0 / refine-inter=0 / refine-mv=0 / no-limit-sao / ctu-info=0 / no-lowpass-dct / refine-mv-type=0 / copy-pic=1 / max-ausize-factor=1.0 / no-dynamic-refine / no-single-sei
Язык : English
Default : Да
Forced : Нет
Цветовой диапазон : Limited
Основные цвета : BT.709
Характеристики трансфера : BT.709
Коэффициенты матрицы : BT.709

Аудио
Идентификатор : 2
Формат : AC-3
Формат/Информация : Audio Coding 3
Коммерческое название : Dolby Digital
Идентификатор кодека : A_AC3
Продолжительность : 1 ч. 35 м.
Вид битрейта : Постоянный
Битрейт : 640 Кбит/сек
Каналы : 6 каналов
Channel layout : L R C LFE Ls Rs
Частота : 48,0 КГц
Частота кадров : 31,250 кадров/сек (1536 SPF)
Битовая глубина : 16 бит
Метод сжатия : С потерями
Размер потока : 438 Мбайт (12%)
Заголовок : Russian, AC3, 6 ch, 640 kb/s
Язык : Russian
ServiceKind/String : Complete Main
Default : Да
Forced : Нет

Меню
00:00:00.000 : :(01)00:00:00:000
00:07:43.045 : :(02)00:07:43:045
00:14:32.538 : :(03)00:14:32:538
00:21:38.839 : :(04)00:21:38:839
00:25:39.329 : :(05)00:25:39:329
00:29:31.186 : :(06)00:29:31:186
00:34:16.846 : :(07)00:34:16:846
00:39:14.769 : :(08)00:39:14:769
00:45:29.435 : :(09)00:45:29:435
00:50:27.441 : :(10)00:50:27:441
00:54:42.070 : :(11)00:54:42:070
01:00:14.861 : :(12)01:00:14:861
01:05:38.476 : :(13)01:05:38:476
01:11:22.903 : :(14)01:11:22:903
01:16:15.571 : :(15)01:16:15:571
01:21:29.384 : :(16)01:21:29:384
Загрузка...Cкриншот1 Обитель зла: Возмездие / Resident Evil: Retribution (2012) BDRip 1080p [HEVC] 10 bit от AlexTwittЗагрузка...Cкриншот2 Обитель зла: Возмездие / Resident Evil: Retribution (2012) BDRip 1080p [HEVC] 10 bit от AlexTwittЗагрузка...Cкриншот3 Обитель зла: Возмездие / Resident Evil: Retribution (2012) BDRip 1080p [HEVC] 10 bit от AlexTwittЗагрузка...Cкриншот4 Обитель зла: Возмездие / Resident Evil: Retribution (2012) BDRip 1080p [HEVC] 10 bit от AlexTwitt
6. Обитель зла: Последняя глава / Resident Evil: The Final Chapter (2016) BDRip 1080p [HEVC] 10 bit от AlexTwitt
HEVC
10 bit
Обложка Обитель зла: Последняя глава / Resident Evil: The Final Chapter (2016) BDRip 1080p [HEVC] 10 bit от AlexTwitt Год: 2016
Страна: Великобритания, Франция, США, Германия, Канадa
Студия: Constantin Film, Davis-Films, Impact Pictures
Жанр: Ужасы, Боевик, Фантастика, Триллер
Продолжительность: 01:46:40

Режиссер: Пол У. С. Андерсон
В ролях: Милла Йовович, Иэн Глен, Эли Лартер, Шон Робертс, Оуэн Мэкен, Фрайзер Джеймс, Руби Роуз, Уильям Леви, Рола, Эвер Андерсон

Описание: Действия фильма разворачиваются с того момента, на котором закончилась предыдущая часть. После того как Вескер предал Элис в Вашингтоне, конец истории человечества стал еще ближе. Элис — последняя надежда на спасение мира. Она должна вернуться к точке отсчета, туда, где все и началось — город Раккун-Сити, где корпорация «Амбрелла» готовится к финальной атаке по тем, кому удалось выжить. В гонке со временем Элис вооружится до зубов и объединится с друзьями и теми, кого не ожидала увидеть в роли своих союзников. Вместе они будут биться против армии мертвецов и новых чудовищных мутантов. Находясь под угрозой потери своих способностей и готовясь к неминуемой атаке корпорации, Элис столкнется с еще более трудными проблемами, а человечество тем временем будет находиться на грани гибели.


Видео: 1920x800, ~3068 Kbps
Аудио: AC3, 6 ch, 640 Kbps - РусскийРусский, Дублированный (Лицензия)
Субтитры: Русские (форсированные)

Медиаинфо
Общее
Уникальный идентификатор : 294871007026129576538340537442786798185 (0xDDD617186AC1FD92630AFE7E1F2EEA69)
Полное имя : \\Keenetic_extra\f0f4479af44761c8\loads\Resident Evil The Final Chapter.mkv
Формат : Matroska
Версия формата : Version 4
Размер файла : 2,82 Гбайт
Продолжительность : 1 ч. 46 м.
Общий поток : 3783 Кбит/сек
Программа кодирования : XviD4PSP 7.0.459 DAILY
Библиотека кодирования : Lavf57.71.100
ErrorDetectionType : Per level 1
ENCODING_INFO : MATROSKA,WEBM > MKV / H264 > X265 CRF 18.0 Medium / AC3 > COPY Безопасное

Видео
Идентификатор : 1
Формат : HEVC
Формат/Информация : High Efficiency Video Coding
Профиль формата : Main 10@L5.1@High
Идентификатор кодека : V_MPEGH/ISO/HEVC
Продолжительность : 1 ч. 46 м.
Битрейт : 3068 Кбит/сек
Ширина : 1920 пикселей
Высота : 800 пикселей
Соотношение сторон : 2,40:1
Режим частоты кадров : Постоянный
Частота кадров : 23,976 (24000/1001) кадра/сек
Цветовое пространство : YUV
Субдискретизация насыщенности : 4:2:0
Битовая глубина : 10 бит
Бит/(Пиксели*Кадры) : 0.083
Размер потока : 2,29 Гбайт (81%)
Заголовок : Resident.Evil.The.Final.Chapter.2016.BDRemux.1080p
Библиотека кодирования : x265 2.8+74-fd517ae68f93:[Windows][GCC 7.3.0][64 bit] 10bit
Настройки программы : cpuid=1049583 / frame-threads=5 / numa-pools=4 / wpp / no-pmode / no-pme / no-psnr / no-ssim / log-level=3 / input-csp=1 / input-res=1920x800 / interlace=0 / total-frames=0 / level-idc=51 / high-tier=1 / uhd-bd=0 / ref=5 / allow-non-conformance / no-repeat-headers / annexb / no-aud / no-hrd / info / hash=0 / no-temporal-layers / open-gop / min-keyint=24 / keyint=240 / gop-lookahead=0 / bframes=8 / b-adapt=2 / b-pyramid / bframe-bias=0 / rc-lookahead=40 / lookahead-slices=5 / scenecut=40 / radl=0 / no-intra-refresh / ctu=64 / min-cu-size=8 / rect / amp / max-tu-size=32 / tu-inter-depth=1 / tu-intra-depth=1 / limit-tu=0 / rdoq-level=0 / dynamic-rd=0.00 / no-ssim-rd / signhide / no-tskip / nr-intra=0 / nr-inter=0 / no-constrained-intra / strong-intra-smoothing / max-merge=2 / limit-refs=3 / no-limit-modes / me=3 / subme=7 / merange=57 / temporal-mvp / weightp / no-weightb / no-analyze-src-pics / deblock=-3:-3 / no-sao / no-sao-non-deblock / rd=3 / no-early-skip / rskip / no-fast-intra / no-tskip-fast / no-cu-lossless / no-b-intra / no-splitrd-skip / rdpenalty=0 / psy-rd=2.00 / psy-rdoq=0.00 / no-rd-refine / no-lossless / cbqpoffs=0 / crqpoffs=0 / rc=crf / crf=18.0 / qcomp=0.60 / qpstep=4 / stats-write=0 / stats-read=0 / vbv-maxrate=160000 / vbv-bufsize=160000 / vbv-init=0.9 / crf-max=0.0 / crf-min=0.0 / ipratio=1.40 / pbratio=1.30 / aq-mode=1 / aq-strength=1.00 / cutree / zone-count=0 / no-strict-cbr / qg-size=32 / no-rc-grain / qpmax=69 / qpmin=0 / no-const-vbv / sar=1 / overscan=0 / videoformat=5 / range=0 / colorprim=2 / transfer=2 / colormatrix=2 / chromaloc=0 / display-window=0 / max-cll=0,0 / min-luma=0 / max-luma=1023 / log2-max-poc-lsb=8 / vui-timing-info / vui-hrd-info / slices=1 / no-opt-qp-pps / no-opt-ref-list-length-pps / no-multi-pass-opt-rps / scenecut-bias=0.05 / no-opt-cu-delta-qp / no-aq-motion / no-hdr / no-hdr-opt / no-dhdr10-opt / no-idr-recovery-sei / analysis-reuse-level=5 / scale-factor=0 / refine-intra=0 / refine-inter=0 / refine-mv=0 / no-limit-sao / ctu-info=0 / no-lowpass-dct / refine-mv-type=0 / copy-pic=1 / max-ausize-factor=1.0 / no-dynamic-refine / no-single-sei
Язык : English
Default : Да
Forced : Нет

Аудио
Идентификатор : 2
Формат : AC-3
Формат/Информация : Audio Coding 3
Коммерческое название : Dolby Digital
Идентификатор кодека : A_AC3
Продолжительность : 1 ч. 46 м.
Вид битрейта : Постоянный
Битрейт : 640 Кбит/сек
Каналы : 6 каналов
Channel layout : L R C LFE Ls Rs
Частота : 48,0 КГц
Частота кадров : 31,250 кадров/сек (1536 SPF)
Битовая глубина : 16 бит
Метод сжатия : С потерями
Размер потока : 488 Мбайт (17%)
Заголовок : Russian, AC3, 6 ch, 640 kb/s
Язык : Russian
ServiceKind/String : Complete Main
Default : Да
Forced : Нет

Текст
Идентификатор : 3
Формат : UTF-8
Идентификатор кодека : S_TEXT/UTF8
Идентификатор кодека/Информация : UTF-8 Plain Text
Заголовок : Forced
Язык : Russian
Default : Да
Forced : Да

Меню
00:00:00.000 : :Chapter 01
00:05:39.339 : :Chapter 02
00:11:18.177 : :Chapter 03
00:17:00.102 : :Chapter 04
00:22:36.146 : :Chapter 05
00:27:21.640 : :Chapter 06
00:33:38.474 : :Chapter 07
00:40:47.820 : :Chapter 08
00:46:36.126 : :Chapter 09
00:53:18.778 : :Chapter 10
01:03:18.669 : :Chapter 11
01:10:47.826 : :Chapter 12
01:15:37.574 : :Chapter 13
01:22:57.806 : :Chapter 14
01:28:32.765 : :Chapter 15
01:35:07.159 : :Chapter 16
Загрузка...Cкриншот1 Обитель зла: Последняя глава / Resident Evil: The Final Chapter (2016) BDRip 1080p [HEVC] 10 bit от AlexTwittЗагрузка...Cкриншот2 Обитель зла: Последняя глава / Resident Evil: The Final Chapter (2016) BDRip 1080p [HEVC] 10 bit от AlexTwittЗагрузка...Cкриншот3 Обитель зла: Последняя глава / Resident Evil: The Final Chapter (2016) BDRip 1080p [HEVC] 10 bit от AlexTwittЗагрузка...Cкриншот4 Обитель зла: Последняя глава / Resident Evil: The Final Chapter (2016) BDRip 1080p [HEVC] 10 bit от AlexTwitt

Торрент🧲 Магнет

Рейтинги КП и IMDB, кнопки "Позвать в чате" и "Спасибо", а также мультитрекерная статистика сидов и пиров доступны только зарегистрированным/авторизованным пользователям!

Файлы: 6
  • Resident Evil
    • 01 Resident Evil.mkv   5.5 ГБ
    • 02 Apocalypse.mkv   6.59 ГБ
    • 03 Extinction.mkv   4.68 ГБ
    • 04 Afterlife.mkv   3.32 ГБ
    • 05 Retribution.mkv   3.53 ГБ
    • 06 The Final Chapter.mkv   2.82 ГБ
Поблагодарили: 37
375509, 7654321, A1eksandr1, Alexeyall, Algabas, aquarius, Arthur, Bakhadur, BarrelGun, baterfla, Boogerman, Dant3, dimasij, dimm, dresden, FBF, FijiMAX, igor3176, ivan_1965, joker1001, kapitan, Kronossss, LastSurviv0r, mas2807, MIGRANT, nazarpavluwun, nazarvlad, NoMaD, RDigit, SaN161NeK, SERGIY, sidor-2004, stormbringer, u4837, VardO, xlxxl, Ярослав
AlexTwitt
2559712 (6)  26.44 ГБ

Добавление нового комментария

Добавление комментариев доступно только зарегистрированным/авторизованным пользователям.
Аватар NoMaD
  NoMaD  
A1eksandr1 писал(а):
Сюда бы звуковые дороги и субтитры как в релизе Химика :)
к 4 фильмам из 6 можете приделать дорожки и субтитры сами какие хотите от релиза Химика)
Аватар A1eksandr1
  A1eksandr1  
Сюда бы звуковые дороги и субтитры как в релизе Химика :)