💬 Мини-чат

Giggaloнет ли у кого в планах "Давайте потанцуем" 2004
GiggaloСообщение удалено (удалил: Giggalo)
StarLordOldGamer, как дела?)
StarLordOldGamer, ура, вернулся 😄
OldGamerRezident, можете скачать этот фильм от другого релизёра, там невелика разница, а раздающие точно есть
OldGamerGiggalo, https://tsya.ru/mnemonic.html
NoMaDСообщение удалено (удалил: NoMaD)
NoMaDСообщение удалено (удалил: NoMaD)
GiggaloСообщение удалено (удалил: Giggalo)
GiggaloСообщение удалено (удалил: Giggalo)
Spartanec1308Был днём
StarLordGiggalo, наверное отрубало беднягу, целый день его нету 😅
GiggaloСообщение удалено (удалил: Giggalo)
OldGamerДоброе. Работы много, некогда на перинах валяться.
GiggaloСообщение удалено (удалил: Giggalo)
GiggaloСообщение удалено (удалил: Giggalo)
  • Rezident
  • Shok
  • Херсонец
Отправка сообщений доступна только зарегистрированным/авторизованным пользователям.
Онлайн (за 10 мин.): 3

Зверополис / Zootopia (2016) [Локализованная версия] BDRip 1080p [HEVC] 10 bit от Mr. Fox

HEVC
10 bit
Обложка Зверополис / Zootopia (2016) [Локализованная версия] BDRip 1080p [HEVC] 10 bit от Mr. Fox Год: 2016
Страна: США
Жанр: Мультфильм, Комедия, Криминал, Детектив
Продолжительность: 01:48:44

Режиссер: Байрон Ховард, Рич Мур, Джаред Буш
В ролях: Джиннифер Гудвин, Джейсон Бейтман, Идрис Эльба, Дженни Слейт, Нейт Торренс, Бонни Хант, Дон Лейк, Томми Чонг, Дж.К. Симмонс, Октавия Спенсер

Описание: Добро пожаловать в Зверополис — современный город, населенный самыми разными животными, от огромных слонов до крошечных мышек. Зверополис разделен на районы, полностью повторяющие естественную среду обитания разных жителей — здесь есть и элитный район Площадь Сахары и неприветливый Тундратаун. В этом городе появляется новый офицер полиции, жизнерадостная зайчиха Джуди Хоппс, которая с первых дней работы понимает, как сложно быть маленькой и пушистой среди больших и сильных полицейских. Джуди хватается за первую же возможность проявить себя, несмотря на то, что ее партнером будет болтливый хитрый лис Ник Уайлд. Вдвоем им предстоит раскрыть сложное дело, от которого будет зависеть судьба всех обитателей Зверополиса.


Видео: 1920x804, 5064 Kbps
Аудио1: AC3, 6 ch, 640 Kbps - РусскийРусский, Дублированный (Лицензия)
Аудио2: AC3, 6 ch, 640 Kbps - АнглийскийАнглийский, Оригинал
Субтитры: Русские (форсированные, полные), английские

Как за пару секунд удалить ненужные аудиодорожки и субтитры (Внимание! После удаления вы не сможете поддержать раздачу)

Медиаинфо
Общее
Уникальный идентификатор : 90746851938920627274276997013749748192 (0x4445353C438F4588BF32ACD5D34DD1E0)
Полное имя : F:\РАЗДАЧИ\Зверополис. 2016. 1080p. HEVC. 10 bit.mkv
Формат : Matroska
Версия формата : Version 4 / Version 2
Размер файла : 4,82 Гбайт
Продолжительность : 1 ч. 48 м.
Общий поток : 6345 Кбит/сек
Название фильма : Рип от Mr. Fox, специально для сайта Kino-mix
Дата кодирования : UTC 2019-02-17 12:26:20
Программа кодирования : mkvmerge v28.2.0 ('The Awakening') 64-bit
Библиотека кодирования : libebml v1.3.6 + libmatroska v1.4.9
Обложка : Yes
Attachments : cover.jpg

Видео
Идентификатор : 1
Формат : HEVC
Формат/Информация : High Efficiency Video Coding
Профиль формата : Main 10@L4.1@High
Идентификатор кодека : V_MPEGH/ISO/HEVC
Продолжительность : 1 ч. 48 м.
Битрейт : 5064 Кбит/сек
Ширина : 1920 пикселей
Высота : 804 пикселя
Соотношение сторон : 2,40:1
Режим частоты кадров : Постоянный
Частота кадров : 23,976 (23976/1000) кадра/сек
Частота кадров в оригинале : 23,976 (24000/1001) кадра/сек
Цветовое пространство : YUV
Субдискретизация насыщенности : 4:2:0
Битовая глубина : 10 бит
Бит/(Пиксели*Кадры) : 0.137
Размер потока : 3,85 Гбайт (80%)
Заголовок : Рип от Mr. Fox, специально для сайта Kino-mix
Библиотека кодирования : x265 2.8+74-fd517ae68f93:[Windows][MSVC 1915][64 bit] 10bit
Настройки программы : cpuid=1111039 / frame-threads=3 / numa-pools=12 / wpp / no-pmode / no-pme / no-psnr / no-ssim / log-level=2 / input-csp=1 / input-res=1920x804 / interlace=0 / total-frames=43598 / level-idc=41 / high-tier=1 / uhd-bd=0 / ref=5 / no-allow-non-conformance / no-repeat-headers / annexb / no-aud / no-hrd / info / hash=0 / no-temporal-layers / open-gop / min-keyint=23 / keyint=240 / gop-lookahead=0 / bframes=12 / b-adapt=2 / b-pyramid / bframe-bias=0 / rc-lookahead=60 / lookahead-slices=4 / scenecut=40 / radl=0 / no-intra-refresh / ctu=32 / min-cu-size=8 / rect / amp / max-tu-size=32 / tu-inter-depth=4 / tu-intra-depth=4 / limit-tu=1 / rdoq-level=2 / dynamic-rd=0.00 / no-ssim-rd / signhide / no-tskip / nr-intra=0 / nr-inter=0 / no-constrained-intra / no-strong-intra-smoothing / max-merge=4 / limit-refs=2 / limit-modes / me=3 / subme=7 / merange=57 / temporal-mvp / weightp / weightb / no-analyze-src-pics / deblock=-3:-3 / no-sao / no-sao-non-deblock / rd=6 / no-early-skip / no-rskip / no-fast-intra / no-tskip-fast / no-cu-lossless / no-b-intra / no-splitrd-skip / rdpenalty=0 / psy-rd=2.00 / psy-rdoq=1.00 / no-rd-refine / no-lossless / cbqpoffs=0 / crqpoffs=0 / rc=crf / crf=20.0 / qcomp=0.60 / qpstep=4 / stats-write=0 / stats-read=0 / vbv-maxrate=50000 / vbv-bufsize=50000 / vbv-init=0.9 / crf-max=0.0 / crf-min=0.0 / ipratio=1.40 / pbratio=1.30 / aq-mode=1 / aq-strength=0.80 / no-cutree / zone-count=0 / no-strict-cbr / qg-size=32 / no-rc-grain / qpmax=69 / qpmin=0 / no-const-vbv / sar=1 / overscan=0 / videoformat=5 / range=0 / colorprim=2 / transfer=2 / colormatrix=2 / chromaloc=0 / display-window=0 / max-cll=0,0 / min-luma=0 / max-luma=1023 / log2-max-poc-lsb=8 / vui-timing-info / vui-hrd-info / slices=1 / no-opt-qp-pps / no-opt-ref-list-length-pps / no-multi-pass-opt-rps / scenecut-bias=0.05 / no-opt-cu-delta-qp / no-aq-motion / no-hdr / no-hdr-opt / no-dhdr10-opt / no-idr-recovery-sei / analysis-reuse-level=5 / scale-factor=0 / refine-intra=0 / refine-inter=0 / refine-mv=0 / no-limit-sao / ctu-info=0 / no-lowpass-dct / refine-mv-type=0 / copy-pic=1 / max-ausize-factor=1.0 / no-dynamic-refine / no-single-sei
Default : Да
Forced : Нет

Аудио #1
Идентификатор : 2
Формат : AC-3
Формат/Информация : Audio Coding 3
Идентификатор кодека : A_AC3
Продолжительность : 1 ч. 48 м.
Вид битрейта : Постоянный
Битрейт : 640 Кбит/сек
Каналы : 6 каналов
Расположение каналов : Front: L C R, Side: L R, LFE
Частота : 48,0 КГц
Частота кадров : 31,250 кадров/сек (1536 SPF)
Битовая глубина : 16 бит
Метод сжатия : С потерями
Размер потока : 497 Мбайт (10%)
Язык : Russian
ServiceKind/String : Complete Main
Default : Да
Forced : Нет

Аудио #2
Идентификатор : 3
Формат : AC-3
Формат/Информация : Audio Coding 3
Идентификатор кодека : A_AC3
Продолжительность : 1 ч. 48 м.
Вид битрейта : Постоянный
Битрейт : 640 Кбит/сек
Каналы : 6 каналов
Расположение каналов : Front: L C R, Side: L R, LFE
Частота : 48,0 КГц
Частота кадров : 31,250 кадров/сек (1536 SPF)
Битовая глубина : 16 бит
Метод сжатия : С потерями
Размер потока : 497 Мбайт (10%)
Язык : English
ServiceKind/String : Complete Main
Default : Нет
Forced : Нет

Текст #1
Идентификатор : 4
Формат : UTF-8
Идентификатор кодека : S_TEXT/UTF8
Идентификатор кодека/Информация : UTF-8 Plain Text
Продолжительность : 1 ч. 30 м.
Битрейт : 5 бит/сек
ElementCount : 73
Размер потока : 3,59 Кбайт (0%)
Заголовок : Forced
Язык : Russian
Default : Нет
Forced : Нет

Текст #2
Идентификатор : 5
Формат : UTF-8
Идентификатор кодека : S_TEXT/UTF8
Идентификатор кодека/Информация : UTF-8 Plain Text
Продолжительность : 1 ч. 38 м.
Битрейт : 122 бит/сек
ElementCount : 1745
Размер потока : 88,6 Кбайт (0%)
Язык : Russian
Default : Нет
Forced : Нет

Текст #3
Идентификатор : 6
Формат : UTF-8
Идентификатор кодека : S_TEXT/UTF8
Идентификатор кодека/Информация : UTF-8 Plain Text
Продолжительность : 1 ч. 38 м.
Битрейт : 74 бит/сек
ElementCount : 1700
Размер потока : 53,7 Кбайт (0%)
Язык : English
Default : Нет
Forced : Нет

Меню
00:00:00.000 : en:Prologue
00:00:59.559 : en:Gideon Grey
00:05:50.100 : en:The Police Academy
00:10:05.563 : en:Welcome to Zootopia
00:14:31.537 : en:Meter Maid Duty
00:18:24.019 : en:Pawpsicles
00:26:03.353 : en:The Weasel Chase
00:30:57.439 : en:It's Called A Hustle
00:37:07.100 : en:The Naturalist Club
00:40:43.441 : en:Department Of 10
00:44:31.752 : en:Mr. Big
00:51:40.430 : en:Manchas Goes Savage
00:55:40.378 : en:The Gondola
01:00:48.269 : en:Help from Bellwether
01:03:37.855 : en:Cliffside Asylum
01:09:19.822 : en:We Cracked the Case
01:13:39.165 : en:Hopps Gives Up
01:17:07.372 : en:Hopps' Apology
01:21:52.366 : en:Doug's Laboratory
01:28:19.169 : en:The Natural History Museum
01:32:43.433 : en:Epilogue
01:36:12.141 : en:End Credits
Загрузка...Cкриншот1 Зверополис / Zootopia (2016) [Локализованная версия] BDRip 1080p [HEVC] 10 bit от Mr. FoxЗагрузка...Cкриншот2 Зверополис / Zootopia (2016) [Локализованная версия] BDRip 1080p [HEVC] 10 bit от Mr. FoxЗагрузка...Cкриншот3 Зверополис / Zootopia (2016) [Локализованная версия] BDRip 1080p [HEVC] 10 bit от Mr. FoxЗагрузка...Cкриншот4 Зверополис / Zootopia (2016) [Локализованная версия] BDRip 1080p [HEVC] 10 bit от Mr. Fox
Сэмпл Торрент🧲 Магнет

Рейтинги КП и IMDB, кнопки "Позвать в чате" и "Спасибо", а также мультитрекерная статистика доступны только зарегистрированным/авторизованным пользователям!

Файлы: 1
  • Зверополис. 2016. 1080p. HEVC. 10 bit.mkv   4.82 ГБ
Поблагодарили: 22
375509, aacg, Alexeyall, andreynnn, antaures, boxgas, crash, Cthulhu, davidoff_k4, denebunix, Dr_Daemon, garant3v, gelOru, hold, iha777, kapitan, ko1ob, litanglong, MIGRANT, NoMaD, NRK888, VardO
Admin
3452004.82 ГБ

Добавление нового комментария

Добавление комментариев доступно только зарегистрированным/авторизованным пользователям.
Аватар Cthulhu
  Cthulhu  (Отредактировал Cthulhu)    
Savager писал(а):
что значит "Локализованая версия"?
Все надписи в видеоряде на русском языке.
ЗЫ кстати принято в таких случаях скрин локализации делать, например как тут http://i1.sendpic.org/i/d2/d252dsHfNp6AqDl1ERFPryOuP58.png
Аватар не указан
  MIGRANT  
что значит "Локализованая версия"?
ПРИСОЕДИНЯЮСЬ!
Аватар не указан
  Savager  
что значит "Локализованая версия"?