💬 Мини-чат

Убедительная просьба не обсуждать тут политику.
AdminЛёшикоБэст, вроде потихоньку идёт. Подождем, если не докачается, то встану.
AdminЛёшикоБэст, перекачайте торрент, а то в профиле не отображается ждете или уже нет
ЛёшикоБэстРаздайте, пожалуйста, Неудержимые / The Expendables (2010) [Theatrical Cut] BDRip 1080p [HEVC] 10 bit от Spartanec1308
OldGamerДа, есть.
ЛёшикоБэстДоброго вечера) Скажите пожалуйста, есть ли в планах сделать релиз дилогии "Зорро" с Антонио Бандерасом?
HANNIBALAdmin, 👍
AdminГоро, встал
ГороРаздайте, пожалуйста, Хищники / Predators (2010) BDRip 1080p [HEVC] 10 bit от HANNIBAL
AdminHANNIBAL, привет. Не помню за сколько брал, но продление в этот раз обошлось примерно в $14 со всякими комиссиями. А аренда VDS обходится примерно в $30-35 за год. Не исключено, что всё это подорожает. Пока что пожертвования с трудом покрывают расходы. Иногда если требуется и со своего кармана оплачиваю, не страшно. Прорвемся.
HANNIBALсколько сейчас стоит
HANNIBALAdmin, ПРИВЕТ
AdminНаконец-то получил банковскую карту. Продлил доменное имя (адрес сайта) на год.
  • ivan_1965
Отправка сообщений доступна только зарегистрированным/авторизованным пользователям.
Онлайн (за 10 мин.): 1

Ключ от всех дверей / The Skeleton Key (2005) BDRip 1080p [HEVC] 10 bit от AlexTwitt

HEVC
10 bit
Обложка Ключ от всех дверей / The Skeleton Key (2005) BDRip 1080p [HEVC] 10 bit от AlexTwitt Год: 2005
Страна: США, Германия
Студия: Universal Pictures, ShadowCatcher Entertainment, Double Feature Films
Жанр: Ужасы, Триллер, Драма, Детектив
Продолжительность: 01:43:57

Режиссер: Иэн Софтли
В ролях: Кейт Хадсон, Джина Роулендс, Джон Хёрт, Питер Сарсгаард, Джой Брайант, Максин Барнетт, Фэнлони Р. Харрис, Мэрион Цинсер, Денин Тайлер, Энн Далримпл

Описание: 25-летняя Кэролайн Эллис устраивается работать сиделкой к пожилому инвалиду Бену Деверо, владельцу огромного особняка неподалеку от Луизианы. Его жена Вайолет вручает девушке универсальный ключ от всех дверей в доме. Однажды Кэролайн обнаруживает на чердаке секретную комнату с массой мистических предметов. Хозяйка утверждает, что вещи принадлежат бывшим владельцам, которые занимались чёрной магией. Вскоре Кэролайн становится свидетельницей довольно странных и необъяснимых событий и решает во что бы то ни стало разгадать секрет таинственной комнаты.


Видео: 1920x812, 4402 Kbps
Аудио: AC3, 6 ch, 448 Kbps - РусскийРусский, Дублированный (Лицензия)
Субтитры: Отсутствуют

Медиаинфо
Общее
Уникальный идентификатор : 254048361831150917733107400531230537722 (0xBF1FEF4AF1D0A1B35E7CE2693B2337FA)
Полное имя : \\Keenetic_extra\grmc(n-e)ulf(x)reo_en-ru_dvd\Loads\Ключ от всех дверей.mkv
Формат : Matroska
Версия формата : Version 4
Размер файла : 3,59 Гбайт
Продолжительность : 1 ч. 43 м.
Общий поток : 4948 Кбит/сек
Программа кодирования : XviD4PSP 7.0.466 DAILY
Библиотека кодирования : Lavf57.71.100
ErrorDetectionType : Per level 1
ENCODING_INFO : MATROSKA,WEBM > MKV Пользовательский / VC1 > X265 CRF 18.0 Medium / AC3 > COPY Безопасное

Видео
Идентификатор : 1
Формат : HEVC
Формат/Информация : High Efficiency Video Coding
Профиль формата : Main 10@L5.1@High
Идентификатор кодека : V_MPEGH/ISO/HEVC
Продолжительность : 1 ч. 43 м.
Битрейт : 4402 Кбит/сек
Ширина : 1920 пикселей
Высота : 812 пикселей
Соотношение сторон : 2,35:1
Режим частоты кадров : Постоянный
Частота кадров : 23,976 (24000/1001) кадра/сек
Цветовое пространство : YUV
Субдискретизация насыщенности : 4:2:0
Битовая глубина : 10 бит
Бит/(Пиксели*Кадры) : 0.118
Размер потока : 3,20 Гбайт (89%)
Библиотека кодирования : x265 2.9+9-f74003e88622:[Windows][GCC 8.2.0][64 bit] 10bit
Настройки программы : cpuid=1049583 / frame-threads=5 / numa-pools=4 / wpp / no-pmode / no-pme / no-psnr / no-ssim / log-level=3 / input-csp=1 / input-res=1920x812 / interlace=0 / total-frames=0 / level-idc=51 / high-tier=1 / uhd-bd=0 / ref=5 / allow-non-conformance / no-repeat-headers / annexb / no-aud / no-hrd / info / hash=0 / no-temporal-layers / open-gop / min-keyint=23 / keyint=240 / gop-lookahead=0 / bframes=8 / b-adapt=2 / b-pyramid / bframe-bias=0 / rc-lookahead=60 / lookahead-slices=5 / scenecut=40 / radl=0 / no-intra-refresh / ctu=64 / min-cu-size=8 / no-rect / no-amp / max-tu-size=32 / tu-inter-depth=1 / tu-intra-depth=1 / limit-tu=0 / rdoq-level=0 / dynamic-rd=0.00 / no-ssim-rd / signhide / no-tskip / nr-intra=0 / nr-inter=0 / no-constrained-intra / no-strong-intra-smoothing / max-merge=2 / limit-refs=3 / no-limit-modes / me=3 / subme=7 / merange=57 / temporal-mvp / weightp / no-weightb / no-analyze-src-pics / deblock=-3:-3 / no-sao / no-sao-non-deblock / rd=3 / no-early-skip / rskip / no-fast-intra / no-tskip-fast / no-cu-lossless / no-b-intra / no-splitrd-skip / rdpenalty=0 / psy-rd=2.00 / psy-rdoq=0.00 / no-rd-refine / no-lossless / cbqpoffs=0 / crqpoffs=0 / rc=crf / crf=18.0 / qcomp=0.75 / qpstep=4 / stats-write=0 / stats-read=0 / vbv-maxrate=50000 / vbv-bufsize=50000 / vbv-init=0.9 / crf-max=0.0 / crf-min=0.0 / ipratio=1.40 / pbratio=1.30 / aq-mode=1 / aq-strength=1.00 / cutree / zone-count=0 / no-strict-cbr / qg-size=32 / no-rc-grain / qpmax=69 / qpmin=0 / no-const-vbv / sar=1 / overscan=0 / videoformat=5 / range=0 / colorprim=1 / transfer=1 / colormatrix=1 / chromaloc=0 / display-window=0 / max-cll=0,0 / min-luma=0 / max-luma=1023 / log2-max-poc-lsb=8 / vui-timing-info / vui-hrd-info / slices=1 / no-opt-qp-pps / no-opt-ref-list-length-pps / no-multi-pass-opt-rps / scenecut-bias=0.05 / no-opt-cu-delta-qp / no-aq-motion / no-hdr / no-hdr-opt / no-dhdr10-opt / no-idr-recovery-sei / analysis-reuse-level=5 / scale-factor=0 / refine-intra=0 / refine-inter=0 / refine-mv=0 / no-limit-sao / ctu-info=0 / no-lowpass-dct / refine-mv-type=0 / copy-pic=1 / max-ausize-factor=1.0 / no-dynamic-refine / no-single-sei
Default : Да
Forced : Нет
Цветовой диапазон : Limited
Основные цвета : BT.709
Характеристики трансфера : BT.709
Коэффициенты матрицы : BT.709

Аудио
Идентификатор : 2
Формат : AC-3
Формат/Информация : Audio Coding 3
Коммерческое название : Dolby Digital
Идентификатор кодека : A_AC3
Продолжительность : 1 ч. 43 м.
Вид битрейта : Постоянный
Битрейт : 448 Кбит/сек
Каналы : 6 каналов
Channel layout : L R C LFE Ls Rs
Частота : 48,0 КГц
Частота кадров : 31,250 кадров/сек (1536 SPF)
Битовая глубина : 16 бит
Метод сжатия : С потерями
Размер потока : 333 Мбайт (9%)
Язык : Russian
ServiceKind/String : Complete Main
Default : Да
Forced : Нет
Загрузка...Cкриншот1 Ключ от всех дверей / The Skeleton Key (2005) BDRip 1080p [HEVC] 10 bit от AlexTwittЗагрузка...Cкриншот2 Ключ от всех дверей / The Skeleton Key (2005) BDRip 1080p [HEVC] 10 bit от AlexTwittЗагрузка...Cкриншот3 Ключ от всех дверей / The Skeleton Key (2005) BDRip 1080p [HEVC] 10 bit от AlexTwittЗагрузка...Cкриншот4 Ключ от всех дверей / The Skeleton Key (2005) BDRip 1080p [HEVC] 10 bit от AlexTwitt
Торрент🧲 Магнет

Рейтинги КП и IMDB, кнопки "Позвать в чате" и "Спасибо", а также мультитрекерная статистика доступны только зарегистрированным/авторизованным пользователям!

Файлы: 1
  • Ключ от всех дверей.mkv   3.59 ГБ
Поблагодарили: 25
375509, aacg, alexyak, BarrelGun, brukvalub, bs158250, e7e1, Guga, ivan_1965, kapitan, KimoTori, ko1ob, krokodill777, LastSurviv0r, makss333, NoMaD, poletov, SaN161NeK, SAVOYAR, SwX8, unnamed, VadimM, VIKING, vlad55, Vladimir1981
AlexTwitt
0633013.59 ГБ

Добавление нового комментария

Добавление комментариев доступно только зарегистрированным/авторизованным пользователям.