💬 Мини-чат

Убедительная просьба не обсуждать тут политику.
AdminЛёшикоБэст, вроде потихоньку идёт. Подождем, если не докачается, то встану.
AdminЛёшикоБэст, перекачайте торрент, а то в профиле не отображается ждете или уже нет
ЛёшикоБэстРаздайте, пожалуйста, Неудержимые / The Expendables (2010) [Theatrical Cut] BDRip 1080p [HEVC] 10 bit от Spartanec1308
OldGamerДа, есть.
ЛёшикоБэстДоброго вечера) Скажите пожалуйста, есть ли в планах сделать релиз дилогии "Зорро" с Антонио Бандерасом?
HANNIBALAdmin, 👍
AdminГоро, встал
ГороРаздайте, пожалуйста, Хищники / Predators (2010) BDRip 1080p [HEVC] 10 bit от HANNIBAL
AdminHANNIBAL, привет. Не помню за сколько брал, но продление в этот раз обошлось примерно в $14 со всякими комиссиями. А аренда VDS обходится примерно в $30-35 за год. Не исключено, что всё это подорожает. Пока что пожертвования с трудом покрывают расходы. Иногда если требуется и со своего кармана оплачиваю, не страшно. Прорвемся.
HANNIBALсколько сейчас стоит
HANNIBALAdmin, ПРИВЕТ
AdminНаконец-то получил банковскую карту. Продлил доменное имя (адрес сайта) на год.
  • OldGamer
  • ivan_1965
  • sergey678
Отправка сообщений доступна только зарегистрированным/авторизованным пользователям.
Онлайн (за 10 мин.): 3

День сурка / Groundhog Day (1993) [Remastered] BDRip 1080p [HEVC] 10 bit от M@kSIMus

HEVC
10 bit
Обложка День сурка / Groundhog Day (1993) [Remastered] BDRip 1080p [HEVC] 10 bit от M@kSIMus Год: 1993
Страна: США
Студия: Columbia Pictures Corporation
Жанр: Фэнтези, Мелодрама, Комедия
Продолжительность: 01:41:04

Режиссер: Харольд Рэмис
В ролях: Билл Мюррей, Энди МакДауэлл, Крис Эллиот, Стивен Тоболовски, Брайан Дойл-Мюррей, Марита Герати, Анджела Пэтон, Рик Дукомман, Рик Овертон, Робин Дьюк

Описание: Телевизионный комментатор Фил Коннорс каждый год приезжает в маленький городок в штате Пенсильвания на празднование Дня сурка. Но на этот раз веселье рискует зайти слишком далеко. Время сыграло с ним злую шутку: оно взяло да и остановилось. Теперь на календаре Фила чернеет одна и та же дата — 2 февраля, из которой он никак не может выбраться. Неунывающий ведущий пытается извлечь выгоду из своего комичного положения: впереди у него уйма времени и безмятежное предсказуемое будущее. Отныне с ним не случится ничего плохого… и ничего хорошего. У Фила осталась одна заветная мечта, простая и незамысловатая — 3 февраля…


Видео: 1920x1040, 9380 Kbps
Аудио1: AC3, 6 ch, 640 Kbps - РусскийРусский, Дублированный
Аудио2: AC3, 6 ch, 640 Kbps - АнглийскийАнглийский, Оригинал
Субтитры: Английские

Как за пару секунд удалить ненужные аудиодорожки и субтитры (Внимание! После удаления вы не сможете поддержать раздачу)

Медиаинфо
Общее
Уникальный идентификатор : 22259084742047396569456885445345226184 (0x10BEF19BD2F4847B568E39CBBC9D2DC8)
Полное имя : День cурка (1993) [Remastered] BDRip 1080p [HEVC] 10 bit.mkv
Формат : Matroska
Версия формата : Version 4
Размер файла : 7,53 Гбайт
Продолжительность : 1 ч. 41 м.
Общий поток : 10,7 Мбит/сек
Название фильма : День cурка (1993) Encoded_by_M@kSIMus
Дата кодирования : UTC 2019-02-22 21:10:24
Программа кодирования : mkvmerge v28.0.0 ('Voice In My Head') 64-bit
Библиотека кодирования : libebml v1.3.6 + libmatroska v1.4.9
Обложка : Yes
Attachments : cover.jpg

Видео
Идентификатор : 1
Формат : HEVC
Формат/Информация : High Efficiency Video Coding
Профиль формата : Main 10@L4.1@High
Идентификатор кодека : V_MPEGH/ISO/HEVC
Продолжительность : 1 ч. 41 м.
Битрейт : 9380 Кбит/сек
Ширина : 1920 пикселей
Высота : 1040 пикселей
Соотношение сторон : 1,85:1
Режим частоты кадров : Постоянный
Частота кадров : 23,976 (24000/1001) кадра/сек
Цветовое пространство : YUV
Субдискретизация насыщенности : 4:2:0
Битовая глубина : 10 бит
Бит/(Пиксели*Кадры) : 0.196
Размер потока : 6,62 Гбайт (88%)
Заголовок : День cурка (1993) Encoded_by_M@kSIMus
Библиотека кодирования : x265 2.9+9-f74003e88622:[Windows][GCC 8.2.0][64 bit] 10bit
Настройки программы : cpuid=1049583 / frame-threads=5 / numa-pools=4 / wpp / no-pmode / no-pme / no-psnr / no-ssim / log-level=3 / input-csp=1 / input-res=1920x1040 / interlace=0 / total-frames=0 / level-idc=41 / high-tier=1 / uhd-bd=0 / ref=5 / allow-non-conformance / no-repeat-headers / annexb / no-aud / no-hrd / info / hash=0 / no-temporal-layers / open-gop / min-keyint=24 / keyint=240 / gop-lookahead=0 / bframes=8 / b-adapt=2 / b-pyramid / bframe-bias=0 / rc-lookahead=40 / lookahead-slices=6 / scenecut=40 / radl=0 / no-intra-refresh / ctu=64 / min-cu-size=8 / rect / no-amp / max-tu-size=32 / tu-inter-depth=1 / tu-intra-depth=1 / limit-tu=0 / rdoq-level=0 / dynamic-rd=0.00 / no-ssim-rd / signhide / no-tskip / nr-intra=0 / nr-inter=0 / no-constrained-intra / strong-intra-smoothing / max-merge=2 / limit-refs=3 / no-limit-modes / me=3 / subme=7 / merange=57 / temporal-mvp / weightp / weightb / no-analyze-src-pics / deblock=-3:-3 / no-sao / no-sao-non-deblock / rd=4 / no-early-skip / rskip / no-fast-intra / no-tskip-fast / no-cu-lossless / no-b-intra / no-splitrd-skip / rdpenalty=0 / psy-rd=2.00 / psy-rdoq=0.00 / no-rd-refine / no-lossless / cbqpoffs=0 / crqpoffs=0 / rc=crf / crf=18.0 / qcomp=0.60 / qpstep=4 / stats-write=0 / stats-read=0 / vbv-maxrate=50000 / vbv-bufsize=50000 / vbv-init=0.9 / crf-max=0.0 / crf-min=0.0 / ipratio=1.40 / pbratio=1.30 / aq-mode=1 / aq-strength=1.00 / cutree / zone-count=0 / no-strict-cbr / qg-size=32 / no-rc-grain / qpmax=69 / qpmin=0 / no-const-vbv / sar=1 / overscan=0 / videoformat=5 / range=0 / colorprim=1 / transfer=1 / colormatrix=1 / chromaloc=0 / display-window=0 / max-cll=0,0 / min-luma=0 / max-luma=1023 / log2-max-poc-lsb=8 / vui-timing-info / vui-hrd-info / slices=1 / no-opt-qp-pps / no-opt-ref-list-length-pps / no-multi-pass-opt-rps / scenecut-bias=0.05 / no-opt-cu-delta-qp / no-aq-motion / no-hdr / no-hdr-opt / no-dhdr10-opt / no-idr-recovery-sei / analysis-reuse-level=5 / scale-factor=0 / refine-intra=0 / refine-inter=0 / refine-mv=0 / no-limit-sao / ctu-info=0 / no-lowpass-dct / refine-mv-type=0 / copy-pic=1 / max-ausize-factor=1.0 / no-dynamic-refine / no-single-sei
Язык : English
Default : Да
Forced : Нет
Цветовой диапазон : Limited
Основные цвета : BT.709
Характеристики трансфера : BT.709
Коэффициенты матрицы : BT.709

Аудио #1
Идентификатор : 2
Формат : AC-3
Формат/Информация : Audio Coding 3
Коммерческое название : Dolby Digital
Идентификатор кодека : A_AC3
Продолжительность : 1 ч. 41 м.
Вид битрейта : Постоянный
Битрейт : 640 Кбит/сек
Каналы : 6 каналов
Channel layout : L R C LFE Ls Rs
Частота : 48,0 КГц
Частота кадров : 31,250 кадров/сек (1536 SPF)
Битовая глубина : 16 бит
Метод сжатия : С потерями
Размер потока : 463 Мбайт (6%)
Заголовок : Дубляж
Язык : Russian
Default : Да
Forced : Нет

Аудио #2
Идентификатор : 3
Формат : AC-3
Формат/Информация : Audio Coding 3
Коммерческое название : Dolby Digital
Идентификатор кодека : A_AC3
Продолжительность : 1 ч. 41 м.
Вид битрейта : Постоянный
Битрейт : 640 Кбит/сек
Каналы : 6 каналов
Channel layout : L R C LFE Ls Rs
Частота : 48,0 КГц
Частота кадров : 31,250 кадров/сек (1536 SPF)
Битовая глубина : 16 бит
Метод сжатия : С потерями
Размер потока : 463 Мбайт (6%)
Заголовок : Оригинал
Язык : English
Default : Нет
Forced : Нет

Текст
Идентификатор : 4
Формат : UTF-8
Идентификатор кодека : S_TEXT/UTF8
Идентификатор кодека/Информация : UTF-8 Plain Text
Продолжительность : 1 ч. 37 м.
Битрейт : 57 бит/сек
ElementCount : 1325
Размер потока : 41,0 Кбайт (0%)
Заголовок : Eng Full
Язык : English
Default : Нет
Forced : Нет

Меню
00:00:00.000 : en:Start
00:00:42.625 : en:A New Producer
00:04:22.679 : en:Punxsutawney
00:07:05.967 : en:Groundhog Day
00:10:26.626 : en:Gobbler's Knob 1
00:13:46.826 : en:Storm Warning
00:19:28.041 : en:Groundhog Day 2
00:24:15.162 : en:Gobbler's Knog 2
00:26:08.149 : en:Groundhog Day 3
00:26:49.566 : en:Gobbler's Knob 3
00:29:48.745 : en:Phil Seeks Help
00:36:46.913 : en:Groundhog Day 4
00:38:49.744 : en:No More Worries
00:42:04.605 : en:Phil Meets Nancy
00:48:40.626 : en:Groundhog Day 5
00:50:23.103 : en:Heist
00:51:22.454 : en:Groundhog Day 6
00:53:47.224 : en:Perfect Guy
00:56:23.463 : en:Gobbler Knob ?
01:00:57.737 : en:Day By Day
01:02:19.193 : en:Phil Kidnpas Phil
01:06:12.426 : en:Convincing Rita
01:09:46.390 : en:Phil's New Image
01:15:26.522 : en:Literature & Music
01:19:02.738 : en:Old Man Saga
01:19:22.215 : en:A Long Winter
01:21:06.653 : en:Guardian Angel
01:28:16.291 : en:Groundhog Dinner
01:31:11.924 : en:Rock-Maninoff
01:35:21.716 : en:Bidding for Phil
01:37:59.623 : en:A Warm Face
Загрузка...Cкриншот1 День сурка / Groundhog Day (1993) [Remastered] BDRip 1080p [HEVC] 10 bit от M@kSIMusЗагрузка...Cкриншот2 День сурка / Groundhog Day (1993) [Remastered] BDRip 1080p [HEVC] 10 bit от M@kSIMusЗагрузка...Cкриншот3 День сурка / Groundhog Day (1993) [Remastered] BDRip 1080p [HEVC] 10 bit от M@kSIMusЗагрузка...Cкриншот4 День сурка / Groundhog Day (1993) [Remastered] BDRip 1080p [HEVC] 10 bit от M@kSIMus
Сэмпл Торрент🧲 Магнет

Рейтинги КП и IMDB, кнопки "Позвать в чате" и "Спасибо", а также мультитрекерная статистика доступны только зарегистрированным/авторизованным пользователям!

Файлы: 1
  • День cурка (1993) [Remastered] BDRip 1080p [HEVC] 10 bit.mkv   7.53 ГБ
Поблагодарили: 10
2ps63, 375509, Brooklyn, brukvalub, Chance, hold, NoMaD, SaN161NeK, Shanti, shurabb
Admin
61448107.53 ГБ

Добавление нового комментария

Добавление комментариев доступно только зарегистрированным/авторизованным пользователям.
Аватар Студень
  Студень  
hold писал(а):
Спасибо))
Да за что?
Аватар не указан
  hold  
Спасибо))
Аватар OldGamer
  OldGamer  
Студень писал(а):
Странно если бы результат был другой. А комментарий можно любой
Да, я неправильно выразился. Приношу свои извинения. Про результат - в точку.
Аватар Студень
  Студень  
OldGamer писал(а):
😀 странно было бы увидеть другой комментарий
Странно если бы результат был другой. А комментарий можно любой
Аватар OldGamer
  OldGamer  
😀 странно было бы увидеть другой комментарий
Аватар Студень
  Студень  
Мыло