Чат

⚫︎
Список изменений сайта - https://rips.club/changelog.html (обновлен 24.05.2024)
  • arwis
Онлайн (за 10 мин.): 1
Отправка сообщений доступна только зарегистрированным/авторизованным пользователям.

🎥︎Хлоя / Chloe (2009) BDRip 1080p [HEVC] 10 bit от AlexTwitt


Обложка Хлоя / Chloe (2009) BDRip 1080p [HEVC] 10 bit от AlexTwitt
HEVC
10 bit
⤓︎Торрент🧲︎Магнет$Пожертвования
Год: 2009
Страна: США, Канада, Франция
Студия: StudioCanal
Жанр: Триллер, Драма, Мелодрама, Детектив
Длительность: 01:36:00

Режиссер: Атом Эгоян
В ролях: Джулианна Мур, Лиам Нисон, Аманда Сэйфрид, Макс Тириот, Р.Х. Томсон, Нина Добрев, Мишу Веллани, Джули Ханер, Лаура ДеКартере, Натали Лисинска

Описание: Кэтрин — врач, Дэвид — профессор, у них прекрасный сын. На первый взгляд, это идеальная семья. Но однажды Дэвид опаздывает на самолет и пропускает семейное торжество, посвященное его дню рождения. С этого момента Кэтрин начинает подозревать мужа в измене. Женщина заключает сделку с Хлоей, которая должна соблазнить Дэвида и предоставить подробный отчет. Но со временем отчеты становятся все более сухими, а встречи двух женщин — все более частыми…


Видео: 1920x1080, ~9028 Kbps
Аудио: AC3, 6 ch, 640 Kbps - РусскийРусский, Дублированный (Лицензия)
Субтитры: Отсутствуют

МедиаинфоОбщее
Уникальный идентификатор : 37936242933235277075999635243788833695 (0x1C8A412F0E52061B5313361DFB6A939F)
Полное имя : \\Keenetic_extra\grmc(n-e)ulf(x)reo_en-ru_dvd\Loads\Хлоя.mkv
Формат : Matroska
Версия формата : Version 4
Размер файла : 6,63 Гбайт
Продолжительность : 1 ч. 36 м.
Общий поток : 9864 Кбит/сек
Программа кодирования : XviD4PSP 8.0.31
Библиотека кодирования : Lavf58.20.100
ErrorDetectionType : Per level 1
ENCODING_INFO : MATROSKA,WEBM > MKV

Видео
Идентификатор : 1
Формат : HEVC
Формат/Информация : High Efficiency Video Coding
Профиль формата : Main 10@L5.1@High
Идентификатор кодека : V_MPEGH/ISO/HEVC
Продолжительность : 1 ч. 36 м.
Битрейт : 9028 Кбит/сек
Ширина : 1920 пикселей
Высота : 1080 пикселей
Соотношение сторон : 16:9
Режим частоты кадров : Постоянный
Частота кадров : 24,000 кадра/сек
Цветовое пространство : YUV
Субдискретизация насыщенности : 4:2:0
Битовая глубина : 10 бит
Бит/(Пиксели*Кадры) : 0.181
Размер потока : 6,06 Гбайт (92%)
Библиотека кодирования : x265 3.0_Au+3-5b90dc59b57a:[Windows][clang 7.0.1][64 bit] 10bit
Настройки программы : cpuid=1049583 / frame-threads=5 / numa-pools=4 / wpp / no-pmode / no-pme / no-psnr / no-ssim / log-level=3 / input-csp=1 / input-res=1920x1080 / interlace=0 / total-frames=0 / level-idc=51 / high-tier=1 / uhd-bd=0 / ref=4 / allow-non-conformance / no-repeat-headers / annexb / no-aud / no-hrd / info / hash=0 / no-temporal-layers / open-gop / min-keyint=23 / keyint=240 / gop-lookahead=0 / bframes=8 / b-adapt=2 / b-pyramid / bframe-bias=0 / rc-lookahead=60 / lookahead-slices=6 / scenecut=40 / radl=0 / no-splice / no-intra-refresh / ctu=64 / min-cu-size=8 / no-rect / no-amp / max-tu-size=32 / tu-inter-depth=1 / tu-intra-depth=1 / limit-tu=0 / rdoq-level=0 / dynamic-rd=0.00 / no-ssim-rd / signhide / no-tskip / nr-intra=0 / nr-inter=0 / no-constrained-intra / no-strong-intra-smoothing / max-merge=2 / limit-refs=3 / no-limit-modes / me=3 / subme=7 / merange=57 / temporal-mvp / weightp / no-weightb / no-analyze-src-pics / deblock=-3:-3 / no-sao / no-sao-non-deblock / rd=3 / no-early-skip / rskip / no-fast-intra / no-tskip-fast / no-cu-lossless / no-b-intra / no-splitrd-skip / rdpenalty=0 / psy-rd=2.00 / psy-rdoq=0.00 / no-rd-refine / no-lossless / cbqpoffs=0 / crqpoffs=0 / rc=crf / crf=19.0 / qcomp=0.60 / qpstep=4 / stats-write=0 / stats-read=0 / vbv-maxrate=50000 / vbv-bufsize=50000 / vbv-init=0.9 / crf-max=30.0 / crf-min=0.0 / ipratio=1.40 / pbratio=1.30 / aq-mode=1 / aq-strength=1.00 / no-cutree / zone-count=0 / no-strict-cbr / qg-size=32 / no-rc-grain / qpmax=69 / qpmin=0 / no-const-vbv / sar=1 / overscan=0 / videoformat=5 / range=0 / colorprim=1 / transfer=1 / colormatrix=1 / chromaloc=0 / display-window=0 / max-cll=0,0 / min-luma=0 / max-luma=1023 / log2-max-poc-lsb=8 / vui-timing-info / vui-hrd-info / slices=1 / no-opt-qp-pps / no-opt-ref-list-length-pps / no-multi-pass-opt-rps / scenecut-bias=0.05 / no-opt-cu-delta-qp / no-aq-motion / no-hdr / no-hdr-opt / no-dhdr10-opt / no-idr-recovery-sei / analysis-reuse-level=5 / scale-factor=0 / refine-intra=0 / refine-inter=0 / refine-mv=0 / refine-ctu-distortion=0 / no-limit-sao / ctu-info=0 / no-lowpass-dct / refine-analysis-type=0 / copy-pic=1 / max-ausize-factor=1.0 / no-dynamic-refine / no-single-sei / hevc-aq / qp-adaptation-range=1.00
Default : Да
Forced : Нет
Цветовой диапазон : Limited
Основные цвета : BT.709
Характеристики трансфера : BT.709
Коэффициенты матрицы : BT.709
ENCODING_INFO : DTS-HD MA > AC3 CBR 640kbps

Аудио
Идентификатор : 2
Формат : AC-3
Формат/Информация : Audio Coding 3
Коммерческое название : Dolby Digital
Идентификатор кодека : A_AC3
Продолжительность : 1 ч. 36 м.
Вид битрейта : Постоянный
Битрейт : 640 Кбит/сек
Каналы : 6 каналов
Channel layout : L R C LFE Ls Rs
Частота : 48,0 КГц
Частота кадров : 31,250 кадров/сек (1536 SPF)
Битовая глубина : 16 бит
Метод сжатия : С потерями
Размер потока : 440 Мбайт (6%)
Язык : Russian
ServiceKind/String : Complete Main
Default : Да
Forced : Нет
ENCODING_INFO : DTS-HD MA > AC3 CBR 640kbps
Загрузка...Cкриншот1 Хлоя / Chloe (2009) BDRip 1080p [HEVC] 10 bit от AlexTwittЗагрузка...Cкриншот2 Хлоя / Chloe (2009) BDRip 1080p [HEVC] 10 bit от AlexTwittЗагрузка...Cкриншот3 Хлоя / Chloe (2009) BDRip 1080p [HEVC] 10 bit от AlexTwittЗагрузка...Cкриншот4 Хлоя / Chloe (2009) BDRip 1080p [HEVC] 10 bit от AlexTwitt
Поблагодарили: 12375509, aacg, Antilord90, Bakhadur, Chance, e7e1, gelOru, ivan_1965, NoMaD, Planierraupe, SaN161NeK, VadimM
Файлы: 1
  • Хлоя.mkv

Рейтинги КП и IMDB, кнопки "Раздайте, пожалуйста" и "Спасибо", а также мультитрекерная статистика доступны только зарегистрированным/авторизованным пользователям!

AlexTwitt
0016406.63 ГБ

💬︎ Комментарии

Добавление комментариев доступно только зарегистрированным/авторизованным пользователям.