💬 Мини-чат

BrooklynOldGamer, Ок, спасибо, качаю.
OldGamerBrooklyn, они все на раздаче пока что
BrooklynOldGamer, Пораздавайте, пожалуйста, все сезоны сериала "Гримм" ближайшие 3 дня, очень хочу их забрать. Качество отличное. Заранее Благодарен.
StarLordСообщение удалено (удалил: StarLord)
OldGamerвыводить
mafo2Admin, можно вывести, наглядно будет
StarLordAdmin, +
AdminНадпись HDR выводить на обложку?
OldGamerGiggalo, но лучше всего вообще не затрагивайте этот ключ, по умолчанию будет установлено оптимальное значение
OldGamerGiggalo, но если уж очень хочется то пишите --frame-threads 3
OldGamerGiggalo, а зачем его менять?) нужное значение устанавливается автоматически
GiggaloДобрый вечер всем! OldGamer Покажи пожалуйста почему когда пишу в командной строке frame-threads=3 он не меняется. Какой там стоит 13 он его и держит, а ругие установки спокойно меняет?
AdminStarLord, спасибо. Пока сойдет.
StarLordAdmin, ага, вижу
StarLordAdmin, а как должно брать?
AdminStarLord, ты шаришь?
AdminStarLord, у меня сейчас такая, но с точками беда. Доработать бы (https?://([-\w\.]+)+(:\d+)?(/([-\w/_:%]*(\.\w+)*(\?\S+)?)?)?)
AdminStarLord, скрины в bb некорректно берет
StarLordwww, ftp(s), http(s), #, :, &
StarLordAdmin, все мои кейсы покрыла
  • OldGamer
  • InSpector
  • moonson
  • NoMaD
  • pmihail99
  • sharkey71
Отправка сообщений доступна только зарегистрированным/авторизованным пользователям.
Онлайн (за 10 мин.): 6

Дом в конце улицы / House at the End of the Street (2011) [Theatrical Cut] BDRip 1080p [HEVC] 10 bit от AlexTwitt

HEVC
10 bit
Обложка Дом в конце улицы / House at the End of the Street (2011) [Theatrical Cut] BDRip 1080p [HEVC] 10 bit от AlexTwitt Год: 2011
Страна: США, Канада
Студия: Bigger Boat, Relativity Media
Жанр: Триллер, Ужасы
Продолжительность: 01:40:46

Режиссер: Марк Тондерай
В ролях: Дженнифер Лоуренс, Макс Тириот, Элизабет Шу, Джил Беллоуз, Ева Линк, Нолан Фанк, Элли МакДональд, Джордан Хэйес, Криста Бриджес, Джеймс Томас

Описание: Переехав жить в небольшой провинциальный город, Сара и ее дочь еще не догадываются, что вскоре окажутся в эпицентре ужаса…


Видео: 1920x800, ~7942 Kbps
Аудио: DTS, 6 ch, 755 Kbps - РусскийРусский, Дублированный (Лицензия)
Субтитры: Отсутствуют

Медиаинфо
Общее
Уникальный идентификатор : 286937423952247620344657211115552506308 (0xD7DE23400317FB558CD0E3F5FDD201C4)
Полное имя : \\Keenetic_extra\grmc(n-e)ulf(x)reo_en-ru_dvd\Loads\Дом в конце улицы.mkv
Формат : Matroska
Версия формата : Version 4
Размер файла : 6,25 Гбайт
Продолжительность : 1 ч. 40 м.
Общий поток : 8873 Кбит/сек
Программа кодирования : XviD4PSP 8.0.32
Библиотека кодирования : Lavf58.20.100
ErrorDetectionType : Per level 1
ENCODING_INFO : MATROSKA,WEBM > MKV

Видео
Идентификатор : 1
Формат : HEVC
Формат/Информация : High Efficiency Video Coding
Профиль формата : Main 10@L5.1@High
Идентификатор кодека : V_MPEGH/ISO/HEVC
Продолжительность : 1 ч. 40 м.
Битрейт : 7942 Кбит/сек
Ширина : 1920 пикселей
Высота : 800 пикселей
Соотношение сторон : 2,40:1
Режим частоты кадров : Постоянный
Частота кадров : 23,976 (24000/1001) кадра/сек
Цветовое пространство : YUV
Субдискретизация насыщенности : 4:2:0
Битовая глубина : 10 бит
Бит/(Пиксели*Кадры) : 0.216
Размер потока : 5,59 Гбайт (90%)
Библиотека кодирования : x265 3.0_Au+3-5b90dc59b57a:[Windows][clang 7.0.1][64 bit] 10bit
Настройки программы : cpuid=1049583 / frame-threads=5 / numa-pools=4 / wpp / no-pmode / no-pme / no-psnr / no-ssim / log-level=3 / input-csp=1 / input-res=1920x800 / interlace=0 / total-frames=0 / level-idc=51 / high-tier=1 / uhd-bd=0 / ref=5 / allow-non-conformance / no-repeat-headers / annexb / no-aud / no-hrd / info / hash=0 / no-temporal-layers / open-gop / min-keyint=23 / keyint=240 / gop-lookahead=0 / bframes=8 / b-adapt=2 / b-pyramid / bframe-bias=0 / rc-lookahead=60 / lookahead-slices=5 / scenecut=40 / radl=0 / no-splice / no-intra-refresh / ctu=64 / min-cu-size=8 / no-rect / no-amp / max-tu-size=32 / tu-inter-depth=1 / tu-intra-depth=1 / limit-tu=0 / rdoq-level=0 / dynamic-rd=0.00 / no-ssim-rd / signhide / no-tskip / nr-intra=0 / nr-inter=0 / no-constrained-intra / no-strong-intra-smoothing / max-merge=2 / limit-refs=3 / no-limit-modes / me=3 / subme=7 / merange=57 / temporal-mvp / weightp / no-weightb / no-analyze-src-pics / deblock=-3:-3 / no-sao / no-sao-non-deblock / rd=3 / no-early-skip / rskip / no-fast-intra / no-tskip-fast / no-cu-lossless / no-b-intra / no-splitrd-skip / rdpenalty=0 / psy-rd=2.00 / psy-rdoq=0.00 / no-rd-refine / no-lossless / cbqpoffs=0 / crqpoffs=0 / rc=crf / crf=18.0 / qcomp=0.60 / qpstep=4 / stats-write=0 / stats-read=0 / vbv-maxrate=50000 / vbv-bufsize=50000 / vbv-init=0.9 / crf-max=30.0 / crf-min=0.0 / ipratio=1.40 / pbratio=1.30 / aq-mode=1 / aq-strength=1.00 / no-cutree / zone-count=0 / no-strict-cbr / qg-size=32 / no-rc-grain / qpmax=69 / qpmin=0 / no-const-vbv / sar=1 / overscan=0 / videoformat=5 / range=0 / colorprim=2 / transfer=2 / colormatrix=2 / chromaloc=0 / display-window=0 / max-cll=0,0 / min-luma=0 / max-luma=1023 / log2-max-poc-lsb=8 / vui-timing-info / vui-hrd-info / slices=1 / no-opt-qp-pps / no-opt-ref-list-length-pps / no-multi-pass-opt-rps / scenecut-bias=0.05 / no-opt-cu-delta-qp / no-aq-motion / no-hdr / no-hdr-opt / no-dhdr10-opt / no-idr-recovery-sei / analysis-reuse-level=5 / scale-factor=0 / refine-intra=0 / refine-inter=0 / refine-mv=0 / refine-ctu-distortion=0 / no-limit-sao / ctu-info=0 / no-lowpass-dct / refine-analysis-type=0 / copy-pic=1 / max-ausize-factor=1.0 / no-dynamic-refine / no-single-sei / hevc-aq / qp-adaptation-range=1.00
Default : Да
Forced : Нет
ENCODING_INFO : DTS > COPY Безопасное

Аудио
Идентификатор : 2
Формат : DTS
Формат/Информация : Digital Theater Systems
Идентификатор кодека : A_DTS
Продолжительность : 1 ч. 40 м.
Вид битрейта : Постоянный
Битрейт : 755 Кбит/сек
Каналы : 6 каналов
Channel layout : C L R Ls Rs LFE
Частота : 48,0 КГц
Частота кадров : 93,750 кадра/сек (512 SPF)
Битовая глубина : 16 бит
Метод сжатия : С потерями
Размер потока : 544 Мбайт (9%)
Default : Да
Forced : Нет
ENCODING_INFO : DTS > COPY Безопасное
Загрузка...Cкриншот1 Дом в конце улицы / House at the End of the Street (2011) [Theatrical Cut] BDRip 1080p [HEVC] 10 bit от AlexTwittЗагрузка...Cкриншот2 Дом в конце улицы / House at the End of the Street (2011) [Theatrical Cut] BDRip 1080p [HEVC] 10 bit от AlexTwittЗагрузка...Cкриншот3 Дом в конце улицы / House at the End of the Street (2011) [Theatrical Cut] BDRip 1080p [HEVC] 10 bit от AlexTwittЗагрузка...Cкриншот4 Дом в конце улицы / House at the End of the Street (2011) [Theatrical Cut] BDRip 1080p [HEVC] 10 bit от AlexTwitt
Торрент🧲 Магнет

Рейтинги КП и IMDB, кнопки "Позвать в чате" и "Спасибо", а также мультитрекерная статистика сидов и пиров доступны только зарегистрированным/авторизованным пользователям!

Файлы: 1
  • Дом в конце улицы.mkv   6.25 ГБ
Поблагодарили: 15
375509, aacg, AD_60, aquarius1247, bs158250, crash, Igor Sidorov, ivan_1965, kapitan, NoMaD, SaN161NeK, Shanti, Solee, SoulBoy, SwX8
AlexTwitt
0143016.25 ГБ

Добавление нового комментария

Добавление комментариев доступно только зарегистрированным/авторизованным пользователям.