💬 Мини-чат

Убедительная просьба не обсуждать тут политику.
AdminЛёшикоБэст, вроде потихоньку идёт. Подождем, если не докачается, то встану.
AdminЛёшикоБэст, перекачайте торрент, а то в профиле не отображается ждете или уже нет
ЛёшикоБэстРаздайте, пожалуйста, Неудержимые / The Expendables (2010) [Theatrical Cut] BDRip 1080p [HEVC] 10 bit от Spartanec1308
OldGamerДа, есть.
ЛёшикоБэстДоброго вечера) Скажите пожалуйста, есть ли в планах сделать релиз дилогии "Зорро" с Антонио Бандерасом?
HANNIBALAdmin, 👍
AdminГоро, встал
ГороРаздайте, пожалуйста, Хищники / Predators (2010) BDRip 1080p [HEVC] 10 bit от HANNIBAL
AdminHANNIBAL, привет. Не помню за сколько брал, но продление в этот раз обошлось примерно в $14 со всякими комиссиями. А аренда VDS обходится примерно в $30-35 за год. Не исключено, что всё это подорожает. Пока что пожертвования с трудом покрывают расходы. Иногда если требуется и со своего кармана оплачиваю, не страшно. Прорвемся.
HANNIBALсколько сейчас стоит
HANNIBALAdmin, ПРИВЕТ
AdminНаконец-то получил банковскую карту. Продлил доменное имя (адрес сайта) на год.
  • ivan_1965
Отправка сообщений доступна только зарегистрированным/авторизованным пользователям.
Онлайн (за 10 мин.): 1

Мальчишник в Вегасе / The Hangover (2009) [Extended Cut] BDRip 1080p [HEVC] 10 bit от M@kSIMus

HEVC
10 bit
Обложка Мальчишник в Вегасе / The Hangover (2009) [Extended Cut] BDRip 1080p [HEVC] 10 bit от M@kSIMus Год: 2009
Страна: США
Студия: Warner Bros. Pictures, Legendary Pictures
Жанр: Комедия
Продолжительность: 01:47:54

Режиссер: Тодд Филлипс
В ролях: Брэдли Купер, Эд Хелмс, Зак Галифианакис, Джастин Барта, Хизер Грэм, Джеффри Тэмбор, Саша Баррези, Кен Жонг, Рэйчел Харрис, Майк Эппс

Описание: Они мечтали устроить незабываемый мальчишник в Вегасе. Но теперь им необходимо вспомнить, что именно произошло: что за ребенок сидит в шкафу номера отеля? Как в ванную попал тигр? Почему у одного из них нет зуба? И, самое главное, куда делся жених? То, что парни вытворяли на вечеринке, не идет ни в какое сравнение с тем, что им придется сделать на трезвую голову, когда они будут шаг за шагом восстанавливать события прошлой ночи.


Видео: 1920x800, 7367 Kbps
Аудио1: AC3, 6 ch, 640 Kbps - РусскийРусский, Дублированный + вставки многоголосого (Киномания) на расширенные сцены
Аудио2: AC3, 6 ch, 448 Kbps - АнглийскийАнглийский, Оригинал
Субтитры: Русские (форсированные, полные), английские

Как за пару секунд удалить ненужные аудиодорожки и субтитры (Внимание! После удаления вы не сможете поддержать раздачу)

Медиаинфо
Общее
Уникальный идентификатор : 137474394513139140451363869022284364286 (0x676C9AF4CE37055FB5C4B95621B339FE)
Полное имя : Мальчишник в Вегасе (2009) [Extended Cut] BDRip 1080p [HEVC] 10 bit.mkv
Формат : Matroska
Версия формата : Version 4
Размер файла : 6,37 Гбайт
Продолжительность : 1 ч. 47 м.
Общий поток : 8457 Кбит/сек
Название фильма : Мальчишник в Вегасе (2009) Encoded_by_M@kSIMus
Дата кодирования : UTC 2019-02-28 12:42:42
Программа кодирования : mkvmerge v28.0.0 ('Voice In My Head') 64-bit
Библиотека кодирования : libebml v1.3.6 + libmatroska v1.4.9
Обложка : Yes
Attachments : cover1.jpg

Видео
Идентификатор : 1
Формат : HEVC
Формат/Информация : High Efficiency Video Coding
Профиль формата : Main 10@L4.1@High
Идентификатор кодека : V_MPEGH/ISO/HEVC
Продолжительность : 1 ч. 47 м.
Битрейт : 7367 Кбит/сек
Ширина : 1920 пикселей
Высота : 800 пикселей
Соотношение сторон : 2,40:1
Режим частоты кадров : Постоянный
Частота кадров : 23,976 (24000/1001) кадра/сек
Цветовое пространство : YUV
Субдискретизация насыщенности : 4:2:0
Битовая глубина : 10 бит
Бит/(Пиксели*Кадры) : 0.200
Размер потока : 5,55 Гбайт (87%)
Заголовок : Мальчишник в Вегасе (2009) Encoded_by_M@kSIMus
Библиотека кодирования : x265 2.9+9-f74003e88622:[Windows][GCC 8.2.0][64 bit] 10bit
Настройки программы : cpuid=1049583 / frame-threads=5 / numa-pools=4 / wpp / no-pmode / no-pme / no-psnr / no-ssim / log-level=3 / input-csp=1 / input-res=1920x800 / interlace=0 / total-frames=0 / level-idc=41 / high-tier=1 / uhd-bd=0 / ref=5 / allow-non-conformance / no-repeat-headers / annexb / no-aud / no-hrd / info / hash=0 / no-temporal-layers / open-gop / min-keyint=24 / keyint=240 / gop-lookahead=0 / bframes=16 / b-adapt=2 / b-pyramid / bframe-bias=0 / rc-lookahead=40 / lookahead-slices=5 / scenecut=40 / radl=0 / no-intra-refresh / ctu=64 / min-cu-size=8 / rect / no-amp / max-tu-size=32 / tu-inter-depth=1 / tu-intra-depth=1 / limit-tu=0 / rdoq-level=0 / dynamic-rd=0.00 / no-ssim-rd / signhide / no-tskip / nr-intra=0 / nr-inter=0 / no-constrained-intra / strong-intra-smoothing / max-merge=2 / limit-refs=3 / no-limit-modes / me=3 / subme=7 / merange=57 / temporal-mvp / weightp / no-weightb / no-analyze-src-pics / deblock=-3:-3 / no-sao / no-sao-non-deblock / rd=4 / no-early-skip / rskip / no-fast-intra / no-tskip-fast / no-cu-lossless / no-b-intra / no-splitrd-skip / rdpenalty=0 / psy-rd=2.00 / psy-rdoq=0.00 / no-rd-refine / no-lossless / cbqpoffs=0 / crqpoffs=0 / rc=crf / crf=16.5 / qcomp=0.60 / qpstep=4 / stats-write=0 / stats-read=0 / vbv-maxrate=50000 / vbv-bufsize=50000 / vbv-init=0.9 / crf-max=0.0 / crf-min=0.0 / ipratio=1.40 / pbratio=1.30 / aq-mode=1 / aq-strength=1.00 / cutree / zone-count=0 / no-strict-cbr / qg-size=32 / no-rc-grain / qpmax=69 / qpmin=0 / no-const-vbv / sar=1 / overscan=0 / videoformat=5 / range=0 / colorprim=1 / transfer=1 / colormatrix=1 / chromaloc=0 / display-window=0 / max-cll=0,0 / min-luma=0 / max-luma=1023 / log2-max-poc-lsb=8 / vui-timing-info / vui-hrd-info / slices=1 / no-opt-qp-pps / no-opt-ref-list-length-pps / no-multi-pass-opt-rps / scenecut-bias=0.05 / no-opt-cu-delta-qp / no-aq-motion / no-hdr / no-hdr-opt / no-dhdr10-opt / no-idr-recovery-sei / analysis-reuse-level=5 / scale-factor=0 / refine-intra=0 / refine-inter=0 / refine-mv=0 / no-limit-sao / ctu-info=0 / no-lowpass-dct / refine-mv-type=0 / copy-pic=1 / max-ausize-factor=1.0 / no-dynamic-refine / no-single-sei
Язык : English
Default : Да
Forced : Нет
Цветовой диапазон : Limited
Основные цвета : BT.709
Характеристики трансфера : BT.709
Коэффициенты матрицы : BT.709

Аудио #1
Идентификатор : 2
Формат : AC-3
Формат/Информация : Audio Coding 3
Коммерческое название : Dolby Digital
Идентификатор кодека : A_AC3
Продолжительность : 1 ч. 47 м.
Вид битрейта : Постоянный
Битрейт : 640 Кбит/сек
Каналы : 6 каналов
Channel layout : L R C LFE Ls Rs
Частота : 48,0 КГц
Частота кадров : 31,250 кадров/сек (1536 SPF)
Битовая глубина : 16 бит
Метод сжатия : С потерями
Размер потока : 494 Мбайт (8%)
Заголовок : Дубляж [+ вставки Киномании]
Язык : Russian
Default : Да
Forced : Нет

Аудио #2
Идентификатор : 3
Формат : AC-3
Формат/Информация : Audio Coding 3
Коммерческое название : Dolby Digital
Идентификатор кодека : A_AC3
Продолжительность : 1 ч. 47 м.
Вид битрейта : Постоянный
Битрейт : 448 Кбит/сек
Каналы : 6 каналов
Channel layout : L R C LFE Ls Rs
Частота : 48,0 КГц
Частота кадров : 31,250 кадров/сек (1536 SPF)
Битовая глубина : 16 бит
Метод сжатия : С потерями
Размер потока : 346 Мбайт (5%)
Заголовок : Оригинал
Язык : English
Default : Нет
Forced : Нет

Текст #1
Идентификатор : 4
Формат : UTF-8
Идентификатор кодека : S_TEXT/UTF8
Идентификатор кодека/Информация : UTF-8 Plain Text
Продолжительность : 1 ч. 31 м.
Битрейт : 0 бит/сек
ElementCount : 9
Размер потока : 276 байт (0%)
Заголовок : Rus Forced
Язык : Russian
Default : Да
Forced : Да

Текст #2
Идентификатор : 5
Формат : UTF-8
Идентификатор кодека : S_TEXT/UTF8
Идентификатор кодека/Информация : UTF-8 Plain Text
Продолжительность : 1 ч. 43 м.
Битрейт : 128 бит/сек
ElementCount : 1645
Размер потока : 96,9 Кбайт (0%)
Заголовок : Rus Full
Язык : Russian
Default : Нет
Forced : Нет

Текст #3
Идентификатор : 6
Формат : UTF-8
Идентификатор кодека : S_TEXT/UTF8
Идентификатор кодека/Информация : UTF-8 Plain Text
Продолжительность : 1 ч. 43 м.
Битрейт : 85 бит/сек
ElementCount : 1653
Размер потока : 64,7 Кбайт (0%)
Заголовок : Eng Full
Язык : English
Default : Нет
Forced : Нет

Меню
00:00:00.000 : :1. Not Gonna Happen (Credits)
00:03:43.390 : :2. Mature Friends
00:11:58.801 : :3. Is He All There?
00:16:53.971 : :4. Letting the Dogs Out
00:23:06.093 : :5. Wolf Pack
00:27:25.310 : :6. Not-Good
00:33:39.643 : :7. Which Part Is Fun?
00:38:43.321 : :8. Hospital Visit
00:41:43.543 : :9. Here Bums the Groom
00:44:57.486 : :10. Start the Tractor
00:48:12.181 : :11. Loserville
00:52:55.964 : :12. Target Practice
00:57:29.363 : :13. Revelations by the Trunkload
01:03:09.160 : :14. That Was Mike Tyson
01:06:29.986 : :15. What do Tigers Dream Of?
01:11:44.133 : :16. On Camera
01:14:13.866 : :17. Lucky Charm
01:18:48.307 : :18. All in the Cards
01:22:39.955 : :19. Mixed Up the Bags
01:28:56.039 : :20. Doug's Location
01:32:05.937 : :21. Making Their Date
01:36:37.500 : :22. Marriage Vow
01:39:04.063 : :23. Not How This Works
01:43:00.007 : :24. Evidence and End Credits
Загрузка...Cкриншот1 Мальчишник в Вегасе / The Hangover (2009) [Extended Cut] BDRip 1080p [HEVC] 10 bit от M@kSIMusЗагрузка...Cкриншот2 Мальчишник в Вегасе / The Hangover (2009) [Extended Cut] BDRip 1080p [HEVC] 10 bit от M@kSIMusЗагрузка...Cкриншот3 Мальчишник в Вегасе / The Hangover (2009) [Extended Cut] BDRip 1080p [HEVC] 10 bit от M@kSIMusЗагрузка...Cкриншот4 Мальчишник в Вегасе / The Hangover (2009) [Extended Cut] BDRip 1080p [HEVC] 10 bit от M@kSIMus
Сэмпл Торрент🧲 Магнет

Рейтинги КП и IMDB, кнопки "Позвать в чате" и "Спасибо", а также мультитрекерная статистика доступны только зарегистрированным/авторизованным пользователям!

Файлы: 1
  • Мальчишник в Вегасе (2009) [Extended Cut] BDRip 1080p [HEVC] 10 bit.mkv   6.37 ГБ
Поблагодарили: 22
375509, and50, aquarius1247, brukvalub, Elico, GIS88, kapitan, Leon20052, MIGRANT, NoMaD, normalllhuman, NRK888, Nuclear70, revel65, SaN161NeK, serg1962, sergeich, u4837, vaaldik, VardO, vladd37, zzzlayasss
Admin
24019006.37 ГБ

Добавление нового комментария

Добавление комментариев доступно только зарегистрированным/авторизованным пользователям.
Аватар Admin
  Admin  (Отредактировал Admin)    
vaaldik писал(а):
Редкий в последние лет 15 приличный американский фильм, смешной и увлекательный. Как и вся трилогия, в целом.
Я бы сказал типичное американское дерьмо с туалетным юмором. Первую часть ещё кое как можно посмотреть, вторая - порнуха с трансвеститами, третью даже не стал смотреть.
Аватар не указан
  vaaldik  
Редкий в последние лет 15 приличный американский фильм, смешной и увлекательный. Как и вся трилогия, в целом.