💬 Мини-чат

Для тех, кому интересен процесс переделки сайта - https://rips.club/changelog.html (обновлен 20.04.2024)
  • justmkr
Отправка сообщений доступна только зарегистрированным/авторизованным пользователям.
Онлайн (за 10 мин.): 1

Один шанс на двоих / 1 chance sur 2 (1998) BDRip 1080p [HEVC] 10 bit от OldGamer (RG RIPS CLUB)

HEVC
10 bit
Обложка Один шанс на двоих / 1 chance sur 2 (1998) BDRip 1080p [HEVC] 10 bit от OldGamer (RG RIPS CLUB) Год: 1998
Страна: Франция
Студия: Centre National de la Cinématographie, Les Films Christian Fechner, TF1 Films Production, Union Générale Cinématographique (UGC)
Жанр: Боевик, Драма, Комедия, Приключения
Продолжительность: 01:49:03

Режиссер: Патрис Леконт
В ролях: Жан-Поль Бельмондо, Ален Делон, Ванесса Паради, Эрик Дефосс, Александр Яковлев, Валерий Гатаев, Мишель Омон, Жак Роман, Филипп Маньян, Оливье Паренти

Описание: Тебе — 20 лет, ты красива, с лёгкостью угоняешь машины и только что вышла из тюрьмы. Они — два претендента в твои папаши, легко собирающие «Магнум» с завязанными глазами и имеющие немалый опыт обращения со взрывчаткой. Когда вы вместе — вам не страшны ни французская полиция, ни русская мафия…


Исходник: Blu-Ray Remux 1080p (rutracker)
Видео: 1916x814 (2.35:1), 11,7 Мбит/сек, HEVC (Main10@L.4.1@High)
Аудио1: AC3, 6 ch, 384 Kbps - РусскийРусский, MVO (Пирамида)
Аудио2: AC3, 2 ch, 192 Kbps - РусскийРусский, MVO (НТВ+)
Аудио3: AC3, 6 ch, 448 Kbps - РусскийРусский, AVO (Андрей Гаврилов)
Аудио4: AC3, 2 ch, 192 Kbps - РусскийРусский, VO (Сергей Кузьмичёв)
Аудио5: AC3, 6 ch, 640 Kbps - FrenchFrench, Original
Субтитры: Русские полные (SRT)

Как за пару секунд удалить ненужные аудиодорожки и субтитры (Внимание! После удаления вы не сможете поддержать раздачу)

Лог (x265 info)
x265 [info]: frame I: 666, Avg QP:16.54 kb/s: 25343.44
x265 [info]: frame P: 28587, Avg QP:17.59 kb/s: 19481.55
x265 [info]: frame B: 127792, Avg QP:19.88 kb/s: 9843.02
x265 [info]: Weighted P-Frames: Y:10.3% UV:8.2%
x265 [info]: Weighted B-Frames: Y:8.6% UV:6.0%
x265 [info]: consecutive B-frames: 2.0% 3.6% 5.8% 19.9% 13.8% 36.7% 9.3% 6.0% 1.5% 0.6% 0.4% 0.2% 0.1% 0.1% 0.0%
x265 [info]: encoded 157045 frames in 141908.02s (1.11 fps), 11663.27 kb/s, Avg QP:19.45
Медиаинфо
Общее
Уникальный идентификатор : 17654608229226793644233211372745696035 (0xD482763AA1B8ADA48083E996546A323)
Полное имя : \\.\Один.шанс.на.двоих.1.chance.sur.2.1998.BDRip-HEVC.1080p.mkv
Формат : Matroska
Версия формата : Version 4
Размер файла : 10,3 Гбайт
Продолжительность : 1 ч. 49 м.
Общий поток : 13,5 Мбит/сек
Название фильма : Один.шанс.на.двоих.1.chance.sur.2.1998.BDRip-HEVC.1080p
Дата кодирования : UTC 2022-03-24 13:12:09
Программа кодирования : mkvmerge v66.0.0 ('Josie') 64-bit
Библиотека кодирования : libebml v1.4.2 + libmatroska v1.6.4

Видео
Идентификатор : 1
Формат : HEVC
Формат/Информация : High Efficiency Video Coding
Профиль формата : Main 10@L4.1@High
Идентификатор кодека : V_MPEGH/ISO/HEVC
Продолжительность : 1 ч. 49 м.
Битрейт : 11,7 Мбит/сек
Ширина : 1 916 пикселей
Высота : 814 пикселей
Соотношение сторон : 2,35:1
Режим частоты кадров : Постоянный
Частота кадров : 24,000 кадра/сек
Цветовое пространство : YUV
Субдискретизация насыщенности : 4:2:0
Битовая глубина : 10 бит
Бит/(Пиксели*Кадры) : 0.312
Размер потока : 8,89 Гбайт (86%)
Заголовок : 1 chance sur 2 / Rip by OldGamer
Библиотека кодирования : x265 3.5+35-e3713124d:[Windows][GCC 11.2.0][64 bit] 10bit
Настройки программы : cpuid=1111039 / frame-threads=3 / numa-pools=8 / wpp / no-pmode / no-pme / no-psnr / no-ssim / log-level=2 / input-csp=1 / input-res=1916x814 / interlace=0 / total-frames=157045 / level-idc=41 / high-tier=1 / uhd-bd=0 / ref=5 / no-allow-non-conformance / no-repeat-headers / annexb / no-aud / no-eob / no-eos / no-hrd / info / hash=0 / no-temporal-layers / open-gop / min-keyint=23 / keyint=240 / gop-lookahead=0 / bframes=14 / b-adapt=2 / b-pyramid / bframe-bias=0 / rc-lookahead=40 / lookahead-slices=0 / scenecut=40 / no-hist-scenecut / radl=0 / no-splice / no-intra-refresh / ctu=32 / min-cu-size=8 / rect / amp / max-tu-size=32 / tu-inter-depth=4 / tu-intra-depth=4 / limit-tu=1 / rdoq-level=2 / dynamic-rd=0.00 / no-ssim-rd / signhide / no-tskip / nr-intra=0 / nr-inter=0 / no-constrained-intra / no-strong-intra-smoothing / max-merge=5 / limit-refs=3 / no-limit-modes / me=3 / subme=7 / merange=57 / temporal-mvp / no-frame-dup / no-hme / weightp / weightb / no-analyze-src-pics / deblock=-2:-2 / no-sao / no-sao-non-deblock / rd=6 / selective-sao=0 / no-early-skip / no-rskip / no-fast-intra / no-tskip-fast / no-cu-lossless / b-intra / no-splitrd-skip / rdpenalty=0 / psy-rd=2.00 / psy-rdoq=1.00 / no-rd-refine / no-lossless / cbqpoffs=0 / crqpoffs=0 / rc=crf / crf=18.5 / qcomp=0.60 / qpstep=4 / stats-write=0 / stats-read=0 / vbv-maxrate=50000 / vbv-bufsize=50000 / vbv-init=0.9 / min-vbv-fullness=50.0 / max-vbv-fullness=80.0 / crf-max=0.0 / crf-min=0.0 / ipratio=1.40 / pbratio=1.30 / aq-mode=1 / aq-strength=1.00 / no-cutree / zone-count=1 / zones: / start-frame=151671 / end-frame=157045 / qp=36 / no-strict-cbr / qg-size=32 / no-rc-grain / qpmax=69 / qpmin=0 / no-const-vbv / sar=1 / overscan=0 / videoformat=5 / range=0 / colorprim=2 / transfer=2 / colormatrix=2 / chromaloc=0 / display-window=0 / cll=0,0 / min-luma=0 / max-luma=1023 / log2-max-poc-lsb=8 / vui-timing-info / vui-hrd-info / slices=1 / no-opt-qp-pps / no-opt-ref-list-length-pps / no-multi-pass-opt-rps / scenecut-bias=0.00 / hist-threshold=0.03 / no-opt-cu-delta-qp / no-aq-motion / no-hdr10 / no-hdr10-opt / no-dhdr10-opt / no-idr-recovery-sei / analysis-reuse-level=0 / analysis-save-reuse-level=0 / analysis-load-reuse-level=0 / scale-factor=0 / refine-intra=0 / refine-inter=0 / refine-mv=1 / refine-ctu-distortion=0 / no-limit-sao / ctu-info=0 / no-lowpass-dct / refine-analysis-type=0 / copy-pic=1 / max-ausize-factor=1.0 / no-dynamic-refine / no-single-sei / no-hevc-aq / no-svt / no-field / qp-adaptation-range=1.00 / scenecut-aware-qp=0conformance-window-offsets / right=0 / bottom=0 / decoder-max-rate=0 / no-vbv-live-multi-pass
Язык : French
Default : Да
Forced : Нет

Аудио #1
Идентификатор : 2
ID in the original source medium : 4352 (0x1100)
Формат : AC-3
Формат/Информация : Audio Coding 3
Коммерческое название : Dolby Digital
Идентификатор кодека : A_AC3
Продолжительность : 1 ч. 49 м.
Вид битрейта : Постоянный
Битрейт : 384 Кбит/сек
Каналы : 6 каналов
Channel layout : L R C LFE Ls Rs
Частота : 48,0 КГц
Частота кадров : 31,250 кадров/сек (1536 SPF)
Метод сжатия : С потерями
Размер потока : 300 Мбайт (3%)
Заголовок : MVO (Пирамида)
Язык : Russian
Service kind : Complete Main
Default : Да
Forced : Нет
Носитель оригинала : Blu-ray

Аудио #2
Идентификатор : 3
ID in the original source medium : 4353 (0x1101)
Формат : AC-3
Формат/Информация : Audio Coding 3
Коммерческое название : Dolby Digital
Идентификатор кодека : A_AC3
Продолжительность : 1 ч. 49 м.
Вид битрейта : Постоянный
Битрейт : 192 Кбит/сек
Каналы : 2 канала
Channel layout : L R
Частота : 48,0 КГц
Частота кадров : 31,250 кадров/сек (1536 SPF)
Метод сжатия : С потерями
Размер потока : 150 Мбайт (1%)
Заголовок : MVO (НТВ+)
Язык : Russian
Service kind : Complete Main
Default : Нет
Forced : Нет
Носитель оригинала : Blu-ray

Аудио #3
Идентификатор : 4
Формат : AC-3
Формат/Информация : Audio Coding 3
Коммерческое название : Dolby Digital
Идентификатор кодека : A_AC3
Продолжительность : 1 ч. 49 м.
Вид битрейта : Постоянный
Битрейт : 448 Кбит/сек
Каналы : 6 каналов
Channel layout : L R C LFE Ls Rs
Частота : 48,0 КГц
Частота кадров : 31,250 кадров/сек (1536 SPF)
Метод сжатия : С потерями
Размер потока : 349 Мбайт (3%)
Заголовок : AVO (Андрей Гаврилов)
Язык : Russian
Service kind : Complete Main
Default : Нет
Forced : Нет

Аудио #4
Идентификатор : 5
ID in the original source medium : 4354 (0x1102)
Формат : AC-3
Формат/Информация : Audio Coding 3
Коммерческое название : Dolby Digital
Идентификатор кодека : A_AC3
Продолжительность : 1 ч. 49 м.
Вид битрейта : Постоянный
Битрейт : 192 Кбит/сек
Каналы : 2 канала
Channel layout : L R
Частота : 48,0 КГц
Частота кадров : 31,250 кадров/сек (1536 SPF)
Метод сжатия : С потерями
Размер потока : 150 Мбайт (1%)
Заголовок : VO (Сергей Кузьмичёв)
Язык : Russian
Service kind : Complete Main
Default : Нет
Forced : Нет
Носитель оригинала : Blu-ray

Аудио #5
Идентификатор : 6
Формат : AC-3
Формат/Информация : Audio Coding 3
Коммерческое название : Dolby Digital
Идентификатор кодека : A_AC3
Продолжительность : 1 ч. 49 м.
Вид битрейта : Постоянный
Битрейт : 640 Кбит/сек
Каналы : 6 каналов
Channel layout : L R C LFE Ls Rs
Частота : 48,0 КГц
Частота кадров : 31,250 кадров/сек (1536 SPF)
Метод сжатия : С потерями
Размер потока : 499 Мбайт (5%)
Язык : French
Service kind : Complete Main
Default : Нет
Forced : Нет

Текст
Идентификатор : 7
Формат : UTF-8
Идентификатор кодека : S_TEXT/UTF8
Идентификатор кодека/Информация : UTF-8 Plain Text
Продолжительность : 1 ч. 43 м.
Битрейт : 75 бит/сек
Count of elements : 866
Размер потока : 57,3 Кбайт (0%)
Язык : Russian
Default : Нет
Forced : Нет

Меню
00:00:00.000 : en:Chapter 01
00:09:12.250 : en:Chapter 02
00:19:03.583 : en:Chapter 03
00:26:45.000 : en:Chapter 04
00:38:31.625 : en:Chapter 05
00:49:59.041 : en:Chapter 06
00:59:11.791 : en:Chapter 07
01:06:29.916 : en:Chapter 08
01:14:33.958 : en:Chapter 09
01:22:52.166 : en:Chapter 10
01:30:25.083 : en:Chapter 11
01:41:17.041 : en:Chapter 12
01:45:19.625 : en:Chapter 13
Загрузка...Cкриншот1 Один шанс на двоих / 1 chance sur 2 (1998) BDRip 1080p [HEVC] 10 bit от OldGamer (RG RIPS CLUB)Загрузка...Cкриншот2 Один шанс на двоих / 1 chance sur 2 (1998) BDRip 1080p [HEVC] 10 bit от OldGamer (RG RIPS CLUB)Загрузка...Cкриншот3 Один шанс на двоих / 1 chance sur 2 (1998) BDRip 1080p [HEVC] 10 bit от OldGamer (RG RIPS CLUB)Загрузка...Cкриншот4 Один шанс на двоих / 1 chance sur 2 (1998) BDRip 1080p [HEVC] 10 bit от OldGamer (RG RIPS CLUB)
Релиз-группа: RIPS CLUB
Сэмпл Торрент🧲 Магнет

Раздача обновлена!
Перекодировано с устранением некоторых выявленных дефектов и небольшого перекропа.

Рейтинги КП и IMDB, кнопки "Позвать в чате" и "Спасибо", а также мультитрекерная статистика доступны только зарегистрированным/авторизованным пользователям!

Файлы: 1
  • Один.шанс.на.двоих.1.chance.sur.2.1998.BDRip-HEVC.1080p.mkv   10.3 ГБ
Поблагодарили: 11
77carlsson77, and50, Chestnoc, Elico1977, FFantasy, ilyich05, IRIT, makss333, Nuclear70, sharkey71, Тренер по Йоге
OldGamer
01830010.3 ГБ

Добавление нового комментария

Добавление комментариев доступно только зарегистрированным/авторизованным пользователям.