💬 Мини-чат

OldGamerнет
Giggaloнет ли у кого в планах "Давайте потанцуем" 2004
GiggaloСообщение удалено (удалил: Giggalo)
StarLordOldGamer, как дела?)
StarLordOldGamer, ура, вернулся 😄
OldGamerRezident, можете скачать этот фильм от другого релизёра, там невелика разница, а раздающие точно есть
OldGamerGiggalo, https://tsya.ru/mnemonic.html
NoMaDСообщение удалено (удалил: NoMaD)
NoMaDСообщение удалено (удалил: NoMaD)
GiggaloСообщение удалено (удалил: Giggalo)
GiggaloСообщение удалено (удалил: Giggalo)
Spartanec1308Был днём
StarLordGiggalo, наверное отрубало беднягу, целый день его нету 😅
GiggaloСообщение удалено (удалил: Giggalo)
OldGamerДоброе. Работы много, некогда на перинах валяться.
GiggaloСообщение удалено (удалил: Giggalo)
GiggaloСообщение удалено (удалил: Giggalo)
  • OldGamer
  • anderb
  • Andrey_alex
  • gridzhio
  • hunter
  • sabretooth
Отправка сообщений доступна только зарегистрированным/авторизованным пользователям.
Онлайн (за 10 мин.): 6

Затура: Космическое приключение / Zathura: A Space Adventure (2005) BDRip 1080p [HEVC] 10 bit от M@kSIMus

HEVC
10 bit
Обложка Затура: Космическое приключение / Zathura: A Space Adventure (2005) BDRip 1080p [HEVC] 10 bit от M@kSIMus Год: 2005
Страна: США
Студия: Columbia Pictures Corporation, Radar Films, Teitler Film
Жанр: Фантастика, Фэнтези, Боевик, Комедия
Продолжительность: 01:41:20

Режиссер: Джон Фавро
В ролях: Джона Бобо, Джош Хатчерсон, Дэкс Шепард, Кристен Стюарт, Тим Роббинс, Фрэнк Оз, Джон Александр, Дерек Мирс, Дуглас Тейт, Джо Букаро III

Описание: Братья Уолтер и Дэнни находят в подвале своего старого дома загадочную игру под названием «Затура» и в результате оказываются в космосе. Во время их фантастического путешествия они встречаются с астронавтом, попадают под метеоритный дождь, противостоят враждебным инопланетянам, похожим на ящериц, сталкиваются с неуправляемым роботом и межгалактическим космическим кораблем. Но самая большая опасность ожидает их впереди. Если они не успеют вовремя закончить игру и добраться до планеты Затура, то навеки останутся в открытом космосе…


Видео: 1920x1038, 11.4 Mbps
Аудио1: AC3, 6 ch, 448 Kbps - РусскийРусский, Дублированный (Лицензия)
Аудио2: AC3, 6 ch, 448 Kbps - АнглийскийАнглийский, Оригинал
Субтитры: Русские, английские

Как за пару секунд удалить ненужные аудиодорожки и субтитры (Внимание! После удаления вы не сможете поддержать раздачу)

Медиаинфо
Общее
Уникальный идентификатор : 173571057577090264469931985220807607448 (0x829491D99B5E5C4C5EA799E5D75AC498)
Полное имя : Затура - Космическое приключение (2005) BDRip 1080p [HEVC] 10 bit.mkv
Формат : Matroska
Версия формата : Version 4
Размер файла : 8,71 Гбайт
Продолжительность : 1 ч. 41 м.
Общий поток : 12,3 Мбит/сек
Название фильма : Затура: Космическое приключение (2005) Encoded_by_M@kSIMus
Дата кодирования : UTC 2019-03-13 13:23:48
Программа кодирования : mkvmerge v28.0.0 ('Voice In My Head') 64-bit
Библиотека кодирования : libebml v1.3.6 + libmatroska v1.4.9
Обложка : Yes
Attachments : cover.jpg

Видео
Идентификатор : 1
Формат : HEVC
Формат/Информация : High Efficiency Video Coding
Профиль формата : Main 10@L4.1@High
Идентификатор кодека : V_MPEGH/ISO/HEVC
Продолжительность : 1 ч. 41 м.
Битрейт : 11,4 Мбит/сек
Ширина : 1920 пикселей
Высота : 1038 пикселей
Соотношение сторон : 1,85:1
Режим частоты кадров : Постоянный
Частота кадров : 23,976 (24000/1001) кадра/сек
Цветовое пространство : YUV
Субдискретизация насыщенности : 4:2:0
Битовая глубина : 10 бит
Бит/(Пиксели*Кадры) : 0.239
Размер потока : 8,07 Гбайт (93%)
Заголовок : Затура: Космическое приключение (2005) Encoded_by_M@kSIMus
Библиотека кодирования : x265 2.9+9-f74003e88622:[Windows][GCC 8.2.0][64 bit] 10bit
Настройки программы : cpuid=1049583 / frame-threads=5 / numa-pools=4 / wpp / no-pmode / no-pme / no-psnr / no-ssim / log-level=3 / input-csp=1 / input-res=1920x1038 / interlace=0 / total-frames=0 / level-idc=41 / high-tier=1 / uhd-bd=0 / ref=4 / allow-non-conformance / no-repeat-headers / annexb / no-aud / no-hrd / info / hash=0 / no-temporal-layers / open-gop / min-keyint=24 / keyint=240 / gop-lookahead=0 / bframes=14 / b-adapt=2 / b-pyramid / bframe-bias=0 / rc-lookahead=40 / lookahead-slices=6 / scenecut=40 / radl=0 / no-intra-refresh / ctu=32 / min-cu-size=8 / rect / no-amp / max-tu-size=32 / tu-inter-depth=1 / tu-intra-depth=1 / limit-tu=0 / rdoq-level=0 / dynamic-rd=0.00 / no-ssim-rd / signhide / no-tskip / nr-intra=0 / nr-inter=0 / no-constrained-intra / no-strong-intra-smoothing / max-merge=5 / limit-refs=3 / no-limit-modes / me=3 / subme=7 / merange=57 / temporal-mvp / weightp / weightb / no-analyze-src-pics / deblock=-3:-3 / no-sao / no-sao-non-deblock / rd=4 / no-early-skip / no-rskip / no-fast-intra / no-tskip-fast / no-cu-lossless / no-b-intra / no-splitrd-skip / rdpenalty=0 / psy-rd=2.00 / psy-rdoq=0.00 / no-rd-refine / no-lossless / cbqpoffs=0 / crqpoffs=0 / rc=crf / crf=20.0 / qcomp=0.60 / qpstep=4 / stats-write=0 / stats-read=0 / vbv-maxrate=50000 / vbv-bufsize=50000 / vbv-init=0.9 / crf-max=0.0 / crf-min=0.0 / ipratio=1.40 / pbratio=1.30 / aq-mode=3 / aq-strength=1.00 / no-cutree / zone-count=0 / no-strict-cbr / qg-size=32 / no-rc-grain / qpmax=69 / qpmin=0 / no-const-vbv / sar=1 / overscan=0 / videoformat=5 / range=0 / colorprim=1 / transfer=1 / colormatrix=1 / chromaloc=0 / display-window=0 / max-cll=0,0 / min-luma=0 / max-luma=1023 / log2-max-poc-lsb=8 / vui-timing-info / vui-hrd-info / slices=1 / no-opt-qp-pps / no-opt-ref-list-length-pps / no-multi-pass-opt-rps / scenecut-bias=0.05 / no-opt-cu-delta-qp / no-aq-motion / no-hdr / no-hdr-opt / no-dhdr10-opt / no-idr-recovery-sei / analysis-reuse-level=5 / scale-factor=0 / refine-intra=0 / refine-inter=0 / refine-mv=0 / no-limit-sao / ctu-info=0 / no-lowpass-dct / refine-mv-type=0 / copy-pic=1 / max-ausize-factor=1.0 / no-dynamic-refine / no-single-sei
Язык : English
Default : Да
Forced : Нет
Цветовой диапазон : Limited
Основные цвета : BT.709
Характеристики трансфера : BT.709
Коэффициенты матрицы : BT.709

Аудио #1
Идентификатор : 2
Формат : AC-3
Формат/Информация : Audio Coding 3
Коммерческое название : Dolby Digital
Идентификатор кодека : A_AC3
Продолжительность : 1 ч. 41 м.
Вид битрейта : Постоянный
Битрейт : 448 Кбит/сек
Каналы : 6 каналов
Channel layout : L R C LFE Ls Rs
Частота : 48,0 КГц
Частота кадров : 31,250 кадров/сек (1536 SPF)
Битовая глубина : 16 бит
Метод сжатия : С потерями
Размер потока : 325 Мбайт (4%)
Заголовок : Дубляж
Язык : Russian
Default : Да
Forced : Нет

Аудио #2
Идентификатор : 3
Формат : AC-3
Формат/Информация : Audio Coding 3
Коммерческое название : Dolby Digital
Идентификатор кодека : A_AC3
Продолжительность : 1 ч. 41 м.
Вид битрейта : Постоянный
Битрейт : 448 Кбит/сек
Каналы : 6 каналов
Channel layout : L R C LFE Ls Rs
Частота : 48,0 КГц
Частота кадров : 31,250 кадров/сек (1536 SPF)
Битовая глубина : 16 бит
Метод сжатия : С потерями
Размер потока : 325 Мбайт (4%)
Заголовок : Оригинал
Язык : English
Default : Нет
Forced : Нет

Текст #1
Идентификатор : 4
Формат : UTF-8
Идентификатор кодека : S_TEXT/UTF8
Идентификатор кодека/Информация : UTF-8 Plain Text
Продолжительность : 1 ч. 33 м.
Битрейт : 60 бит/сек
ElementCount : 953
Размер потока : 41,4 Кбайт (0%)
Заголовок : Rus Full
Язык : Russian
Default : Нет
Forced : Нет

Текст #2
Идентификатор : 5
Формат : UTF-8
Идентификатор кодека : S_TEXT/UTF8
Идентификатор кодека/Информация : UTF-8 Plain Text
Продолжительность : 1 ч. 33 м.
Битрейт : 41 бит/сек
ElementCount : 956
Размер потока : 28,8 Кбайт (0%)
Заголовок : Eng Full
Язык : English
Default : Нет
Forced : Нет

Меню
00:00:00.000 : en:00:00:00.000
00:06:10.328 : en:00:06:10.328
00:13:49.370 : en:00:13:49.370
00:17:14.575 : en:00:17:14.575
00:23:54.183 : en:00:23:54.183
00:27:48.458 : en:00:27:48.458
00:36:40.073 : en:00:36:40.073
00:39:49.345 : en:00:39:49.345
00:44:39.594 : en:00:44:39.594
00:55:28.408 : en:00:55:28.408
01:01:04.369 : en:01:01:04.369
01:05:50.196 : en:01:05:50.196
01:18:18.819 : en:01:18:18.819
01:22:22.187 : en:01:22:22.187
01:26:20.175 : en:01:26:20.175
01:32:29.294 : en:01:32:29.294
Загрузка...Cкриншот1 Затура: Космическое приключение / Zathura: A Space Adventure (2005) BDRip 1080p [HEVC] 10 bit от M@kSIMusЗагрузка...Cкриншот2 Затура: Космическое приключение / Zathura: A Space Adventure (2005) BDRip 1080p [HEVC] 10 bit от M@kSIMusЗагрузка...Cкриншот3 Затура: Космическое приключение / Zathura: A Space Adventure (2005) BDRip 1080p [HEVC] 10 bit от M@kSIMusЗагрузка...Cкриншот4 Затура: Космическое приключение / Zathura: A Space Adventure (2005) BDRip 1080p [HEVC] 10 bit от M@kSIMus
Сэмпл Торрент🧲 Магнет

Рейтинги КП и IMDB, кнопки "Позвать в чате" и "Спасибо", а также мультитрекерная статистика доступны только зарегистрированным/авторизованным пользователям!

Файлы: 1
  • Затура - Космическое приключение (2005) BDRip 1080p [HEVC] 10 bit.mkv   8.71 ГБ
Поблагодарили: 11
375509, alex72, Algabas, angel, davidoff_k4, gurvinok, LastSurviv0r, MIGRANT, NoMaD, Papawalun, tiwruski
Admin
12537018.71 ГБ

Добавление нового комментария

Добавление комментариев доступно только зарегистрированным/авторизованным пользователям.
Аватар не указан
  sevolgin  
что то мне кажется, что это Джуманджи...