💬 Мини-чат

OldGamerвыводить
mafo2Admin, можно вывести, наглядно будет
StarLordAdmin, +
AdminНадпись HDR выводить на обложку?
OldGamerGiggalo, но лучше всего вообще не затрагивайте этот ключ, по умолчанию будет установлено оптимальное значение
OldGamerGiggalo, но если уж очень хочется то пишите --frame-threads 3
OldGamerGiggalo, а зачем его менять?) нужное значение устанавливается автоматически
GiggaloДобрый вечер всем! OldGamer Покажи пожалуйста почему когда пишу в командной строке frame-threads=3 он не меняется. Какой там стоит 13 он его и держит, а ругие установки спокойно меняет?
AdminStarLord, спасибо. Пока сойдет.
StarLordAdmin, ага, вижу
StarLordAdmin, а как должно брать?
AdminStarLord, ты шаришь?
AdminStarLord, у меня сейчас такая, но с точками беда. Доработать бы (https?://([-\w\.]+)+(:\d+)?(/([-\w/_:%]*(\.\w+)*(\?\S+)?)?)?)
AdminStarLord, скрины в bb некорректно берет
StarLordwww, ftp(s), http(s), #, :, &
StarLordAdmin, все мои кейсы покрыла
StarLordAdmin, вот эта хорошая -(?:(?:https?|ftps?):\/\/|\b(?:[a-z\d]+\.))(?:(?:[^\s()<>]+|\((?:[^\s()<>]+|(?:\([^\s()<>]+\)))?\))+(?:\((?:[^\s()<>]+|(?:\(?:[^\s()<>]+\)))?\)|[^\s`!()\[\]{};:'".,<>?«»“”‘’]))?
AdminStarLord, мне бы с обязательным указанием протокола
AdminСообщение удалено (удалил: Admin)
AdminСообщение удалено (удалил: Admin)
  • OldGamer
  • InSpector
  • pmihail99
  • Priest2017
Отправка сообщений доступна только зарегистрированным/авторизованным пользователям.
Онлайн (за 10 мин.): 4

Миссия на Марс / Mission to Mars (2000) BDRip 1080p [HEVC] 10 bit от M@kSIMus

HEVC
10 bit
Обложка Миссия на Марс / Mission to Mars (2000) BDRip 1080p [HEVC] 10 bit от M@kSIMus Год: 2000
Страна: США
Студия: Red Horizon Productions, Spyglass Entertainment, The Jacobson Company, Touchstone Pictures
Жанр: Фантастика, Триллер, Приключения
Продолжительность: 01:53:39

Режиссер: Брайан Де Пальма
В ролях: Гэри Синиз, Тим Роббинс, Дон Чидл, Конни Нильсен, Джерри О’Коннелл, Питер Аутербридж, Каван Смит, Джилл Тид, Элиз Нил, Ким Делани

Описание: Когда первая пилотируемая экспедиция на Марс терпит загадочную катастрофу, спасательная экспедиция отправляется на расследование трагедии и спасение оставшихся в живых. Но прибыв на место они обнаруживают нечто удивительно необычное, перед ними раскрывается огромный секрет человечества.


Видео: 1916x816, ~8830 Kbps
Аудио1: AC3, 6 ch, 384 Kbps - РусскийРусский, Профессиональный двухголосый (R5)
Аудио2: AC3, 6 ch, 448 Kbps - АнглийскийАнглийский, Оригинал
Субтитры: Русские (полные), английские (полные)

Как за пару секунд удалить ненужные аудиодорожки и субтитры (Внимание! После удаления вы не сможете поддержать раздачу)

Медиаинфо
x265 info: frame I: 1207, Avg QP:16.62 kb/s: 25300.55
x265 info: frame P: 27284, Avg QP:17.43 kb/s: 14487.40
x265 info: frame B: 135165, Avg QP:19.83 kb/s: 7539.79
x265 info: Weighted P-Frames: Y:10.1% UV:7.2%
x265 info: consecutive B-frames: 5.7% 3.4% 7.0% 13.3% 11.6% 34.2% 7.3% 3.4% 7.1% 0.8% 2.1% 3.5% 0.8%
x265 info: encoded 163656 frames in 108128.68s (1.51 fps), 8829.05 kb/s, Avg QP:19.41

Формат : Matroska
Версия формата : Version 4
Размер файла : 7,67 Гбайт
Продолжительность : 1 ч. 53 м.
Общий поток : 9664 Кбит/сек
Название фильма : Mission to Mars (2000) Encoded_by_M@kSIMus
Дата кодирования : UTC 2019-10-24 06:23:16
Программа кодирования : mkvmerge v38.0.0 ('The Silent Type') 64-bit
Библиотека кодирования : libebml v1.3.9 + libmatroska v1.5.2
Обложка : Yes
Attachments : cover.jpg

Видео
Идентификатор : 1
Формат : HEVC
Формат/Информация : High Efficiency Video Coding
Профиль формата : Main 10@L4.1@High
Идентификатор кодека : V_MPEGH/ISO/HEVC
Продолжительность : 1 ч. 53 м.
Битрейт : 8830 Кбит/сек
Ширина : 1916 пикселей
Высота : 816 пикселей
Соотношение сторон : 2,35:1
Режим частоты кадров : Постоянный
Частота кадров : 24,000 кадра/сек
Цветовое пространство : YUV
Субдискретизация насыщенности : 4:2:0
Битовая глубина : 10 бит
Бит/(Пиксели*Кадры) : 0.235
Размер потока : 7,01 Гбайт (91%)
Библиотека кодирования : x265 3.1+11-de920e0a3183:[Windows][clang 8.0.1][64 bit] 10bit
Настройки программы : cpuid=1049583 / frame-threads=5 / numa-pools=4 / wpp / no-pmode / no-pme / no-psnr / no-ssim / log-level=3 / input-csp=1 / input-res=1916x816 / interlace=0 / total-frames=0 / level-idc=41 / high-tier=1 / uhd-bd=0 / ref=5 / allow-non-conformance / no-repeat-headers / annexb / no-aud / no-hrd / info / hash=0 / no-temporal-layers / open-gop / min-keyint=24 / keyint=240 / gop-lookahead=0 / bframes=12 / b-adapt=2 / b-pyramid / bframe-bias=0 / rc-lookahead=40 / lookahead-slices=5 / scenecut=40 / radl=0 / no-splice / no-intra-refresh / ctu=32 / min-cu-size=8 / no-rect / no-amp / max-tu-size=32 / tu-inter-depth=4 / tu-intra-depth=4 / limit-tu=1 / rdoq-level=1 / dynamic-rd=0.00 / no-ssim-rd / signhide / no-tskip / nr-intra=0 / nr-inter=0 / no-constrained-intra / no-strong-intra-smoothing / max-merge=5 / limit-refs=1 / no-limit-modes / me=3 / subme=7 / merange=57 / temporal-mvp / no-hme / weightp / no-weightb / no-analyze-src-pics / deblock=-3:-3 / no-sao / no-sao-non-deblock / rd=3 / early-skip / no-rskip / no-fast-intra / no-tskip-fast / no-cu-lossless / b-intra / no-splitrd-skip / rdpenalty=0 / psy-rd=2.00 / psy-rdoq=1.00 / no-rd-refine / no-lossless / cbqpoffs=0 / crqpoffs=0 / rc=crf / crf=20.0 / qcomp=0.60 / qpstep=4 / stats-write=0 / stats-read=0 / vbv-maxrate=50000 / vbv-bufsize=50000 / vbv-init=0.9 / crf-max=0.0 / crf-min=0.0 / ipratio=1.40 / pbratio=1.30 / aq-mode=3 / aq-strength=1.00 / no-cutree / zone-count=0 / no-strict-cbr / qg-size=32 / no-rc-grain / qpmax=69 / qpmin=0 / no-const-vbv / sar=1 / overscan=0 / videoformat=5 / range=0 / colorprim=1 / transfer=1 / colormatrix=1 / chromaloc=0 / display-window=0cll=0,0 / min-luma=0 / max-luma=1023 / log2-max-poc-lsb=8 / vui-timing-info / vui-hrd-info / slices=1 / no-opt-qp-pps / no-opt-ref-list-length-pps / no-multi-pass-opt-rps / scenecut-bias=0.05 / no-opt-cu-delta-qp / no-aq-motion / no-hdr / no-hdr-opt / no-dhdr10-opt / no-idr-recovery-sei / analysis-reuse-level=5 / scale-factor=0 / refine-intra=0 / refine-inter=0 / refine-mv=0 / refine-ctu-distortion=0 / no-limit-sao / ctu-info=0 / no-lowpass-dct / refine-analysis-type=0 / copy-pic=1 / max-ausize-factor=1.0 / no-dynamic-refine / no-single-sei / no-hevc-aq / no-svt / no-field / qp-adaptation-range=1.00
Язык : English
Default : Да
Forced : Нет
Цветовой диапазон : Limited
Основные цвета : BT.709
Характеристики трансфера : BT.709
Коэффициенты матрицы : BT.709

Аудио #1
Идентификатор : 2
Формат : AC-3
Формат/Информация : Audio Coding 3
Коммерческое название : Dolby Digital
Идентификатор кодека : A_AC3
Продолжительность : 1 ч. 53 м.
Вид битрейта : Постоянный
Битрейт : 384 Кбит/сек
Каналы : 6 каналов
ChannelLayout : L R C LFE Ls Rs
Частота : 48,0 КГц
Частота кадров : 31,250 кадров/сек (1536 SPF)
Метод сжатия : С потерями
Размер потока : 312 Мбайт (4%)
Заголовок : Профессиональный двухголосый (R5)
Язык : Russian
ServiceKind/String : Complete Main
Default : Да
Forced : Нет

Аудио #2
Идентификатор : 3
Формат : AC-3
Формат/Информация : Audio Coding 3
Коммерческое название : Dolby Digital
Идентификатор кодека : A_AC3
Продолжительность : 1 ч. 53 м.
Вид битрейта : Постоянный
Битрейт : 448 Кбит/сек
Каналы : 6 каналов
ChannelLayout : L R C LFE Ls Rs
Частота : 48,0 КГц
Частота кадров : 31,250 кадров/сек (1536 SPF)
Метод сжатия : С потерями
Размер потока : 364 Мбайт (5%)
Заголовок : Оригинал
Язык : English
ServiceKind/String : Complete Main
Default : Нет
Forced : Нет

Текст #1
Идентификатор : 4
Формат : UTF-8
Идентификатор кодека : S_TEXT/UTF8
Идентификатор кодека/Информация : UTF-8 Plain Text
Продолжительность : 1 ч. 45 м.
Битрейт : 68 бит/сек
ElementCount : 1043
Размер потока : 52,9 Кбайт (0%)
Заголовок : Rus Full (R5)
Язык : Russian
Default : Нет
Forced : Нет

Текст #2
Идентификатор : 5
Формат : UTF-8
Идентификатор кодека : S_TEXT/UTF8
Идентификатор кодека/Информация : UTF-8 Plain Text
Продолжительность : 1 ч. 45 м.
Битрейт : 54 бит/сек
ElementCount : 1052
Размер потока : 42,1 Кбайт (0%)
Заголовок : Eng Full
Язык : English
Default : Нет
Forced : Нет
Меню
00:00:00.000 : :00:00:00.000
00:11:24.125 : :00:11:24.125
00:13:43.375 : :00:13:43.375
00:14:44.000 : :00:14:44.000
00:20:48.000 : :00:20:48.000
00:27:51.208 : :00:27:51.208
00:33:02.875 : :00:33:02.875
00:35:29.958 : :00:35:29.958
00:39:13.708 : :00:39:13.708
00:48:25.542 : :00:48:25.542
00:51:10.417 : :00:51:10.417
01:01:48.708 : :01:01:48.708
01:12:51.542 : :01:12:51.542
01:19:08.167 : :01:19:08.167
01:22:36.708 : :01:22:36.708
01:29:41.167 : :01:29:41.167
Загрузка...Cкриншот1 Миссия на Марс / Mission to Mars (2000) BDRip 1080p [HEVC] 10 bit от M@kSIMusЗагрузка...Cкриншот2 Миссия на Марс / Mission to Mars (2000) BDRip 1080p [HEVC] 10 bit от M@kSIMusЗагрузка...Cкриншот3 Миссия на Марс / Mission to Mars (2000) BDRip 1080p [HEVC] 10 bit от M@kSIMusЗагрузка...Cкриншот4 Миссия на Марс / Mission to Mars (2000) BDRip 1080p [HEVC] 10 bit от M@kSIMus
Сэмпл Торрент🧲 Магнет

Раздача обновлена!
Фильм полностью перекодирован

Рейтинги КП и IMDB, кнопки "Позвать в чате" и "Спасибо", а также мультитрекерная статистика сидов и пиров доступны только зарегистрированным/авторизованным пользователям!

Файлы: 1
  • Mission to Mars (2000) BDRip 1080p [HEVC] 10 bit.mkv   7.67 ГБ
Поблагодарили: 32
375509, Alex302, aquarius1247, bate, cdmitry, Chance, CityHunter, crash, curly2, davidoff_k4, e7e1, Enklaver, FireIce, Gampeldor, LastSurviv0r, McFLY-Original, MIGRANT, NoMaD, Nuclear70, sakurarec, sedoi09, Shanti, shurabb, Stigmatlazy, stormbringer, svibog123, SYNC80001, unnamed, Viktor, vladd37, yumel, онилл
Admin
01756007.67 ГБ

Добавление нового комментария

Добавление комментариев доступно только зарегистрированным/авторизованным пользователям.