💬 Мини-чат

Для тех, кому интересен процесс переделки сайта - https://rips.club/changelog.html (обновлен 20.04.2024)
  • justmkr
Отправка сообщений доступна только зарегистрированным/авторизованным пользователям.
Онлайн (за 10 мин.): 1

Полтергейст / Poltergeist (1982) BDRip 1080p [HEVC] 10 bit от Mr. Fox

HEVC
10 bit
Обложка Полтергейст / Poltergeist (1982) BDRip 1080p [HEVC] 10 bit от Mr. Fox Год: 1982
Страна: США
Студия: Metro-Goldwyn-Mayer (MGM), SLM Production Group
Жанр: Ужасы, Триллер
Продолжительность: 01:54:28

Режиссер: Тоуб Хупер
В ролях: Крэйг Т. Нельсон, ДжоБет Уильямс, Беатрис Стрэйт, Доминик Данн, Оливер Робинс, Хезер О’Рурк, Майкл МакМэнус, Вирджиния Кайсер, Мартин Казелла, Ричард Лосон

Описание: Они здесь… Сначала они кажутся призрачными, играя в прятки в загородном доме Фрилингов. Но затем становится по-настоящему страшно! Тучи сгущаются, ожившие деревья нападают, а малютку Кэрол Энн Фрилинг засасывает в спектральную пустоту. И пока ее семья борется с вереницей кошмаров и пытается спасти девочку, по соседству, где-то рядом затаилось нечто…


Видео: 1916x798, ~9105 Kbps
Аудио1: AC3, 6 ch, 384 Kbps - РусскийРусский, Многоголосый (DVD)
Аудио2: AC3, 6 ch, 384 Kbps - УкраинскийУкраинский, Многоголосый (ICTV)
Аудио3: AC3, 6 ch, 448 Kbps - АнглийскийАнглийский, Оригинал
Субтитры: Русские, английские

Как за пару секунд удалить ненужные аудиодорожки и субтитры (Внимание! После удаления вы не сможете поддержать раздачу)

Лог (x265 info)
x265 [info]: frame I: Avg QP:18.71 kb/s
x265 [info]: frame P: Avg QP:19.94 kb/s
x265 [info]: frame B: Avg QP:22.03 kb/s
Медиаинфо
General
Unique ID : 211975534572164741456124517872590144790 (0x9F7900C1659AB9DC38C3BA50FF2C4516)
Complete name : E:\Torrent\Poltergeist (1982).mkv
Format : Matroska
Format version : Version 4
File size : 8.25 GiB
Duration : 1 h 54 min
Overall bit rate : 10.3 Mb/s
Movie name : Poltergeist (1982)
Encoded date : UTC 2021-02-06 06:48:13
Writing application : mkvmerge v53.0.0 ('Fool's Gold') 64-bit
Writing library : libebml v1.4.1 + libmatroska v1.6.2
Cover : Yes
Attachments : cover.jpg

Video
ID : 1
Format : HEVC
Format/Info : High Efficiency Video Coding
Format profile : Main 10@L4.1@High
Codec ID : V_MPEGH/ISO/HEVC
Duration : 1 h 54 min
Bit rate : 9 105 kb/s
Width : 1 916 pixels
Height : 798 pixels
Display aspect ratio : 2.40:1
Frame rate mode : Constant
Frame rate : 23.976 (23976/1000) FPS
Original frame rate : 23.976 (24000/1001) FPS
Color space : YUV
Chroma subsampling : 4:2:0
Bit depth : 10 bits
Bits/(Pixel*Frame) : 0.248
Stream size : 7.28 GiB (88%)
Writing library : x265 3.4+10-g25b2c0703:[Windows][MSVC 1927][64 bit] 10bit
Encoding settings : cpuid=1111039 / frame-threads=4 / numa-pools=16 / wpp / no-pmode / no-pme / no-psnr / no-ssim / log-level=2 / input-csp=1 / input-res=1916x798 / interlace=0 / total-frames=164677 / level-idc=41 / high-tier=1 / uhd-bd=0 / ref=5 / no-allow-non-conformance / no-repeat-headers / annexb / no-aud / no-hrd / info / hash=0 / no-temporal-layers / open-gop / min-keyint=23 / keyint=240 / gop-lookahead=0 / bframes=10 / b-adapt=2 / b-pyramid / bframe-bias=0 / rc-lookahead=60 / lookahead-slices=4 / scenecut=40 / hist-scenecut=0 / radl=0 / no-splice / no-intra-refresh / ctu=32 / min-cu-size=8 / rect / amp / max-tu-size=32 / tu-inter-depth=4 / tu-intra-depth=4 / limit-tu=1 / rdoq-level=2 / dynamic-rd=0.00 / no-ssim-rd / signhide / no-tskip / nr-intra=0 / nr-inter=0 / no-constrained-intra / no-strong-intra-smoothing / max-merge=4 / limit-refs=2 / limit-modes / me=3 / subme=7 / merange=57 / temporal-mvp / no-frame-dup / no-hme / weightp / weightb / no-analyze-src-pics / deblock=-3:-3 / no-sao / no-sao-non-deblock / rd=6 / selective-sao=0 / no-early-skip / no-rskip / no-fast-intra / no-tskip-fast / no-cu-lossless / no-b-intra / no-splitrd-skip / rdpenalty=0 / psy-rd=2.00 / psy-rdoq=1.00 / no-rd-refine / no-lossless / cbqpoffs=0 / crqpoffs=0 / rc=crf / crf=20.0 / qcomp=0.60 / qpstep=4 / stats-write=0 / stats-read=0 / vbv-maxrate=50000 / vbv-bufsize=50000 / vbv-init=0.9 / crf-max=0.0 / crf-min=0.0 / ipratio=1.40 / pbratio=1.30 / aq-mode=1 / aq-strength=1.00 / no-cutree / zone-count=0 / no-strict-cbr / qg-size=32 / no-rc-grain / qpmax=69 / qpmin=0 / no-const-vbv / sar=1 / overscan=0 / videoformat=5 / range=0 / colorprim=1 / transfer=1 / colormatrix=1 / chromaloc=0 / display-window=0 / cll=0,0 / min-luma=0 / max-luma=1023 / log2-max-poc-lsb=8 / vui-timing-info / vui-hrd-info / slices=1 / no-opt-qp-pps / no-opt-ref-list-length-pps / no-multi-pass-opt-rps / scenecut-bias=0.05 / hist-threshold=0.01 / no-opt-cu-delta-qp / no-aq-motion / no-hdr10 / no-hdr10-opt / no-dhdr10-opt / no-idr-recovery-sei / analysis-reuse-level=0 / analysis-save-reuse-level=0 / analysis-load-reuse-level=0 / scale-factor=0 / refine-intra=0 / refine-inter=0 / refine-mv=1 / refine-ctu-distortion=0 / no-limit-sao / ctu-info=0 / no-lowpass-dct / refine-analysis-type=0 / copy-pic=1 / max-ausize-factor=1.0 / no-dynamic-refine / no-single-sei / no-hevc-aq / no-svt / no-field / qp-adaptation-range=1.00 / no-scenecut-aware-qpconformance-window-offsets / right=0 / bottom=0 / decoder-max-rate=0
Default : Yes
Forced : No
Color range : Limited
Color primaries : BT.709
Transfer characteristics : BT.709
Matrix coefficients : BT.709

Audio #1
ID : 2
Format : AC-3
Format/Info : Audio Coding 3
Commercial name : Dolby Digital
Codec ID : A_AC3
Duration : 1 h 54 min
Bit rate mode : Constant
Bit rate : 384 kb/s
Channel(s) : 6 channels
Channel layout : L R C LFE Ls Rs
Sampling rate : 48.0 kHz
Frame rate : 31.250 FPS (1536 SPF)
Compression mode : Lossy
Stream size : 314 MiB (4%)
Title : MVO[DVD]
Language : Russian
Service kind : Complete Main
Default : Yes
Forced : No

Audio #2
ID : 3
Format : AC-3
Format/Info : Audio Coding 3
Commercial name : Dolby Digital
Codec ID : A_AC3
Duration : 1 h 54 min
Bit rate mode : Constant
Bit rate : 384 kb/s
Channel(s) : 6 channels
Channel layout : L R C LFE Ls Rs
Sampling rate : 48.0 kHz
Frame rate : 31.250 FPS (1536 SPF)
Compression mode : Lossy
Stream size : 314 MiB (4%)
Title : MVO[ICTV]
Language : Ukrainian
Service kind : Complete Main
Default : No
Forced : No

Audio #3
ID : 4
Format : AC-3
Format/Info : Audio Coding 3
Commercial name : Dolby Digital
Codec ID : A_AC3
Duration : 1 h 54 min
Bit rate mode : Constant
Bit rate : 448 kb/s
Channel(s) : 6 channels
Channel layout : L R C LFE Ls Rs
Sampling rate : 48.0 kHz
Frame rate : 31.250 FPS (1536 SPF)
Compression mode : Lossy
Stream size : 367 MiB (4%)
Language : English
Service kind : Complete Main
Default : No
Forced : No

Text #1
ID : 5
Format : UTF-8
Codec ID : S_TEXT/UTF8
Codec ID/Info : UTF-8 Plain Text
Duration : 1 h 44 min
Bit rate : 74 b/s
Count of elements : 1097
Stream size : 57.2 KiB (0%)
Language : Russian
Default : No
Forced : No

Text #2
ID : 6
Format : UTF-8
Codec ID : S_TEXT/UTF8
Codec ID/Info : UTF-8 Plain Text
Duration : 1 h 53 min
Bit rate : 47 b/s
Count of elements : 1289
Stream size : 39.7 KiB (0%)
Language : English
Default : No
Forced : No

Menu
00:00:00.000 : en:The Star Spangled Banner
00:04:38.612 : en:Credits
00:07:00.587 : en:Remotes and Rituals
00:11:45.413 : en:Bedtime Joint Time
00:16:44.712 : en:Storm Jitters
00:21:24.950 : en:They're Here
00:24:33.639 : en:TV People
00:28:43.388 : en:Moving Objects
00:34:14.761 : en:Robbie vs. The Tree
00:37:16.067 : en:Taking Carol Anne
00:42:46.397 : en:Spinning Room
00:45:46.619 : en:Calling Carol Anne
00:50:25.856 : en:She Just Moved Through Me
00:53:35.045 : en:The Light
00:59:45.624 : en:Marty's Midnight Snack
01:03:12.455 : en:Night Visitors
01:07:24.040 : en:Departures
01:11:13.769 : en:Expansion Plots
01:14:10.946 : en:Enter Tangina
01:16:40.930 : en:Window to the Next Plane
01:22:01.583 : en:Run to the Light
01:24:56.758 : en:Hope Across Dimensions
01:29:06.007 : en:Reunion
01:33:03.244 : en:Moving Day
01:35:37.231 : en:Bath and Bedtime
01:38:56.264 : en:The Clown and The Beast
01:42:18.299 : en:From Evil's Grasp
01:45:47.675 : en:You Left the Bodies!
01:47:38.619 : en:Escapees from Implosion
01:49:40.741 : en:End Credits
Сравнение скриншотов:
https://screenshotcomparison.com/comparison/10873 - со старым рипом

Загрузка...Cкриншот1 Полтергейст / Poltergeist (1982) BDRip 1080p [HEVC] 10 bit от Mr. FoxЗагрузка...Cкриншот2 Полтергейст / Poltergeist (1982) BDRip 1080p [HEVC] 10 bit от Mr. FoxЗагрузка...Cкриншот3 Полтергейст / Poltergeist (1982) BDRip 1080p [HEVC] 10 bit от Mr. FoxЗагрузка...Cкриншот4 Полтергейст / Poltergeist (1982) BDRip 1080p [HEVC] 10 bit от Mr. Fox
Сэмпл Торрент🧲 Магнет

Раздача обновлена!
Фильм перекодирован с улучшением качества.

Рейтинги КП и IMDB, кнопки "Позвать в чате" и "Спасибо", а также мультитрекерная статистика доступны только зарегистрированным/авторизованным пользователям!

Файлы: 1
  • Poltergeist (1982).mkv   8.25 ГБ
Поблагодарили: 16
375509, Alex302, brukvalub, davidoff_k4, donadar, Guga, icesnoop, makss333, MIGRANT, mr_nikitin, nazarpavluwun, NoMaD, ramzes, rodina_45, torrentzulu, Undervest
Admin
0125118.25 ГБ

Добавление нового комментария

Добавление комментариев доступно только зарегистрированным/авторизованным пользователям.