💬 Мини-чат

Для тех, кому интересен процесс переделки сайта - https://rips.club/changelog.html (обновлен 22.02.2024)
OldGamerz1M4p9i0, и этот релиз скачался
Adminatomicheart, встал, но у Вас в профиле не видно. Вам бы перекачать.
OldGamerz1M4p9i0, Хан Соло скачался, но релиз, который был на руторе, там аудиодорожек меньше, чем тут, а видеоряд тот же. Попробуйте оттуда, я пока что сидирую.
OldGamerХан Соло откуда-то по чайной ложке в час скачивается, за сутки 50%, наблюдаем-с дальше
Adminatomicheart, завтра посмотрю, он у меня должен быть.
atomicheartРаздайте, пожалуйста, Тихое место: Дилогия / A Quiet Place: Dilogy (2018-2020) UHD-BDRip 1080p [HEVC] 10 bit [HDR] от Mr. Fox
z1M4p9i0Раздайте, пожалуйста, Хан Соло: Звёздные войны. Истории / Solo: A Star Wars Story (2018) [Локализованная версия] BDRip 1080p [HEVC] 10 bit от Cthulhu
z1M4p9i0Раздайте, пожалуйста, Терминатор: Тёмные судьбы / Terminator: Dark Fate (2019) [iTunes] UHD-BDRip 1440p [HEVC] 10 bit от HANNIBAL
OldGamerKeynol, честно говоря, пока что не планировалось, так как у нас есть отличный рип этого фильма
KeynolПриветствую! А можно сделать HEVC 10 bit на Трон Наследие Hybrid ? там файл на 31 гиг :-( на рутрекере. Хороший, но очень массивный..
  • 375509
  • Alex302
  • ilyich05
  • InSpector
  • Святогуб
  • Тренер по Йоге
Отправка сообщений доступна только зарегистрированным/авторизованным пользователям.
Онлайн (за 10 мин.): 6

Книга джунглей / The Jungle Book (2016) BDRip 1080p [HEVC] 10 bit от Mr. Fox

HEVC
10 bit
Обложка Книга джунглей / The Jungle Book (2016) BDRip 1080p [HEVC] 10 bit от Mr. Fox Год: 2016
Страна: Великобритания, США
Жанр: Фэнтези, Драма, Приключения, Семейный
Продолжительность: 01:45:54

Режиссер: Джон Фавро
В ролях: Нил Сетхи, Билл Мюррей, Бен Кингсли, Идрис Эльба, Лупита Нионго, Скарлетт Йоханссон, Джанкарло Эспозито, Кристофер Уокен, Гарри Шендлинг, Брайтон Роуз

Описание: Непримиримая борьба с опасным и страшным тигром Шерханом вынуждает Маугли покинуть волчью стаю и отправиться в деревню к людям. На пути мальчика ждут удивительные открытия и захватывающие приключения с пантерой Багирой, медведем Балу, питоном Каа и другими обитателями дремучих джунглей.


Видео: 1920x1036, 7449 Kbps
Аудио1: AC3, 6 ch, 640 Kbps - РусскийРусский, Дублированный (Blu-ray CEE)
Аудио2: AC3, 6 ch, 640 Kbps - УкраинскийУкраинский, Дублированный
Аудио3: AC3, 6 ch, 448 Kbps - РусскийРусский, Одноголосый (Сербин)
Аудио4: AC3, 6 ch, 640 Kbps - АнглийскийАнглийский, Оригинал
Субтитры: Русские (форсированные, полные), английские (полные, SDH)

Как за пару секунд удалить ненужные аудиодорожки и субтитры (Внимание! После удаления вы не сможете поддержать раздачу)

Медиаинфо
General
Unique ID : 20715275143984567600336155371840917718 (0xF959DEB3B55A9C70AEEF2112EAAD0D6)
Complete name : E:\Torrent\Jungle Book (2016) BDRip 1080p [HEVC] 10bit.mkv
Format : Matroska
Format version : Version 4 / Version 2
File size : 7.26 GiB
Duration : 1 h 45 min
Overall bit rate : 9 820 kb/s
Movie name : The Jungle Book (2016) Mr. Fox
Encoded date : UTC 2019-03-24 06:29:54
Writing application : mkvmerge v28.2.0 ('The Awakening') 64-bit
Writing library : libebml v1.3.6 + libmatroska v1.4.9
Cover : Yes
Attachments : cover.jpg

Video
ID : 1
Format : HEVC
Format/Info : High Efficiency Video Coding
Format profile : Main 10@L4.1@High
Codec ID : V_MPEGH/ISO/HEVC
Duration : 1 h 45 min
Bit rate : 7 449 kb/s
Width : 1 920 pixels
Height : 1 036 pixels
Display aspect ratio : 1.85:1
Frame rate mode : Constant
Frame rate : 23.976 (23976/1000) FPS
Original frame rate : 23.976 (24000/1001) FPS
Color space : YUV
Chroma subsampling : 4:2:0
Bit depth : 10 bits
Bits/(Pixel*Frame) : 0.156
Stream size : 5.51 GiB (76%)
Writing library : x265 3.0_Au+4-dcbec33bfb0f:[Windows][MSVC 1916][64 bit] 10bit
Encoding settings : cpuid=1111039 / frame-threads=3 / numa-pools=12 / wpp / no-pmode / no-pme / no-psnr / no-ssim / log-level=2 / input-csp=1 / input-res=1920x1036 / interlace=0 / total-frames=64755 / level-idc=41 / high-tier=1 / uhd-bd=0 / ref=5 / no-allow-non-conformance / no-repeat-headers / annexb / no-aud / no-hrd / info / hash=0 / no-temporal-layers / open-gop / min-keyint=23 / keyint=240 / gop-lookahead=0 / bframes=12 / b-adapt=2 / b-pyramid / bframe-bias=0 / rc-lookahead=60 / lookahead-slices=4 / scenecut=40 / radl=0 / no-splice / no-intra-refresh / ctu=32 / min-cu-size=8 / rect / amp / max-tu-size=32 / tu-inter-depth=4 / tu-intra-depth=4 / limit-tu=1 / rdoq-level=2 / dynamic-rd=0.00 / no-ssim-rd / signhide / no-tskip / nr-intra=0 / nr-inter=0 / no-constrained-intra / no-strong-intra-smoothing / max-merge=4 / limit-refs=2 / limit-modes / me=3 / subme=7 / merange=57 / temporal-mvp / weightp / weightb / no-analyze-src-pics / deblock=-3:-3 / no-sao / no-sao-non-deblock / rd=6 / no-early-skip / no-rskip / no-fast-intra / no-tskip-fast / no-cu-lossless / no-b-intra / no-splitrd-skip / rdpenalty=0 / psy-rd=2.00 / psy-rdoq=1.00 / no-rd-refine / no-lossless / cbqpoffs=0 / crqpoffs=0 / rc=crf / crf=20.0 / qcomp=0.60 / qpstep=4 / stats-write=0 / stats-read=0 / vbv-maxrate=50000 / vbv-bufsize=50000 / vbv-init=0.9 / crf-max=0.0 / crf-min=0.0 / ipratio=1.40 / pbratio=1.30 / aq-mode=1 / aq-strength=1.00 / no-cutree / zone-count=0 / no-strict-cbr / qg-size=32 / no-rc-grain / qpmax=69 / qpmin=0 / no-const-vbv / sar=1 / overscan=0 / videoformat=5 / range=0 / colorprim=2 / transfer=2 / colormatrix=2 / chromaloc=0 / display-window=0 / max-cll=0,0 / min-luma=0 / max-luma=1023 / log2-max-poc-lsb=8 / vui-timing-info / vui-hrd-info / slices=1 / no-opt-qp-pps / no-opt-ref-list-length-pps / no-multi-pass-opt-rps / scenecut-bias=0.05 / no-opt-cu-delta-qp / no-aq-motion / no-hdr / no-hdr-opt / no-dhdr10-opt / no-idr-recovery-sei / analysis-reuse-level=5 / scale-factor=0 / refine-intra=0 / refine-inter=0 / refine-mv=0 / refine-ctu-distortion=0 / no-limit-sao / ctu-info=0 / no-lowpass-dct / refine-analysis-type=0 / copy-pic=1 / max-ausize-factor=1.0 / no-dynamic-refine / no-single-sei / no-hevc-aq / qp-adaptation-range=1.00
Default : Yes
Forced : No

Audio #1
ID : 2
Format : AC-3
Format/Info : Audio Coding 3
Codec ID : A_AC3
Duration : 1 h 45 min
Bit rate mode : Constant
Bit rate : 640 kb/s
Channel(s) : 6 channels
Channel positions : Front: L C R, Side: L R, LFE
Sampling rate : 48.0 kHz
Frame rate : 31.250 FPS (1536 SPF)
Bit depth : 16 bits
Compression mode : Lossy
Stream size : 485 MiB (7%)
Title : Dub | DD 5.1 @ 640 kbps - Blu-ray CEE
Language : Russian
Service kind : Complete Main
Default : Yes
Forced : No

Audio #2
ID : 3
Format : AC-3
Format/Info : Audio Coding 3
Codec ID : A_AC3
Duration : 1 h 45 min
Bit rate mode : Constant
Bit rate : 640 kb/s
Channel(s) : 6 channels
Channel positions : Front: L C R, Side: L R, LFE
Sampling rate : 48.0 kHz
Frame rate : 31.250 FPS (1536 SPF)
Bit depth : 16 bits
Compression mode : Lossy
Stream size : 484 MiB (7%)
Title : Dub | DD 5.1 @ 640 kbps
Language : Ukrainian
Service kind : Complete Main
Default : No
Forced : No

Audio #3
ID : 4
Format : AC-3
Format/Info : Audio Coding 3
Codec ID : A_AC3
Duration : 1 h 45 min
Bit rate mode : Constant
Bit rate : 448 kb/s
Channel(s) : 6 channels
Channel positions : Front: L C R, Side: L R, LFE
Sampling rate : 48.0 kHz
Frame rate : 31.250 FPS (1536 SPF)
Bit depth : 16 bits
Compression mode : Lossy
Stream size : 339 MiB (5%)
Title : AVO | DD 5.1 @ 448 kbps - Yu.Serbin
Language : Russian
Service kind : Complete Main
Default : No
Forced : No

Audio #4
ID : 5
Format : AC-3
Format/Info : Audio Coding 3
Codec ID : A_AC3
Duration : 1 h 45 min
Bit rate mode : Constant
Bit rate : 640 kb/s
Channel(s) : 6 channels
Channel positions : Front: L C R, Side: L R, LFE
Sampling rate : 48.0 kHz
Frame rate : 31.250 FPS (1536 SPF)
Bit depth : 16 bits
Compression mode : Lossy
Stream size : 485 MiB (7%)
Title : Original | DD 5.1 @ 640 kbps
Language : English
Service kind : Complete Main
Default : No
Forced : No

Text #1
ID : 6
Format : UTF-8
Codec ID : S_TEXT/UTF8
Codec ID/Info : UTF-8 Plain Text
Duration : 1 h 44 min
Bit rate : 0 b/s
Count of elements : 3
Stream size : 101 Bytes (0%)
Title : Forced
Language : Russian
Default : Yes
Forced : Yes

Text #2
ID : 7
Format : UTF-8
Codec ID : S_TEXT/UTF8
Codec ID/Info : UTF-8 Plain Text
Duration : 1 h 44 min
Bit rate : 60 b/s
Count of elements : 1107
Stream size : 46.0 KiB (0%)
Title : iTunes
Language : Russian
Default : No
Forced : No

Text #3
ID : 8
Format : UTF-8
Codec ID : S_TEXT/UTF8
Codec ID/Info : UTF-8 Plain Text
Duration : 1 h 44 min
Bit rate : 44 b/s
Count of elements : 1218
Stream size : 34.1 KiB (0%)
Title : Full
Language : English
Default : No
Forced : No

Text #4
ID : 9
Format : UTF-8
Codec ID : S_TEXT/UTF8
Codec ID/Info : UTF-8 Plain Text
Duration : 1 h 44 min
Bit rate : 50 b/s
Count of elements : 1410
Stream size : 38.4 KiB (0%)
Title : SDH
Language : English
Default : No
Forced : No

Text #5
ID : 10
Format : UTF-8
Codec ID : S_TEXT/UTF8
Codec ID/Info : UTF-8 Plain Text
Duration : 1 h 44 min
Bit rate : 76 b/s
Count of elements : 1410
Stream size : 58.8 KiB (0%)
Title : SDH-Colored
Language : English
Default : No
Forced : No

Menu
00:00:00.000 : en:(01)00:00:00:000
00:00:48.214 : en:(02)00:00:48:214
00:05:15.315 : en:(03)00:05:15:315
00:09:02.458 : en:(04)00:09:02:458
00:12:42.178 : en:(05)00:12:42:178
00:16:34.451 : en:(06)00:16:34:451
00:21:20.028 : en:(07)00:21:20:028
00:27:15.133 : en:(08)00:27:15:133
00:35:04.143 : en:(09)00:35:04:143
00:43:21.724 : en:(10)00:43:21:724
00:48:05.132 : en:(11)00:48:05:132
00:53:29.247 : en:(12)00:53:29:247
00:58:03.271 : en:(13)00:58:03:271
01:05:46.442 : en:(14)01:05:46:442
01:10:35.522 : en:(15)01:10:35:522
01:17:01.325 : en:(16)01:17:01:325
01:20:48.927 : en:(17)01:20:48:927
01:24:46.539 : en:(18)01:24:46:539
01:30:32.969 : en:(19)01:30:32:969
01:35:53.205 : en:(20)01:35:53:205
01:45:54.389 : en:(21)01:45:54:389
Загрузка...Cкриншот1 Книга джунглей / The Jungle Book (2016) BDRip 1080p [HEVC] 10 bit от Mr. FoxЗагрузка...Cкриншот2 Книга джунглей / The Jungle Book (2016) BDRip 1080p [HEVC] 10 bit от Mr. FoxЗагрузка...Cкриншот3 Книга джунглей / The Jungle Book (2016) BDRip 1080p [HEVC] 10 bit от Mr. FoxЗагрузка...Cкриншот4 Книга джунглей / The Jungle Book (2016) BDRip 1080p [HEVC] 10 bit от Mr. Fox
Сэмпл Торрент🧲 Магнет

Рейтинги КП и IMDB, кнопки "Позвать в чате" и "Спасибо", а также мультитрекерная статистика доступны только зарегистрированным/авторизованным пользователям!

Файлы: 1
  • Jungle Book (2016) BDRip 1080p [HEVC] 10bit.mkv   7.26 ГБ
Поблагодарили: 21
375509, AffectiO, alexyak, andrey9726, bav69u, Blackroses1986, InSpector, lucky_oleg, MakSIMus, MIGRANT, NEGAN, NoMaD, OldGamer, pipen033, RDigit, SaN161NeK, sanyahustler, sergeich, VardO, vserginbox, z_artem
Admin
4263007.26 ГБ

Добавление нового комментария

Добавление комментариев доступно только зарегистрированным/авторизованным пользователям.
Аватар OldGamer
  OldGamer  
Посмотрел. Заберу в коллекцию.
Аватар Mr. Fox
  Mr. Fox  (Отредактировал Mr. Fox)    
Admin писал(а):
Так в Пожеланиях есть какие хотят.
пролистал список пожеланий - из первых 100 фильмов возникло желание сделать только один, а вот по списку из лички - целых 2, из которых один уже кодируется
Аватар Admin
  Admin  (Отредактировал Admin)    
Mr. Fox писал(а):
Все-таки основная причина первая. Мягко говоря я ждал, когда настанет этот момент.
В свое время я сделал на рутрекере нарезки всех матчей чемпионатов мира и Европы по футболу, потратив на это практически ежедневно 4 года. Последние раздачи мне уже давались в с большим трудом, но я просто должен был не бросить и доделать. И когда я сделал последний обзор - это был большой праздник. Теперь раз в два года, не испытывая напряжения я делаю опять обзоры с удовольствием.
По поводу второй причины - я бы отключил комментарии под раздачами и убрал бы чат. Чистая публикация и скачка, а с кем надо и в личке списаться можно.
Ну и третье, так как сейчас у меня с компом будет посвободнее, сбросьте в личку какие рипы вы хотите - обещать не буду, что точно сделаю, условий никаких.
Так в Пожеланиях есть какие хотят.
Аватар Mr. Fox
  Mr. Fox  
на неизвестное время это мой крайний рип
Причина банальна - в основном в своей коллекции я практически все что хотел обновил - 8 битные, кодированные видеокартой, отсутствующие на трекере.
Конечно, я буду делать некоторые новые фильмы, попробую переделать некоторые 10-битные рипы с no-rect, no-amp, rd=3 и психами на нуле, но не факт, что буду ими делится ибо не люблю срач, не люблю одним объяснять почему битрейт такой большой, другим - почему маленький. Вот первый опыт - Мир юрского периода получается на предельных квантах с битрейтом 12,5 Мбит/с. Сколько это может вызвать срача при наличии рипа на 5 Мбит/с меньше?
Да и надоело постоянно тратить время на сравнения с другими рипами (с исходником - это святое).