💬 Мини-чат

GiggaloСообщение удалено (удалил: Giggalo)
StarLordOldGamer, как дела?)
StarLordOldGamer, ура, вернулся 😄
OldGamerRezident, можете скачать этот фильм от другого релизёра, там невелика разница, а раздающие точно есть
OldGamerGiggalo, https://tsya.ru/mnemonic.html
NoMaDСообщение удалено (удалил: NoMaD)
NoMaDСообщение удалено (удалил: NoMaD)
GiggaloСообщение удалено (удалил: Giggalo)
GiggaloСообщение удалено (удалил: Giggalo)
Spartanec1308Был днём
StarLordGiggalo, наверное отрубало беднягу, целый день его нету 😅
GiggaloСообщение удалено (удалил: Giggalo)
OldGamerДоброе. Работы много, некогда на перинах валяться.
GiggaloСообщение удалено (удалил: Giggalo)
GiggaloСообщение удалено (удалил: Giggalo)
  • Spartanec1308
  • Giggalo
  • alenu
  • Blaster
Отправка сообщений доступна только зарегистрированным/авторизованным пользователям.
Онлайн (за 10 мин.): 4

Мир Юрского периода: Дилогия / Jurassic World: Dilogy (2015-2018) BDRip 1080p [HEVC] 10 bit от Mr. Fox

HEVC
10 bit
Обложка Мир Юрского периода: Дилогия / Jurassic World: Dilogy (2015-2018) BDRip 1080p [HEVC] 10 bit от Mr. Fox Год: 2015-2018
Страна: США
Жанр: Фантастика, Приключения, Боевик

1. Мир Юрского периода / Jurassic World (2015) BDRip 1080p [HEVC] 10 bit от Mr. Fox
HEVC
10 bit
Обложка Мир Юрского периода / Jurassic World (2015) BDRip 1080p [HEVC] 10 bit от Mr. Fox Год: 2015
Страна: США
Студия: Universal Pictures, Legendary Pictures, China Film Co., Amblin Entertainment
Жанр: Фантастика, Приключения, Боевик
Продолжительность: 02:04:23

Режиссер: Колин Треворроу
В ролях: Крис Пратт, Брайс Даллас Ховард, Ник Дж. Робинсон, Тай Симпкинс, Винсент Д’Онофрио, Ирфан Кхан, Омар Си, Б.Д. Вонг, Джейк Джонсон, Джуди Грир

Описание: Тысячи людей спешат увидеть Мир Юрского периода, но безопасное на первый взгляд развлечение может обернуться угрозой для жизни.


Видео: 1920x960, 12.9 Mbps
Аудио1: AC3, 6 ch, 640 Kbps - РусскийРусский, Дублированный (Лицензия)
Аудио2: AC3, 6 ch, 640 Kbps - АнглийскийАнглийский, Оригинал
Субтитры: Русские (форсированные, полные), английские

Как за пару секунд удалить ненужные аудиодорожки и субтитры (Внимание! После удаления вы не сможете поддержать раздачу)

Медиаинфо
Общее
Уникальный идентификатор : 146931076757953740384671772304277556136 (0x6E89E56376481A4300C87D8BFBE8CBA8)
Полное имя : 01. Мир Юрского периода (2015) BDRip 1080p [HEVC] 10 bit.mkv
Формат : Matroska
Версия формата : Version 4
Размер файла : 12,3 Гбайт
Продолжительность : 2 ч. 4 м.
Общий поток : 14,1 Мбит/сек
Название фильма : Мир Юрского периода (2015) Encoded_by_Mr. Fox
Дата кодирования : UTC 2019-03-31 15:59:58
Программа кодирования : mkvmerge v28.0.0 ('Voice In My Head') 64-bit
Библиотека кодирования : libebml v1.3.6 + libmatroska v1.4.9
Обложка : Yes
Attachments : cover1.jpg

Видео
Идентификатор : 1
Формат : HEVC
Формат/Информация : High Efficiency Video Coding
Профиль формата : Main 10@L4.1@High
Идентификатор кодека : V_MPEGH/ISO/HEVC
Продолжительность : 2 ч. 4 м.
Битрейт : 12,9 Мбит/сек
Ширина : 1920 пикселей
Высота : 960 пикселей
Соотношение сторон : 2,000
Режим частоты кадров : Постоянный
Частота кадров : 23,976 (23976/1000) кадра/сек
Частота кадров в оригинале : 23,976 (24000/1001) кадра/сек
Цветовое пространство : YUV
Субдискретизация насыщенности : 4:2:0
Битовая глубина : 10 бит
Бит/(Пиксели*Кадры) : 0.291
Размер потока : 11,2 Гбайт (91%)
Заголовок : Мир Юрского периода (2015) Encoded_by_Mr. Fox
Библиотека кодирования : x265 3.0_Au+4-dcbec33bfb0f:[Windows][MSVC 1916][64 bit] 10bit
Настройки программы : cpuid=1111039 / frame-threads=3 / numa-pools=12 / wpp / no-pmode / no-pme / no-psnr / no-ssim / log-level=2 / input-csp=1 / input-res=1920x960 / interlace=0 / total-frames=86258 / level-idc=41 / high-tier=1 / uhd-bd=0 / ref=5 / no-allow-non-conformance / no-repeat-headers / annexb / no-aud / no-hrd / info / hash=0 / no-temporal-layers / open-gop / min-keyint=23 / keyint=240 / gop-lookahead=0 / bframes=15 / b-adapt=2 / b-pyramid / bframe-bias=0 / rc-lookahead=60 / lookahead-slices=4 / scenecut=40 / radl=0 / no-splice / no-intra-refresh / ctu=32 / min-cu-size=8 / rect / amp / max-tu-size=32 / tu-inter-depth=4 / tu-intra-depth=4 / limit-tu=1 / rdoq-level=2 / dynamic-rd=0.00 / no-ssim-rd / signhide / no-tskip / nr-intra=0 / nr-inter=0 / no-constrained-intra / no-strong-intra-smoothing / max-merge=4 / limit-refs=2 / limit-modes / me=3 / subme=7 / merange=57 / temporal-mvp / weightp / weightb / no-analyze-src-pics / deblock=-3:-3 / no-sao / no-sao-non-deblock / rd=6 / no-early-skip / no-rskip / no-fast-intra / no-tskip-fast / no-cu-lossless / no-b-intra / no-splitrd-skip / rdpenalty=0 / psy-rd=2.00 / psy-rdoq=1.00 / no-rd-refine / no-lossless / cbqpoffs=0 / crqpoffs=0 / rc=crf / crf=20.0 / qcomp=0.60 / qpstep=4 / stats-write=0 / stats-read=0 / vbv-maxrate=50000 / vbv-bufsize=50000 / vbv-init=0.9 / crf-max=0.0 / crf-min=0.0 / ipratio=1.40 / pbratio=1.30 / aq-mode=1 / aq-strength=1.00 / no-cutree / zone-count=0 / no-strict-cbr / qg-size=32 / no-rc-grain / qpmax=69 / qpmin=0 / no-const-vbv / sar=1 / overscan=0 / videoformat=5 / range=0 / colorprim=2 / transfer=2 / colormatrix=2 / chromaloc=0 / display-window=0 / max-cll=0,0 / min-luma=0 / max-luma=1023 / log2-max-poc-lsb=8 / vui-timing-info / vui-hrd-info / slices=1 / no-opt-qp-pps / no-opt-ref-list-length-pps / no-multi-pass-opt-rps / scenecut-bias=0.05 / no-opt-cu-delta-qp / no-aq-motion / no-hdr / no-hdr-opt / no-dhdr10-opt / no-idr-recovery-sei / analysis-reuse-level=5 / scale-factor=0 / refine-intra=0 / refine-inter=0 / refine-mv=0 / refine-ctu-distortion=0 / no-limit-sao / ctu-info=0 / no-lowpass-dct / refine-analysis-type=0 / copy-pic=1 / max-ausize-factor=1.0 / no-dynamic-refine / no-single-sei / no-hevc-aq / qp-adaptation-range=1.00
Язык : English
Default : Да
Forced : Нет

Аудио #1
Идентификатор : 2
Формат : AC-3
Формат/Информация : Audio Coding 3
Коммерческое название : Dolby Digital
Идентификатор кодека : A_AC3
Продолжительность : 2 ч. 4 м.
Вид битрейта : Постоянный
Битрейт : 640 Кбит/сек
Каналы : 6 каналов
Channel layout : L R C LFE Ls Rs
Частота : 48,0 КГц
Частота кадров : 31,250 кадров/сек (1536 SPF)
Битовая глубина : 16 бит
Метод сжатия : С потерями
Размер потока : 569 Мбайт (5%)
Заголовок : Дубляж
Язык : Russian
Default : Да
Forced : Нет

Аудио #2
Идентификатор : 3
Формат : AC-3
Формат/Информация : Audio Coding 3
Коммерческое название : Dolby Digital
Идентификатор кодека : A_AC3
Продолжительность : 2 ч. 4 м.
Вид битрейта : Постоянный
Битрейт : 640 Кбит/сек
Каналы : 6 каналов
Channel layout : L R C LFE Ls Rs
Частота : 48,0 КГц
Частота кадров : 31,250 кадров/сек (1536 SPF)
Битовая глубина : 16 бит
Метод сжатия : С потерями
Размер потока : 569 Мбайт (5%)
Заголовок : Оригинал
Язык : English
Default : Нет
Forced : Нет

Текст #1
Идентификатор : 4
Формат : UTF-8
Идентификатор кодека : S_TEXT/UTF8
Идентификатор кодека/Информация : UTF-8 Plain Text
Продолжительность : 2 ч. 0 м.
Битрейт : 0 бит/сек
ElementCount : 19
Размер потока : 494 байт (0%)
Заголовок : Rus Forced
Язык : Russian
Default : Да
Forced : Да

Текст #2
Идентификатор : 5
Формат : UTF-8
Идентификатор кодека : S_TEXT/UTF8
Идентификатор кодека/Информация : UTF-8 Plain Text
Продолжительность : 1 ч. 52 м.
Битрейт : 80 бит/сек
ElementCount : 1222
Размер потока : 66,1 Кбайт (0%)
Заголовок : Rus Full
Язык : Russian
Default : Нет
Forced : Нет

Текст #3
Идентификатор : 6
Формат : UTF-8
Идентификатор кодека : S_TEXT/UTF8
Идентификатор кодека/Информация : UTF-8 Plain Text
Продолжительность : 1 ч. 52 м.
Битрейт : 47 бит/сек
ElementCount : 1289
Размер потока : 39,6 Кбайт (0%)
Заголовок : Eng Full
Язык : English
Default : Нет
Forced : Нет

Меню
00:00:00.000 : :(01)00:00:00:000
00:06:59.168 : :(02)00:06:59:168
00:11:01.827 : :(03)00:11:01:827
00:18:28.440 : :(04)00:18:28:440
00:25:34.866 : :(05)00:25:34:866
00:31:20.837 : :(06)00:31:20:837
00:39:23.861 : :(07)00:39:23:861
00:44:07.853 : :(08)00:44:07:853
00:48:57.225 : :(09)00:48:57:225
00:55:51.056 : :(10)00:55:51:056
01:01:21.344 : :(11)01:01:21:344
01:09:50.560 : :(12)01:09:50:561
01:15:25.479 : :(13)01:15:25:479
01:23:51.860 : :(14)01:23:51:860
01:30:14.700 : :(15)01:30:14:700
01:36:45.424 : :(16)01:36:45:424
01:41:15.652 : :(17)01:41:15:652
01:47:35.282 : :(18)01:47:35:282
01:53:06.029 : :(19)01:53:06:029
01:55:37.555 : :(20)01:55:37:555
Загрузка...Cкриншот1 Мир Юрского периода / Jurassic World (2015) BDRip 1080p [HEVC] 10 bit от Mr. FoxЗагрузка...Cкриншот2 Мир Юрского периода / Jurassic World (2015) BDRip 1080p [HEVC] 10 bit от Mr. FoxЗагрузка...Cкриншот3 Мир Юрского периода / Jurassic World (2015) BDRip 1080p [HEVC] 10 bit от Mr. FoxЗагрузка...Cкриншот4 Мир Юрского периода / Jurassic World (2015) BDRip 1080p [HEVC] 10 bit от Mr. Fox
2. Мир Юрского периода 2 / Jurassic World: Fallen Kingdom (2018) BDRip 1080p [HEVC] 10 bit от Mr. Fox
HEVC
10 bit
Обложка Мир Юрского периода 2 / Jurassic World: Fallen Kingdom (2018) BDRip 1080p [HEVC] 10 bit от Mr. Fox Год: 2018
Страна: США
Студия: Universal Pictures, Legendary Pictures
Жанр: Фантастика, Приключения, Боевик
Продолжительность: 02:08:17

Режиссер: Хуан Антонио Байона
В ролях: Крис Пратт, Брайс Даллас Ховард, Рейф Сполл, Джастис Смит, Даниэлла Пинеда, Джеймс Кромуэлл, Тоби Джонс, Тед Левайн, Джефф Голдблюм, Б.Д. Вонг

Описание: На острове Нублар, где не так давно располагался парк развлечений с динозаврами, правит бал дикая природа, но внезапно пробудившийся вулкан угрожает стереть динозавров с лица земли. Бывшая управляющая парком Клэр Диринг переквалифицировалась в защитницу исчезающих видов и пытается сделать всё, чтобы спасти доисторических животных. На неё выходит Илай Миллс — доверенное лицо миллиардера Бенждамина Локвуда, который много лет назад был соратником профессора Хаммонда. Миллс предлагает Клэр, знакомой с системой безопасности парка, поехать на остров и помочь ему поймать нескольких особей, чтобы вывести их на другой безопасный остров. Клэр даже удается уговорить своего бывшего парня, дрессировщика Оуэена, принять участие в спасательной миссии, но по прибытии в парк, выясняется, что у Миллса совсем другие цели.


Видео: 1920x804, 4366 Kbps
Аудио1: AC3, 6 ch, 640 Kbps - РусскийРусский, Дублированный (Лицензия)
Аудио2: AC3, 6 ch, 640 Kbps - АнглийскийАнглийский, Оригинал
Субтитры: Русские (форсированные, полные), английские

Как за пару секунд удалить ненужные аудиодорожки и субтитры (Внимание! После удаления вы не сможете поддержать раздачу)

Медиаинфо
Общее
Уникальный идентификатор : 25421983415678698848737674873334460679 (0x1320188D98CE0452C68B2E914A54F107)
Полное имя : 02. Мир Юрского периода 2 (2018) BDRip 1080p [HEVC] 10 bit.mkv
Формат : Matroska
Версия формата : Version 4
Размер файла : 5,06 Гбайт
Продолжительность : 2 ч. 8 м.
Общий поток : 5649 Кбит/сек
Название фильма : Мир Юрского периода 2 (2018) Encoded_by_Mr. Fox
Дата кодирования : UTC 2019-03-31 16:43:27
Программа кодирования : mkvmerge v28.0.0 ('Voice In My Head') 64-bit
Библиотека кодирования : libebml v1.3.6 + libmatroska v1.4.9
Обложка : Yes
Attachments : cover2.jpg

Видео
Идентификатор : 1
Формат : HEVC
Формат/Информация : High Efficiency Video Coding
Профиль формата : Main 10@L4.1@High
Идентификатор кодека : V_MPEGH/ISO/HEVC
Продолжительность : 2 ч. 8 м.
Битрейт : 4366 Кбит/сек
Ширина : 1920 пикселей
Высота : 804 пикселя
Соотношение сторон : 2,40:1
Режим частоты кадров : Постоянный
Частота кадров : 23,976 (23976/1000) кадра/сек
Частота кадров в оригинале : 23,976 (24000/1001) кадра/сек
Цветовое пространство : YUV
Субдискретизация насыщенности : 4:2:0
Битовая глубина : 10 бит
Бит/(Пиксели*Кадры) : 0.118
Размер потока : 3,91 Гбайт (77%)
Заголовок : Мир Юрского периода 2 (2018) Encoded_by_Mr. Fox
Библиотека кодирования : x265 3.0_Au+4-dcbec33bfb0f:[Windows][MSVC 1916][64 bit] 10bit
Настройки программы : cpuid=1111039 / frame-threads=3 / numa-pools=12 / wpp / no-pmode / no-pme / no-psnr / no-ssim / log-level=2 / input-csp=1 / input-res=1920x804 / interlace=0 / total-frames=86386 / level-idc=41 / high-tier=1 / uhd-bd=0 / ref=5 / no-allow-non-conformance / no-repeat-headers / annexb / no-aud / no-hrd / info / hash=0 / no-temporal-layers / open-gop / min-keyint=23 / keyint=240 / gop-lookahead=0 / bframes=16 / b-adapt=2 / b-pyramid / bframe-bias=0 / rc-lookahead=60 / lookahead-slices=4 / scenecut=40 / radl=0 / no-splice / no-intra-refresh / ctu=32 / min-cu-size=8 / rect / amp / max-tu-size=32 / tu-inter-depth=4 / tu-intra-depth=4 / limit-tu=1 / rdoq-level=2 / dynamic-rd=0.00 / no-ssim-rd / signhide / no-tskip / nr-intra=0 / nr-inter=0 / no-constrained-intra / no-strong-intra-smoothing / max-merge=4 / limit-refs=2 / limit-modes / me=3 / subme=7 / merange=57 / temporal-mvp / weightp / weightb / no-analyze-src-pics / deblock=-3:-3 / no-sao / no-sao-non-deblock / rd=6 / no-early-skip / no-rskip / no-fast-intra / no-tskip-fast / no-cu-lossless / no-b-intra / no-splitrd-skip / rdpenalty=0 / psy-rd=2.00 / psy-rdoq=1.00 / no-rd-refine / no-lossless / cbqpoffs=0 / crqpoffs=0 / rc=crf / crf=20.0 / qcomp=0.60 / qpstep=4 / stats-write=0 / stats-read=0 / vbv-maxrate=50000 / vbv-bufsize=50000 / vbv-init=0.9 / crf-max=0.0 / crf-min=0.0 / ipratio=1.40 / pbratio=1.30 / aq-mode=1 / aq-strength=1.00 / no-cutree / zone-count=0 / no-strict-cbr / qg-size=32 / no-rc-grain / qpmax=69 / qpmin=0 / no-const-vbv / sar=1 / overscan=0 / videoformat=5 / range=0 / colorprim=2 / transfer=2 / colormatrix=2 / chromaloc=0 / display-window=0 / max-cll=0,0 / min-luma=0 / max-luma=1023 / log2-max-poc-lsb=8 / vui-timing-info / vui-hrd-info / slices=1 / no-opt-qp-pps / no-opt-ref-list-length-pps / no-multi-pass-opt-rps / scenecut-bias=0.05 / no-opt-cu-delta-qp / no-aq-motion / no-hdr / no-hdr-opt / no-dhdr10-opt / no-idr-recovery-sei / analysis-reuse-level=5 / scale-factor=0 / refine-intra=0 / refine-inter=0 / refine-mv=0 / refine-ctu-distortion=0 / no-limit-sao / ctu-info=0 / no-lowpass-dct / refine-analysis-type=0 / copy-pic=1 / max-ausize-factor=1.0 / no-dynamic-refine / no-single-sei / no-hevc-aq / qp-adaptation-range=1.00
Язык : English
Default : Да
Forced : Нет

Аудио #1
Идентификатор : 2
Формат : AC-3
Формат/Информация : Audio Coding 3
Коммерческое название : Dolby Digital
Идентификатор кодека : A_AC3
Продолжительность : 2 ч. 8 м.
Вид битрейта : Постоянный
Битрейт : 640 Кбит/сек
Каналы : 6 каналов
Channel layout : L R C LFE Ls Rs
Частота : 48,0 КГц
Частота кадров : 31,250 кадров/сек (1536 SPF)
Битовая глубина : 16 бит
Метод сжатия : С потерями
Размер потока : 587 Мбайт (11%)
Заголовок : Дубляж
Язык : Russian
Default : Да
Forced : Нет

Аудио #2
Идентификатор : 3
Формат : AC-3
Формат/Информация : Audio Coding 3
Коммерческое название : Dolby Digital
Идентификатор кодека : A_AC3
Продолжительность : 2 ч. 8 м.
Вид битрейта : Постоянный
Битрейт : 640 Кбит/сек
Каналы : 6 каналов
Channel layout : L R C LFE Ls Rs
Частота : 48,0 КГц
Частота кадров : 31,250 кадров/сек (1536 SPF)
Битовая глубина : 16 бит
Метод сжатия : С потерями
Размер потока : 587 Мбайт (11%)
Заголовок : Оригинал
Язык : English
Default : Нет
Forced : Нет

Текст #1
Идентификатор : 4
Формат : UTF-8
Идентификатор кодека : S_TEXT/UTF8
Идентификатор кодека/Информация : UTF-8 Plain Text
Продолжительность : 1 ч. 56 м.
Битрейт : 1 бит/сек
ElementCount : 33
Размер потока : 1,33 Кбайт (0%)
Заголовок : Rus Forced
Язык : Russian
Default : Да
Forced : Да

Текст #2
Идентификатор : 5
Формат : UTF-8
Идентификатор кодека : S_TEXT/UTF8
Идентификатор кодека/Информация : UTF-8 Plain Text
Продолжительность : 1 ч. 56 м.
Битрейт : 73 бит/сек
ElementCount : 1725
Размер потока : 62,7 Кбайт (0%)
Заголовок : Rus Full
Язык : Russian
Default : Нет
Forced : Нет

Текст #3
Идентификатор : 6
Формат : UTF-8
Идентификатор кодека : S_TEXT/UTF8
Идентификатор кодека/Информация : UTF-8 Plain Text
Продолжительность : 1 ч. 55 м.
Битрейт : 42 бит/сек
ElementCount : 1198
Размер потока : 36,2 Кбайт (0%)
Заголовок : Eng Full
Язык : English
Default : Нет
Forced : Нет

Меню
00:00:00.000 : :1
00:07:13.223 : :2
00:12:01.553 : :3
00:17:17.744 : :4
00:21:17.192 : :5
00:28:49.810 : :6
00:35:04.684 : :7
00:40:51.574 : :8
00:46:32.498 : :9
00:52:04.996 : :10
01:00:59.197 : :11
01:06:50.255 : :12
01:11:07.637 : :13
01:17:21.094 : :14
01:26:55.210 : :15
01:33:01.492 : :16
01:42:55.877 : :17
01:50:01.552 : :18
01:54:56.221 : :19
01:58:37.984 : :20
Загрузка...Cкриншот1 Мир Юрского периода 2 / Jurassic World: Fallen Kingdom (2018) BDRip 1080p [HEVC] 10 bit от Mr. FoxЗагрузка...Cкриншот2 Мир Юрского периода 2 / Jurassic World: Fallen Kingdom (2018) BDRip 1080p [HEVC] 10 bit от Mr. FoxЗагрузка...Cкриншот3 Мир Юрского периода 2 / Jurassic World: Fallen Kingdom (2018) BDRip 1080p [HEVC] 10 bit от Mr. FoxЗагрузка...Cкриншот4 Мир Юрского периода 2 / Jurassic World: Fallen Kingdom (2018) BDRip 1080p [HEVC] 10 bit от Mr. Fox
Торрент🧲 Магнет

Раздача обновлена!
В первой части удалена одноголосая дорожка, во второй - украинская.

Рейтинги КП и IMDB, кнопки "Позвать в чате" и "Спасибо", а также мультитрекерная статистика доступны только зарегистрированным/авторизованным пользователям!

Файлы: 2
  • Мир Юрского периода
    • 01. Мир Юрского периода (2015) BDRip 1080p [HEVC] 10 bit.mkv   12.29 ГБ
    • 02. Мир Юрского периода 2 (2018) BDRip 1080p [HEVC] 10 bit.mkv   5.06 ГБ
Поблагодарили: 28
375509, Alexeyall, alexyak, anatol, aquarius, Brooklyn, crash, denisptp4, donadar, DSIO, gurvinok, InSpector, joker1001, Kiran, Korbis, krizh, MakSIMus, MIGRANT, NoMaD, sakurarec, SaN161NeK, sigours, SoulBoy, Stigmatlazy, TheDrew, unnamed, VardO, Zulbay
Admin
53801 (2)  17.35 ГБ

Добавление нового комментария

Добавление комментариев доступно только зарегистрированным/авторизованным пользователям.
Аватар Admin
  Admin  
NoMaD писал(а):
Это раздача, которую Максимка заливал на Рутор???
Да. Он видимо удалил дорожки и залил на рутор. Я заменил торрент ради сидов, а то сам долгое время поддерживал раздачу.
Аватар NoMaD
  NoMaD  (Отредактировал OldGamer)    
Это раздача, которую Максимка заливал на Рутор???
Аватар Admin
  Admin  
crash писал(а):
ДА не полноценный "коллекшин"! Сделайте еще Парк пжлста как сможете! а так забрал! кнопарь нажал!
Чем существующий не устраивает?
Аватар не указан
  crash  (Отредактировал crash)    
ДА не полноценный "коллекшин"! Сделайте еще Парк пжлста как сможете! а так забрал! кнопарь нажал!
Аватар не указан
  MIGRANT  
Еще бы Парк Юрского Периода переделать...