💬 Мини-чат

Убедительная просьба не обсуждать тут политику.
AdminЛёшикоБэст, вроде потихоньку идёт. Подождем, если не докачается, то встану.
AdminЛёшикоБэст, перекачайте торрент, а то в профиле не отображается ждете или уже нет
ЛёшикоБэстРаздайте, пожалуйста, Неудержимые / The Expendables (2010) [Theatrical Cut] BDRip 1080p [HEVC] 10 bit от Spartanec1308
OldGamerДа, есть.
ЛёшикоБэстДоброго вечера) Скажите пожалуйста, есть ли в планах сделать релиз дилогии "Зорро" с Антонио Бандерасом?
HANNIBALAdmin, 👍
AdminГоро, встал
ГороРаздайте, пожалуйста, Хищники / Predators (2010) BDRip 1080p [HEVC] 10 bit от HANNIBAL
AdminHANNIBAL, привет. Не помню за сколько брал, но продление в этот раз обошлось примерно в $14 со всякими комиссиями. А аренда VDS обходится примерно в $30-35 за год. Не исключено, что всё это подорожает. Пока что пожертвования с трудом покрывают расходы. Иногда если требуется и со своего кармана оплачиваю, не страшно. Прорвемся.
HANNIBALсколько сейчас стоит
HANNIBALAdmin, ПРИВЕТ
AdminНаконец-то получил банковскую карту. Продлил доменное имя (адрес сайта) на год.
  • ivan_1965
Отправка сообщений доступна только зарегистрированным/авторизованным пользователям.
Онлайн (за 10 мин.): 1

Репортаж: Квадрология / [REC]: Quadrilogy (2007-2014) BDRip 1080p [HEVC] 10 bit от AlexTwitt

HEVC
10 bit
Обложка Репортаж: Квадрология / [REC]: Quadrilogy (2007-2014) BDRip 1080p [HEVC] 10 bit от AlexTwitt Год: 2007-2014
Страна: Испания
Студия: Filmax
Жанр: Ужасы, Триллер, Мистика, Драма

1. Репортаж / [Rec] (2007) BDRip 1080p [HEVC] 10 bit от AlexTwitt
HEVC
10 bit
Обложка Репортаж / [Rec] (2007) BDRip 1080p [HEVC] 10 bit от AlexTwitt Год: 2007
Страна: Испания
Студия: Filmax
Жанр: Ужасы, Триллер, Мистика, Драма
Продолжительность: 01:18:27

Режиссер: Жауме Балагеро, Пако Пласа
В ролях: Мануэла Веласко, Ферран Терраза, Пабло Россо, Хавьер Боте, Мануэль Брончад, Марта Карбонелл, Клаудия Фонт, Винсент Джил, Мария Ланау, Карлос Ласарте

Описание: Все журналисты жаждут сенсаций! Но начинающий телерепортёр Анхела Видаль из хроники происшествий — жаждет особенно страстно. С завидным упорством она ищет уникальный материал, а потому выезжает с командой спасателей на место жуткого происшествия в большом жилом доме. Прибыв туда, Анхела, азартно занятая работой, не сразу понимает, откуда именно она ведет свой репортаж. Осознание жуткой реальности приходит слишком поздно. Жители дома, пораженные страшным вирусом, один за другим превращаются в зомби. Чтобы зараза не вырвалась на улицы города, власти заблокировали дом — выхода нет! Но телекамера будет работать до конца…


Видео: 1920x1040, ~8006 Kbps
Аудио: DTS, 6 ch, 768 Kbps - РусскийРусский, Дублированный (Лицензия)
Субтитры: Отсутствуют

Медиаинфо
Общее
Уникальный идентификатор : 84908937297792272707970109948459543093 (0x3FE0DDD2359E6E38FCA0672F0A2CEA35)
Полное имя : \\Keenetic_extra\20d0d59dd0d57a0c\loads\Rec\01 Репортаж BDRip 1080 [HEVC] 10 bit.mkv
Формат : Matroska
Версия формата : Version 4
Размер файла : 4,92 Гбайт
Продолжительность : 1 ч. 18 м.
Общий поток : 8952 Кбит/сек
Программа кодирования : XviD4PSP 7.0.466 DAILY
Библиотека кодирования : Lavf57.71.100
ErrorDetectionType : Per level 1
ENCODING_INFO : MATROSKA,WEBM > MKV Пользовательский / H264 > X265 CRF 20.0 Medium / DTS > DTS CBR 768kbps

Видео
Идентификатор : 1
Формат : HEVC
Формат/Информация : High Efficiency Video Coding
Профиль формата : Main 10@L5.1@High
Идентификатор кодека : V_MPEGH/ISO/HEVC
Продолжительность : 1 ч. 18 м.
Битрейт : 8006 Кбит/сек
Ширина : 1920 пикселей
Высота : 1040 пикселей
Соотношение сторон : 1,85:1
Режим частоты кадров : Постоянный
Частота кадров : 23,976 (24000/1001) кадра/сек
Цветовое пространство : YUV
Субдискретизация насыщенности : 4:2:0
Битовая глубина : 10 бит
Бит/(Пиксели*Кадры) : 0.167
Размер потока : 4,40 Гбайт (89%)
Заголовок : MPEG-4 AVC Video / 19955 kbps / 1080p / 23.976 fps / 16:9 / High Profile 4.1
Библиотека кодирования : x265 2.9+9-f74003e88622:[Windows][GCC 8.2.0][64 bit] 10bit
Настройки программы : cpuid=1049583 / frame-threads=5 / numa-pools=4 / wpp / no-pmode / no-pme / no-psnr / no-ssim / log-level=3 / input-csp=1 / input-res=1920x1040 / interlace=0 / total-frames=0 / level-idc=51 / high-tier=1 / uhd-bd=0 / ref=5 / allow-non-conformance / no-repeat-headers / annexb / no-aud / no-hrd / info / hash=0 / no-temporal-layers / open-gop / min-keyint=24 / keyint=240 / gop-lookahead=0 / bframes=8 / b-adapt=2 / b-pyramid / bframe-bias=0 / rc-lookahead=40 / lookahead-slices=6 / scenecut=40 / radl=0 / no-intra-refresh / ctu=64 / min-cu-size=8 / no-rect / no-amp / max-tu-size=32 / tu-inter-depth=1 / tu-intra-depth=1 / limit-tu=0 / rdoq-level=0 / dynamic-rd=0.00 / no-ssim-rd / signhide / no-tskip / nr-intra=0 / nr-inter=0 / no-constrained-intra / no-strong-intra-smoothing / max-merge=2 / limit-refs=3 / no-limit-modes / me=3 / subme=7 / merange=57 / temporal-mvp / weightp / no-weightb / no-analyze-src-pics / deblock=-3:-3 / no-sao / no-sao-non-deblock / rd=3 / no-early-skip / rskip / no-fast-intra / no-tskip-fast / no-cu-lossless / no-b-intra / no-splitrd-skip / rdpenalty=0 / psy-rd=2.00 / psy-rdoq=0.00 / no-rd-refine / no-lossless / cbqpoffs=0 / crqpoffs=0 / rc=crf / crf=20.0 / qcomp=0.60 / qpstep=4 / stats-write=0 / stats-read=0 / vbv-maxrate=50000 / vbv-bufsize=50000 / vbv-init=0.9 / crf-max=0.0 / crf-min=0.0 / ipratio=1.40 / pbratio=1.30 / aq-mode=1 / aq-strength=1.00 / cutree / zone-count=0 / no-strict-cbr / qg-size=32 / no-rc-grain / qpmax=69 / qpmin=0 / no-const-vbv / sar=1 / overscan=0 / videoformat=5 / range=0 / colorprim=1 / transfer=1 / colormatrix=1 / chromaloc=0 / display-window=0 / max-cll=0,0 / min-luma=0 / max-luma=1023 / log2-max-poc-lsb=8 / vui-timing-info / vui-hrd-info / slices=1 / no-opt-qp-pps / no-opt-ref-list-length-pps / no-multi-pass-opt-rps / scenecut-bias=0.05 / no-opt-cu-delta-qp / no-aq-motion / no-hdr / no-hdr-opt / no-dhdr10-opt / no-idr-recovery-sei / analysis-reuse-level=5 / scale-factor=0 / refine-intra=0 / refine-inter=0 / refine-mv=0 / no-limit-sao / ctu-info=0 / no-lowpass-dct / refine-mv-type=0 / copy-pic=1 / max-ausize-factor=1.0 / no-dynamic-refine / no-single-sei
Язык : Spanish
Default : Да
Forced : Нет
Цветовой диапазон : Limited
Основные цвета : BT.709
Характеристики трансфера : BT.709
Коэффициенты матрицы : BT.709

Аудио
Идентификатор : 2
Формат : DTS
Формат/Информация : Digital Theater Systems
Идентификатор кодека : A_DTS
Продолжительность : 1 ч. 18 м.
Вид битрейта : Постоянный
Битрейт : 768 Кбит/сек
Каналы : 6 каналов
Channel layout : C L R Ls Rs LFE
Частота : 48,0 КГц
Частота кадров : 93,750 кадра/сек (512 SPF)
Битовая глубина : 16 бит
Метод сжатия : С потерями
Размер потока : 432 Мбайт (9%)
Заголовок : Русский Дубляж / DTS / 5.1 / 48 kHz / 768 kbps / 16-bit
Язык : Russian
Default : Да
Forced : Нет
Загрузка...Cкриншот1 Репортаж / [Rec] (2007) BDRip 1080p [HEVC] 10 bit от AlexTwittЗагрузка...Cкриншот2 Репортаж / [Rec] (2007) BDRip 1080p [HEVC] 10 bit от AlexTwittЗагрузка...Cкриншот3 Репортаж / [Rec] (2007) BDRip 1080p [HEVC] 10 bit от AlexTwittЗагрузка...Cкриншот4 Репортаж / [Rec] (2007) BDRip 1080p [HEVC] 10 bit от AlexTwitt
2. Репортаж из преисподней / [Rec]² (2009) BDRip 1080p [HEVC] 10 bit от AlexTwitt
HEVC
10 bit
Обложка Репортаж из преисподней / [Rec]² (2009) BDRip 1080p [HEVC] 10 bit от AlexTwitt Год: 2009
Страна: Испания
Студия: Filmax
Жанр: Ужасы, Триллер, Мистика, Драма
Продолжительность: 01:24:19

Режиссер: Жауме Балагеро, Пако Пласа
В ролях: Джонатан Меллор, Мануэла Веласко, Оскар Зафра, Эриель Касас, Пабло Россо, Пеп Молина, Андреа Рос

Описание: Отряд спецназовцев вместе с медицинским работником проникают в дом, ставший эпицентром распространившейся заразы, превращающей людей в безумных пожирателей плоти…


Видео: 1920x1040, ~7863 Kbps
Аудио: AC3, 6 ch, 384 Kbps - РусскийРусский, Дублированный (Лицензия)
Субтитры: Отсутствуют

Медиаинфо
Общее
Уникальный идентификатор : 136774282467178882125450281607191623249 (0x66E5C4C472BDDC6D7289E349D6A07651)
Полное имя : \\Keenetic_extra\20d0d59dd0d57a0c\loads\Rec\02 Репортаж из преисподней BDRip 1080 [HEVC] 10 bit.mkv
Формат : Matroska
Версия формата : Version 4
Размер файла : 4,96 Гбайт
Продолжительность : 1 ч. 24 м.
Общий поток : 8414 Кбит/сек
Программа кодирования : XviD4PSP 7.0.466 DAILY
Библиотека кодирования : Lavf57.71.100
ErrorDetectionType : Per level 1
ENCODING_INFO : MATROSKA,WEBM > MKV Пользовательский / H264 > X265 CRF 20.0 Medium / AC3 > COPY Безопасное

Видео
Идентификатор : 1
Формат : HEVC
Формат/Информация : High Efficiency Video Coding
Профиль формата : Main 10@L5.1@High
Идентификатор кодека : V_MPEGH/ISO/HEVC
Продолжительность : 1 ч. 24 м.
Битрейт : 7863 Кбит/сек
Ширина : 1920 пикселей
Высота : 1040 пикселей
Соотношение сторон : 1,85:1
Режим частоты кадров : Постоянный
Частота кадров : 23,976 (24000/1001) кадра/сек
Цветовое пространство : YUV
Субдискретизация насыщенности : 4:2:0
Битовая глубина : 10 бит
Бит/(Пиксели*Кадры) : 0.164
Размер потока : 4,63 Гбайт (93%)
Заголовок : MPEG-4 AVC Video / 23142 kbps / 1080p / 23.976 fps / 16:9 / High Profile 4.1
Библиотека кодирования : x265 2.9+9-f74003e88622:[Windows][GCC 8.2.0][64 bit] 10bit
Настройки программы : cpuid=1049583 / frame-threads=5 / numa-pools=4 / wpp / no-pmode / no-pme / no-psnr / no-ssim / log-level=3 / input-csp=1 / input-res=1920x1040 / interlace=0 / total-frames=0 / level-idc=51 / high-tier=1 / uhd-bd=0 / ref=5 / allow-non-conformance / no-repeat-headers / annexb / no-aud / no-hrd / info / hash=0 / no-temporal-layers / open-gop / min-keyint=24 / keyint=240 / gop-lookahead=0 / bframes=8 / b-adapt=2 / b-pyramid / bframe-bias=0 / rc-lookahead=40 / lookahead-slices=6 / scenecut=40 / radl=0 / no-intra-refresh / ctu=64 / min-cu-size=8 / no-rect / no-amp / max-tu-size=32 / tu-inter-depth=1 / tu-intra-depth=1 / limit-tu=0 / rdoq-level=0 / dynamic-rd=0.00 / no-ssim-rd / signhide / no-tskip / nr-intra=0 / nr-inter=0 / no-constrained-intra / no-strong-intra-smoothing / max-merge=2 / limit-refs=3 / no-limit-modes / me=3 / subme=7 / merange=57 / temporal-mvp / weightp / no-weightb / no-analyze-src-pics / deblock=-3:-3 / no-sao / no-sao-non-deblock / rd=3 / no-early-skip / rskip / no-fast-intra / no-tskip-fast / no-cu-lossless / no-b-intra / no-splitrd-skip / rdpenalty=0 / psy-rd=2.00 / psy-rdoq=0.00 / no-rd-refine / no-lossless / cbqpoffs=0 / crqpoffs=0 / rc=crf / crf=20.0 / qcomp=0.60 / qpstep=4 / stats-write=0 / stats-read=0 / vbv-maxrate=50000 / vbv-bufsize=50000 / vbv-init=0.9 / crf-max=0.0 / crf-min=0.0 / ipratio=1.40 / pbratio=1.30 / aq-mode=1 / aq-strength=1.00 / cutree / zone-count=0 / no-strict-cbr / qg-size=32 / no-rc-grain / qpmax=69 / qpmin=0 / no-const-vbv / sar=1 / overscan=0 / videoformat=5 / range=0 / colorprim=1 / transfer=1 / colormatrix=1 / chromaloc=0 / display-window=0 / max-cll=0,0 / min-luma=0 / max-luma=1023 / log2-max-poc-lsb=8 / vui-timing-info / vui-hrd-info / slices=1 / no-opt-qp-pps / no-opt-ref-list-length-pps / no-multi-pass-opt-rps / scenecut-bias=0.05 / no-opt-cu-delta-qp / no-aq-motion / no-hdr / no-hdr-opt / no-dhdr10-opt / no-idr-recovery-sei / analysis-reuse-level=5 / scale-factor=0 / refine-intra=0 / refine-inter=0 / refine-mv=0 / no-limit-sao / ctu-info=0 / no-lowpass-dct / refine-mv-type=0 / copy-pic=1 / max-ausize-factor=1.0 / no-dynamic-refine / no-single-sei
Язык : Spanish
Default : Да
Forced : Нет
Цветовой диапазон : Limited
Основные цвета : BT.709
Характеристики трансфера : BT.709
Коэффициенты матрицы : BT.709

Аудио
Идентификатор : 2
Формат : AC-3
Формат/Информация : Audio Coding 3
Коммерческое название : Dolby Digital
Идентификатор кодека : A_AC3
Продолжительность : 1 ч. 24 м.
Вид битрейта : Постоянный
Битрейт : 384 Кбит/сек
Каналы : 6 каналов
Channel layout : L R C LFE Ls Rs
Частота : 48,0 КГц
Частота кадров : 31,250 кадров/сек (1536 SPF)
Битовая глубина : 16 бит
Метод сжатия : С потерями
Размер потока : 232 Мбайт (5%)
Заголовок : Дубляж / AC3 / 5.1 / 48 kHz / 384 kbps
Язык : Russian
ServiceKind/String : Complete Main
Default : Да
Forced : Нет
Загрузка...Cкриншот1 Репортаж из преисподней / [Rec]² (2009) BDRip 1080p [HEVC] 10 bit от AlexTwittЗагрузка...Cкриншот2 Репортаж из преисподней / [Rec]² (2009) BDRip 1080p [HEVC] 10 bit от AlexTwittЗагрузка...Cкриншот3 Репортаж из преисподней / [Rec]² (2009) BDRip 1080p [HEVC] 10 bit от AlexTwittЗагрузка...Cкриншот4 Репортаж из преисподней / [Rec]² (2009) BDRip 1080p [HEVC] 10 bit от AlexTwitt
2. Репортаж со свадьбы / [Rec]³: Génesis (2011) BDRip 1080p [HEVC] 10 bit от AlexTwitt
HEVC
10 bit
Обложка Репортаж со свадьбы / [Rec]³: Génesis (2011) BDRip 1080p [HEVC] 10 bit от AlexTwitt Год: 2011
Страна: Испания
Студия: Filmax
Жанр: Ужасы, Триллер, Мистика, Драма
Продолжительность: 01:20:17

Режиссер: Пако Пласа
В ролях: Летисия Долера, Алекс Мольнер, Диего Мартин, Мирейа Рос, Исмаэль Мартинес, Ана Исабель Веласкес, Ицияр Кастро, Эмилио Менчета, Блай Льопис

Описание: Столь знаменательное событие как свадьба превращается в сущий ад. Гости и жених с невестой вынуждены не радоваться и праздновать, а спасать свои жизни.


Видео: 1920x1080, ~4271 Kbps
Аудио: AC3, 6 ch, 384 Kbps - РусскийРусский, Дублированный (Лицензия)
Субтитры: Отсутствуют

Медиаинфо
Общее
Уникальный идентификатор : 319249840108576680990631217880273537430 (0xF02D485DC1649A2A5FB74452274C4996)
Полное имя : \\Keenetic_extra\20d0d59dd0d57a0c\loads\Rec\03 Репортаж со свадьбы BDRip 1080 [HEVC] 10 bit.mkv
Формат : Matroska
Версия формата : Version 4
Размер файла : 2,66 Гбайт
Продолжительность : 1 ч. 20 м.
Общий поток : 4750 Кбит/сек
Программа кодирования : XviD4PSP 7.0.466 DAILY
Библиотека кодирования : Lavf57.71.100
ErrorDetectionType : Per level 1
ENCODING_INFO : MATROSKA,WEBM > MKV Пользовательский / H264 > X265 CRF 20.0 Medium / AC3 > COPY Безопасное

Видео
Идентификатор : 1
Формат : HEVC
Формат/Информация : High Efficiency Video Coding
Профиль формата : Main 10@L5.1@High
Идентификатор кодека : V_MPEGH/ISO/HEVC
Продолжительность : 1 ч. 20 м.
Битрейт : 4271 Кбит/сек
Ширина : 1920 пикселей
Высота : 1080 пикселей
Соотношение сторон : 16:9
Режим частоты кадров : Постоянный
Частота кадров : 24,000 кадра/сек
Цветовое пространство : YUV
Субдискретизация насыщенности : 4:2:0
Битовая глубина : 10 бит
Бит/(Пиксели*Кадры) : 0.086
Размер потока : 2,40 Гбайт (90%)
Заголовок : hdclub
Библиотека кодирования : x265 2.9+9-f74003e88622:[Windows][GCC 8.2.0][64 bit] 10bit
Настройки программы : cpuid=1049583 / frame-threads=5 / numa-pools=4 / wpp / no-pmode / no-pme / no-psnr / no-ssim / log-level=3 / input-csp=1 / input-res=1920x1080 / interlace=0 / total-frames=0 / level-idc=51 / high-tier=1 / uhd-bd=0 / ref=5 / allow-non-conformance / no-repeat-headers / annexb / no-aud / no-hrd / info / hash=0 / no-temporal-layers / open-gop / min-keyint=24 / keyint=240 / gop-lookahead=0 / bframes=8 / b-adapt=2 / b-pyramid / bframe-bias=0 / rc-lookahead=40 / lookahead-slices=6 / scenecut=40 / radl=0 / no-intra-refresh / ctu=64 / min-cu-size=8 / no-rect / no-amp / max-tu-size=32 / tu-inter-depth=1 / tu-intra-depth=1 / limit-tu=0 / rdoq-level=0 / dynamic-rd=0.00 / no-ssim-rd / signhide / no-tskip / nr-intra=0 / nr-inter=0 / no-constrained-intra / no-strong-intra-smoothing / max-merge=2 / limit-refs=3 / no-limit-modes / me=3 / subme=7 / merange=57 / temporal-mvp / weightp / no-weightb / no-analyze-src-pics / deblock=-3:-3 / no-sao / no-sao-non-deblock / rd=3 / no-early-skip / rskip / no-fast-intra / no-tskip-fast / no-cu-lossless / no-b-intra / no-splitrd-skip / rdpenalty=0 / psy-rd=2.00 / psy-rdoq=0.00 / no-rd-refine / no-lossless / cbqpoffs=0 / crqpoffs=0 / rc=crf / crf=20.0 / qcomp=0.60 / qpstep=4 / stats-write=0 / stats-read=0 / vbv-maxrate=50000 / vbv-bufsize=50000 / vbv-init=0.9 / crf-max=0.0 / crf-min=0.0 / ipratio=1.40 / pbratio=1.30 / aq-mode=1 / aq-strength=1.00 / cutree / zone-count=0 / no-strict-cbr / qg-size=32 / no-rc-grain / qpmax=69 / qpmin=0 / no-const-vbv / sar=1 / overscan=0 / videoformat=5 / range=0 / colorprim=1 / transfer=1 / colormatrix=1 / chromaloc=0 / display-window=0 / max-cll=0,0 / min-luma=0 / max-luma=1023 / log2-max-poc-lsb=8 / vui-timing-info / vui-hrd-info / slices=1 / no-opt-qp-pps / no-opt-ref-list-length-pps / no-multi-pass-opt-rps / scenecut-bias=0.05 / no-opt-cu-delta-qp / no-aq-motion / no-hdr / no-hdr-opt / no-dhdr10-opt / no-idr-recovery-sei / analysis-reuse-level=5 / scale-factor=0 / refine-intra=0 / refine-inter=0 / refine-mv=0 / no-limit-sao / ctu-info=0 / no-lowpass-dct / refine-mv-type=0 / copy-pic=1 / max-ausize-factor=1.0 / no-dynamic-refine / no-single-sei
Default : Да
Forced : Нет
Цветовой диапазон : Limited
Основные цвета : BT.709
Характеристики трансфера : BT.709
Коэффициенты матрицы : BT.709

Аудио
Идентификатор : 2
Формат : AC-3
Формат/Информация : Audio Coding 3
Коммерческое название : Dolby Digital
Идентификатор кодека : A_AC3
Продолжительность : 1 ч. 20 м.
Вид битрейта : Постоянный
Битрейт : 384 Кбит/сек
Каналы : 6 каналов
Channel layout : L R C LFE Ls Rs
Частота : 48,0 КГц
Частота кадров : 31,250 кадров/сек (1536 SPF)
Битовая глубина : 16 бит
Метод сжатия : С потерями
Размер потока : 220 Мбайт (8%)
Заголовок : Лицензия (Дубляж)
Язык : Russian
ServiceKind/String : Complete Main
Default : Да
Forced : Да

Меню
00:00:00.000 : :00:00:00.000
00:06:41.917 : :00:06:41.917
00:13:34.833 : :00:13:34.833
00:21:41.167 : :00:21:41.167
00:26:43.375 : :00:26:43.375
00:33:38.958 : :00:33:38.958
00:40:44.667 : :00:40:44.667
00:45:31.500 : :00:45:31.500
00:51:53.208 : :00:51:53.208
00:59:23.208 : :00:59:23.208
01:05:10.875 : :01:05:10.875
01:09:37.375 : :01:09:37.375
Загрузка...Cкриншот1 Репортаж со свадьбы / [Rec]³: Génesis (2011) BDRip 1080p [HEVC] 10 bit от AlexTwittЗагрузка...Cкриншот2 Репортаж со свадьбы / [Rec]³: Génesis (2011) BDRip 1080p [HEVC] 10 bit от AlexTwittЗагрузка...Cкриншот3 Репортаж со свадьбы / [Rec]³: Génesis (2011) BDRip 1080p [HEVC] 10 bit от AlexTwittЗагрузка...Cкриншот4 Репортаж со свадьбы / [Rec]³: Génesis (2011) BDRip 1080p [HEVC] 10 bit от AlexTwitt
4. Репортаж: Апокалипсис / [REC] 4: Apocalipsis (2014) BDRip 1080p [HEVC] 10 bit от AlexTwitt
HEVC
10 bit
Обложка Репортаж: Апокалипсис / [REC] 4: Apocalipsis (2014) BDRip 1080p [HEVC] 10 bit от AlexTwitt Год: 2014
Страна: Испания
Студия: Filmax
Жанр: Ужасы, Триллер, Мистика, Драма
Продолжительность: 01:34:58

Режиссер: Жауме Балагеро
В ролях: Мануэла Веласко, Хавьер Ботет, Пако Мансанедо, Мария Альфонса Россо, Исмаэль Фричи, Криспуло Кабесас, Мариано Венансио, Эмилио Буале, Эктор Коломе, Марк Шардан

Описание: Анхела приходит в себя на корабле посреди океана. После вспышки эпидемии неизвестного вируса, превращающего людей в зомби, ученые решили изолировать инфицированных, но не заболевших людей, чтобы исследовать природу заразы. На специально оборудованном бывшем нефтяном танкере есть все необходимое оборудование для проведения лабораторных экспериментов. Но ни ученые, ни команда даже не догадываются, что их ждет.


Видео: 1920x804, ~3976 Kbps
Аудио: AC3, 6 ch, 448 Kbps - РусскийРусский, Дублированный (Лицензия)
Субтитры: Отсутствуют

Медиаинфо
Общее
Уникальный идентификатор : 306955163768150962564744470769985868930 (0xE6ED6A05A3760A3260196F1D023B5482)
Полное имя : \\Keenetic_extra\20d0d59dd0d57a0c\loads\Rec\04 Репортаж Апокалипсис BDRip 1080 [HEVC] 10 bit.mkv
Формат : Matroska
Версия формата : Version 4
Размер файла : 3,00 Гбайт
Продолжительность : 1 ч. 35 м.
Общий поток : 4514 Кбит/сек
Программа кодирования : XviD4PSP 7.0.466 DAILY
Библиотека кодирования : Lavf57.71.100
ErrorDetectionType : Per level 1
ENCODING_INFO : MATROSKA,WEBM > MKV Пользовательский / H264 > X265 CRF 18.0 Medium / AC3 > COPY Безопасное

Видео
Идентификатор : 1
Формат : HEVC
Формат/Информация : High Efficiency Video Coding
Профиль формата : Main 10@L5.1@High
Идентификатор кодека : V_MPEGH/ISO/HEVC
Продолжительность : 1 ч. 35 м.
Битрейт : 3976 Кбит/сек
Ширина : 1920 пикселей
Высота : 804 пикселя
Соотношение сторон : 2,40:1
Режим частоты кадров : Постоянный
Частота кадров : 24,000 кадра/сек
Цветовое пространство : YUV
Субдискретизация насыщенности : 4:2:0
Битовая глубина : 10 бит
Бит/(Пиксели*Кадры) : 0.107
Размер потока : 2,64 Гбайт (88%)
Библиотека кодирования : x265 2.9+9-f74003e88622:[Windows][GCC 8.2.0][64 bit] 10bit
Настройки программы : cpuid=1049583 / frame-threads=5 / numa-pools=4 / wpp / no-pmode / no-pme / no-psnr / no-ssim / log-level=3 / input-csp=1 / input-res=1920x804 / interlace=0 / total-frames=0 / level-idc=51 / high-tier=1 / uhd-bd=0 / ref=5 / allow-non-conformance / no-repeat-headers / annexb / no-aud / no-hrd / info / hash=0 / no-temporal-layers / open-gop / min-keyint=24 / keyint=240 / gop-lookahead=0 / bframes=8 / b-adapt=2 / b-pyramid / bframe-bias=0 / rc-lookahead=40 / lookahead-slices=5 / scenecut=40 / radl=0 / no-intra-refresh / ctu=64 / min-cu-size=8 / no-rect / no-amp / max-tu-size=32 / tu-inter-depth=1 / tu-intra-depth=1 / limit-tu=0 / rdoq-level=0 / dynamic-rd=0.00 / no-ssim-rd / signhide / no-tskip / nr-intra=0 / nr-inter=0 / no-constrained-intra / no-strong-intra-smoothing / max-merge=2 / limit-refs=3 / no-limit-modes / me=3 / subme=7 / merange=57 / temporal-mvp / weightp / no-weightb / no-analyze-src-pics / deblock=-3:-3 / no-sao / no-sao-non-deblock / rd=3 / no-early-skip / rskip / no-fast-intra / no-tskip-fast / no-cu-lossless / no-b-intra / no-splitrd-skip / rdpenalty=0 / psy-rd=2.00 / psy-rdoq=0.00 / no-rd-refine / no-lossless / cbqpoffs=0 / crqpoffs=0 / rc=crf / crf=18.0 / qcomp=0.60 / qpstep=4 / stats-write=0 / stats-read=0 / vbv-maxrate=50000 / vbv-bufsize=50000 / vbv-init=0.9 / crf-max=0.0 / crf-min=0.0 / ipratio=1.40 / pbratio=1.30 / aq-mode=1 / aq-strength=1.00 / cutree / zone-count=0 / no-strict-cbr / qg-size=32 / no-rc-grain / qpmax=69 / qpmin=0 / no-const-vbv / sar=1 / overscan=0 / videoformat=5 / range=0 / colorprim=1 / transfer=1 / colormatrix=1 / chromaloc=0 / display-window=0 / max-cll=0,0 / min-luma=0 / max-luma=1023 / log2-max-poc-lsb=8 / vui-timing-info / vui-hrd-info / slices=1 / no-opt-qp-pps / no-opt-ref-list-length-pps / no-multi-pass-opt-rps / scenecut-bias=0.05 / no-opt-cu-delta-qp / no-aq-motion / no-hdr / no-hdr-opt / no-dhdr10-opt / no-idr-recovery-sei / analysis-reuse-level=5 / scale-factor=0 / refine-intra=0 / refine-inter=0 / refine-mv=0 / no-limit-sao / ctu-info=0 / no-lowpass-dct / refine-mv-type=0 / copy-pic=1 / max-ausize-factor=1.0 / no-dynamic-refine / no-single-sei
Язык : Spanish
Default : Да
Forced : Нет
Цветовой диапазон : Limited
Основные цвета : BT.709
Характеристики трансфера : BT.709
Коэффициенты матрицы : BT.709

Аудио
Идентификатор : 2
Формат : AC-3
Формат/Информация : Audio Coding 3
Коммерческое название : Dolby Digital
Идентификатор кодека : A_AC3
Продолжительность : 1 ч. 35 м.
Вид битрейта : Постоянный
Битрейт : 448 Кбит/сек
Каналы : 6 каналов
Channel layout : L R C LFE Ls Rs
Частота : 48,0 КГц
Частота кадров : 31,250 кадров/сек (1536 SPF)
Битовая глубина : 16 бит
Метод сжатия : С потерями
Размер потока : 305 Мбайт (10%)
Язык : Russian
ServiceKind/String : Complete Main
Default : Да
Forced : Нет

Меню
00:00:00.000 : :Chapter 01
00:09:17.041 : :Chapter 02
00:18:43.833 : :Chapter 03
00:27:26.500 : :Chapter 04
00:40:36.291 : :Chapter 05
00:48:46.458 : :Chapter 06
01:00:18.916 : :Chapter 07
01:09:55.957 : :Chapter 08
01:17:23.250 : :Chapter 09
01:24:25.791 : :Chapter 10
Загрузка...Cкриншот1 Репортаж: Апокалипсис / [REC] 4: Apocalipsis (2014) BDRip 1080p [HEVC] 10 bit от AlexTwittЗагрузка...Cкриншот2 Репортаж: Апокалипсис / [REC] 4: Apocalipsis (2014) BDRip 1080p [HEVC] 10 bit от AlexTwittЗагрузка...Cкриншот3 Репортаж: Апокалипсис / [REC] 4: Apocalipsis (2014) BDRip 1080p [HEVC] 10 bit от AlexTwittЗагрузка...Cкриншот4 Репортаж: Апокалипсис / [REC] 4: Apocalipsis (2014) BDRip 1080p [HEVC] 10 bit от AlexTwitt
Торрент🧲 Магнет

Рейтинги КП и IMDB, кнопки "Позвать в чате" и "Спасибо", а также мультитрекерная статистика доступны только зарегистрированным/авторизованным пользователям!

Файлы: 4
  • Rec
    • 01 Репортаж BDRip 1080 [HEVC] 10 bit.mkv   4.92 ГБ
    • 02 Репортаж из преисподней BDRip 1080 [HEVC] 10 bit.mkv   4.96 ГБ
    • 03 Репортаж со свадьбы BDRip 1080 [HEVC] 10 bit.mkv   2.66 ГБ
    • 04 Репортаж Апокалипсис BDRip 1080 [HEVC] 10 bit.mkv   3 ГБ
Поблагодарили: 17
375509, aacg, brukvalub, demons22, den233, Guga, icesnoop, ivan_1965, MIGRANT, mvclub, SaN161NeK, SERGIY, Stigmatlazy, VardO, Vitoss6, Vladimir1981, Wikkjaz
AlexTwitt
026800 (4)  15.53 ГБ

Добавление нового комментария

Добавление комментариев доступно только зарегистрированным/авторизованным пользователям.