💬 Мини-чат

BrooklynOldGamer, Ок, спасибо, качаю.
OldGamerBrooklyn, они все на раздаче пока что
BrooklynOldGamer, Пораздавайте, пожалуйста, все сезоны сериала "Гримм" ближайшие 3 дня, очень хочу их забрать. Качество отличное. Заранее Благодарен.
StarLordСообщение удалено (удалил: StarLord)
OldGamerвыводить
mafo2Admin, можно вывести, наглядно будет
StarLordAdmin, +
AdminНадпись HDR выводить на обложку?
OldGamerGiggalo, но лучше всего вообще не затрагивайте этот ключ, по умолчанию будет установлено оптимальное значение
OldGamerGiggalo, но если уж очень хочется то пишите --frame-threads 3
OldGamerGiggalo, а зачем его менять?) нужное значение устанавливается автоматически
GiggaloДобрый вечер всем! OldGamer Покажи пожалуйста почему когда пишу в командной строке frame-threads=3 он не меняется. Какой там стоит 13 он его и держит, а ругие установки спокойно меняет?
AdminStarLord, спасибо. Пока сойдет.
StarLordAdmin, ага, вижу
StarLordAdmin, а как должно брать?
AdminStarLord, ты шаришь?
AdminStarLord, у меня сейчас такая, но с точками беда. Доработать бы (https?://([-\w\.]+)+(:\d+)?(/([-\w/_:%]*(\.\w+)*(\?\S+)?)?)?)
AdminStarLord, скрины в bb некорректно берет
StarLordwww, ftp(s), http(s), #, :, &
StarLordAdmin, все мои кейсы покрыла
  • OldGamer
  • Spartanec1308
  • donadar
  • InSpector
  • moonson
Отправка сообщений доступна только зарегистрированным/авторизованным пользователям.
Онлайн (за 10 мин.): 5

Уиджи: Дилогия / Ouija: Dilogy (2014-2016) BDRip 1080p [HEVC] 10 bit от AlexTwitt

HEVC
10 bit
Обложка Уиджи: Дилогия / Ouija: Dilogy (2014-2016) BDRip 1080p [HEVC] 10 bit от AlexTwitt Год: 2014-2016
Страна: Япония, США, Китай
Жанр: Ужасы, Триллер, Драма

1. Уиджи: Доска Дьявола / Ouija (2014) BDRip 1080p [HEVC] 10 bit от AlexTwitt
HEVC
10 bit
Обложка Уиджи: Доска Дьявола / Ouija (2014) BDRip 1080p [HEVC] 10 bit от AlexTwitt Год: 2014
Страна: Япония, США
Студия: Blumhouse Productions, Dentsu, Fuji Television Network Inc., Hasbro Studios, Platinum Dunes
Жанр: Ужасы, Триллер, Драма
Продолжительность: 01:29:23

Режиссер: Стайлз Уайт
В ролях: Оливия Кук, Ана Кото, Дарен Кагасофф, Бьянка А. Сантос, Дуглас Смит, Шелли Хенниг, Сьерра Хойерманн, Санни Мэй Эллисон, Лин Шэй, Клаудия Кац

Описание: Компания друзей вынуждена столкнуться с их самыми страшными кошмарами, после того, как пробуждает темные силы с помощью спиритической доски.


Видео: 1920x800, ~5281 Kbps
Аудио: AC3, 6 ch, 448 Kbps - РусскийРусский, Дублированный (Лицензия)
Субтитры: Русские (форсированные)

Медиаинфо
Общее
Уникальный идентификатор : 179447504168822783751889267882207786302 (0x870055094096D14C9EF6887894E4B53E)
Полное имя : \\Keenetic_extra\20d0d59dd0d57a0c\loads\Ouija\01 Ouija BDRip 1080 [HEVC] 10 bit.mkv
Формат : Matroska
Версия формата : Version 4
Размер файла : 3,58 Гбайт
Продолжительность : 1 ч. 29 м.
Общий поток : 5731 Кбит/сек
Дата кодирования : UTC 2019-03-11 06:42:54
Программа кодирования : mkvmerge v31.0.0 ('Dolores In A Shoestand') 64-bit
Библиотека кодирования : libebml v1.3.6 + libmatroska v1.4.9

Видео
Идентификатор : 1
Формат : HEVC
Формат/Информация : High Efficiency Video Coding
Профиль формата : Main 10@L5.1@High
Идентификатор кодека : V_MPEGH/ISO/HEVC
Продолжительность : 1 ч. 29 м.
Битрейт : 5281 Кбит/сек
Ширина : 1920 пикселей
Высота : 800 пикселей
Соотношение сторон : 2,40:1
Режим частоты кадров : Постоянный
Частота кадров : 23,976 (24000/1001) кадра/сек
Цветовое пространство : YUV
Субдискретизация насыщенности : 4:2:0
Битовая глубина : 10 бит
Бит/(Пиксели*Кадры) : 0.143
Размер потока : 3,30 Гбайт (92%)
Библиотека кодирования : x265 3.0_Au+3-5b90dc59b57a:[Windows][clang 7.0.1][64 bit] 10bit
Настройки программы : cpuid=1049583 / frame-threads=5 / numa-pools=4 / wpp / no-pmode / no-pme / no-psnr / no-ssim / log-level=3 / input-csp=1 / input-res=1920x800 / interlace=0 / total-frames=0 / level-idc=51 / high-tier=1 / uhd-bd=0 / ref=5 / allow-non-conformance / no-repeat-headers / annexb / no-aud / no-hrd / info / hash=0 / no-temporal-layers / open-gop / min-keyint=23 / keyint=240 / gop-lookahead=0 / bframes=8 / b-adapt=2 / b-pyramid / bframe-bias=0 / rc-lookahead=60 / lookahead-slices=5 / scenecut=40 / radl=0 / no-splice / no-intra-refresh / ctu=64 / min-cu-size=8 / no-rect / no-amp / max-tu-size=32 / tu-inter-depth=1 / tu-intra-depth=1 / limit-tu=0 / rdoq-level=0 / dynamic-rd=0.00 / no-ssim-rd / signhide / no-tskip / nr-intra=0 / nr-inter=0 / no-constrained-intra / no-strong-intra-smoothing / max-merge=2 / limit-refs=3 / no-limit-modes / me=3 / subme=7 / merange=57 / temporal-mvp / weightp / no-weightb / no-analyze-src-pics / deblock=-3:-3 / no-sao / no-sao-non-deblock / rd=3 / no-early-skip / rskip / no-fast-intra / no-tskip-fast / no-cu-lossless / no-b-intra / no-splitrd-skip / rdpenalty=0 / psy-rd=2.00 / psy-rdoq=0.00 / no-rd-refine / no-lossless / cbqpoffs=0 / crqpoffs=0 / rc=crf / crf=18.0 / qcomp=0.70 / qpstep=4 / stats-write=0 / stats-read=0 / vbv-maxrate=50000 / vbv-bufsize=50000 / vbv-init=0.9 / crf-max=30.0 / crf-min=0.0 / ipratio=1.40 / pbratio=1.30 / aq-mode=1 / aq-strength=1.00 / no-cutree / zone-count=0 / no-strict-cbr / qg-size=32 / no-rc-grain / qpmax=69 / qpmin=0 / no-const-vbv / sar=1 / overscan=0 / videoformat=5 / range=0 / colorprim=2 / transfer=2 / colormatrix=2 / chromaloc=0 / display-window=0 / max-cll=0,0 / min-luma=0 / max-luma=1023 / log2-max-poc-lsb=8 / vui-timing-info / vui-hrd-info / slices=1 / no-opt-qp-pps / no-opt-ref-list-length-pps / no-multi-pass-opt-rps / scenecut-bias=0.05 / no-opt-cu-delta-qp / no-aq-motion / no-hdr / no-hdr-opt / no-dhdr10-opt / no-idr-recovery-sei / analysis-reuse-level=5 / scale-factor=0 / refine-intra=0 / refine-inter=0 / refine-mv=0 / refine-ctu-distortion=0 / no-limit-sao / ctu-info=0 / no-lowpass-dct / refine-analysis-type=0 / copy-pic=1 / max-ausize-factor=1.0 / no-dynamic-refine / no-single-sei / hevc-aq / qp-adaptation-range=1.00
Язык : English
Default : Да
Forced : Нет
Цветовой диапазон : Limited

Аудио
Идентификатор : 2
Формат : AC-3
Формат/Информация : Audio Coding 3
Коммерческое название : Dolby Digital
Идентификатор кодека : A_AC3
Продолжительность : 1 ч. 29 м.
Вид битрейта : Постоянный
Битрейт : 448 Кбит/сек
Каналы : 6 каналов
Channel layout : L R C LFE Ls Rs
Частота : 48,0 КГц
Частота кадров : 31,250 кадров/сек (1536 SPF)
Битовая глубина : 16 бит
Метод сжатия : С потерями
Размер потока : 286 Мбайт (8%)
Заголовок : Dub
Язык : Russian
ServiceKind/String : Complete Main
Default : Да
Forced : Нет

Текст
Идентификатор : 3
Формат : UTF-8
Идентификатор кодека : S_TEXT/UTF8
Идентификатор кодека/Информация : UTF-8 Plain Text
Продолжительность : 1 ч. 24 м.
Битрейт : 0 бит/сек
ElementCount : 10
Размер потока : 197 байт (0%)
Заголовок : Rus forced
Язык : Russian
Default : Да
Forced : Да

Меню
00:00:00.000 : :Chapter 01
00:05:22.822 : :Chapter 02
00:09:30.361 : :Chapter 03
00:11:55.673 : :Chapter 04
00:16:27.152 : :Chapter 05
00:18:56.802 : :Chapter 06
00:24:13.827 : :Chapter 07
00:26:07.357 : :Chapter 08
00:32:09.344 : :Chapter 09
00:36:52.126 : :Chapter 10
00:41:43.125 : :Chapter 11
00:44:13.942 : :Chapter 12
00:50:08.463 : :Chapter 13
00:55:04.009 : :Chapter 14
01:00:28.625 : :Chapter 15
01:05:12.199 : :Chapter 16
01:10:02.948 : :Chapter 17
01:14:18.495 : :Chapter 18
01:20:20.440 : :Chapter 19
01:22:46.461 : :Chapter 20
Загрузка...Cкриншот1 Уиджи: Доска Дьявола / Ouija (2014) BDRip 1080p [HEVC] 10 bit от AlexTwittЗагрузка...Cкриншот2 Уиджи: Доска Дьявола / Ouija (2014) BDRip 1080p [HEVC] 10 bit от AlexTwittЗагрузка...Cкриншот3 Уиджи: Доска Дьявола / Ouija (2014) BDRip 1080p [HEVC] 10 bit от AlexTwittЗагрузка...Cкриншот4 Уиджи: Доска Дьявола / Ouija (2014) BDRip 1080p [HEVC] 10 bit от AlexTwitt
2. Уиджи. Проклятие доски дьявола / Ouija: Origin of Evil (2016) BDRip 1080p [HEVC] 10 bit от AlexTwitt
HEVC
10 bit
Обложка Уиджи. Проклятие доски дьявола / Ouija: Origin of Evil (2016) BDRip 1080p [HEVC] 10 bit от AlexTwitt Год: 2016
Страна: США, Китай, Япония
Студия: Allspark Pictures, Blumhouse Productions, Hasbro Inc., Intrepid Pictures, Perfect World Pictures, Platinum Dunes
Жанр: Ужасы, Триллер, Драма
Продолжительность: 01:38:55

Режиссер: Майк Флэнеган
В ролях: Анналиса Бассо, Элизабет Ризер, Лулу Уилсон, Генри Томас, Паркер Мак, Холли Чарлтон, Алексис Дж. Залл, Даг Джонс, Кейт Сигел, Сэм Андерсон

Описание: Спиритическая доска Уиджи никогда не была просто игрой. Она служила порталом в мир мертвых. Столетиями она служила вратами между миром живых и царством мертвых. Но однажды духи выйдут из-под контроля, и первородное зло овладеет душой ребенка…


Видео: 1920x1040, ~7902 Kbps
Аудио: DTS, 6 ch, 768 Kbps - РусскийРусский, Дублированный (Лицензия)
Субтитры: Русские (форсированные)

Медиаинфо
Общее
Уникальный идентификатор : 102799723419791988395402553288377257710 (0x4D5681ADF9795CA513C03E04A4B04EEE)
Полное имя : \\Keenetic_extra\20d0d59dd0d57a0c\loads\Ouija\02 Ouija Origin of Evil BDRip 1080 [HEVC] 10 bit.mkv
Формат : Matroska
Версия формата : Version 4
Размер файла : 6,11 Гбайт
Продолжительность : 1 ч. 38 м.
Общий поток : 8846 Кбит/сек
Программа кодирования : XviD4PSP 8.0.39
Библиотека кодирования : Lavf58.20.100
ErrorDetectionType : Per level 1
ENCODING_INFO : MATROSKA,WEBM > MKV

Видео
Идентификатор : 1
Формат : HEVC
Формат/Информация : High Efficiency Video Coding
Профиль формата : Main 10@L5.1@High
Идентификатор кодека : V_MPEGH/ISO/HEVC
Продолжительность : 1 ч. 38 м.
Битрейт : 7902 Кбит/сек
Ширина : 1920 пикселей
Высота : 1040 пикселей
Соотношение сторон : 1,85:1
Режим частоты кадров : Постоянный
Частота кадров : 23,976 (24000/1001) кадра/сек
Цветовое пространство : YUV
Субдискретизация насыщенности : 4:2:0
Битовая глубина : 10 бит
Бит/(Пиксели*Кадры) : 0.165
Размер потока : 5,46 Гбайт (89%)
Библиотека кодирования : x265 3.0_Au+3-5b90dc59b57a:[Windows][clang 7.0.1][64 bit] 10bit
Настройки программы : cpuid=1049583 / frame-threads=5 / numa-pools=4 / wpp / no-pmode / no-pme / no-psnr / no-ssim / log-level=3 / input-csp=1 / input-res=1920x1040 / interlace=0 / total-frames=0 / level-idc=51 / high-tier=1 / uhd-bd=0 / ref=5 / allow-non-conformance / no-repeat-headers / annexb / no-aud / no-hrd / info / hash=0 / no-temporal-layers / open-gop / min-keyint=23 / keyint=240 / gop-lookahead=0 / bframes=8 / b-adapt=2 / b-pyramid / bframe-bias=0 / rc-lookahead=60 / lookahead-slices=6 / scenecut=40 / radl=0 / no-splice / no-intra-refresh / ctu=64 / min-cu-size=8 / no-rect / no-amp / max-tu-size=32 / tu-inter-depth=1 / tu-intra-depth=1 / limit-tu=0 / rdoq-level=0 / dynamic-rd=0.00 / no-ssim-rd / signhide / no-tskip / nr-intra=0 / nr-inter=0 / no-constrained-intra / no-strong-intra-smoothing / max-merge=2 / limit-refs=3 / no-limit-modes / me=3 / subme=7 / merange=57 / temporal-mvp / weightp / no-weightb / no-analyze-src-pics / deblock=-3:-3 / no-sao / no-sao-non-deblock / rd=3 / no-early-skip / rskip / no-fast-intra / no-tskip-fast / no-cu-lossless / no-b-intra / no-splitrd-skip / rdpenalty=0 / psy-rd=2.00 / psy-rdoq=0.00 / no-rd-refine / no-lossless / cbqpoffs=0 / crqpoffs=0 / rc=crf / crf=18.0 / qcomp=0.70 / qpstep=4 / stats-write=0 / stats-read=0 / vbv-maxrate=50000 / vbv-bufsize=50000 / vbv-init=0.9 / crf-max=30.0 / crf-min=0.0 / ipratio=1.40 / pbratio=1.30 / aq-mode=1 / aq-strength=1.00 / no-cutree / zone-count=0 / no-strict-cbr / qg-size=32 / no-rc-grain / qpmax=69 / qpmin=0 / no-const-vbv / sar=1 / overscan=0 / videoformat=5 / range=0 / colorprim=2 / transfer=2 / colormatrix=2 / chromaloc=0 / display-window=0 / max-cll=0,0 / min-luma=0 / max-luma=1023 / log2-max-poc-lsb=8 / vui-timing-info / vui-hrd-info / slices=1 / no-opt-qp-pps / no-opt-ref-list-length-pps / no-multi-pass-opt-rps / scenecut-bias=0.05 / no-opt-cu-delta-qp / no-aq-motion / no-hdr / no-hdr-opt / no-dhdr10-opt / no-idr-recovery-sei / analysis-reuse-level=5 / scale-factor=0 / refine-intra=0 / refine-inter=0 / refine-mv=0 / refine-ctu-distortion=0 / no-limit-sao / ctu-info=0 / no-lowpass-dct / refine-analysis-type=0 / copy-pic=1 / max-ausize-factor=1.0 / no-dynamic-refine / no-single-sei / hevc-aq / qp-adaptation-range=1.00
Язык : Russian
Default : Да
Forced : Нет
Цветовой диапазон : Limited
ENCODING_INFO : H264 > X265 CRF 18.0 Medium

Аудио
Идентификатор : 2
Формат : DTS
Формат/Информация : Digital Theater Systems
Идентификатор кодека : A_DTS
Продолжительность : 1 ч. 38 м.
Вид битрейта : Постоянный
Битрейт : 768 Кбит/сек
Каналы : 6 каналов
Channel layout : C L R Ls Rs LFE
Частота : 48,0 КГц
Частота кадров : 93,750 кадра/сек (512 SPF)
Битовая глубина : 24 бит
Метод сжатия : С потерями
Размер потока : 543 Мбайт (9%)
Заголовок : Dub-DTS [License]
Язык : Russian
Default : Да
Forced : Нет
ENCODING_INFO : DTS > COPY Безопасное

Текст
Идентификатор : 3
Формат : UTF-8
Идентификатор кодека : S_TEXT/UTF8
Идентификатор кодека/Информация : UTF-8 Plain Text
Заголовок : Forced
Язык : Russian
Default : Да
Forced : Нет
ENCODING_INFO : SUBRIP > COPY Быстрое

Меню
00:00:00.000 : :00:00:00.000
00:05:30.747 : :00:05:30.747
00:09:12.469 : :00:09:12.469
00:14:19.525 : :00:14:19.525
00:21:37.880 : :00:21:37.880
00:25:24.314 : :00:25:24.314
00:30:09.850 : :00:30:09.850
00:35:53.318 : :00:35:53.318
00:39:04.384 : :00:39:04.384
00:43:53.464 : :00:43:53.464
00:48:49.677 : :00:48:49.677
00:55:11.683 : :00:55:11.683
00:58:47.607 : :00:58:47.607
01:05:27.715 : :01:05:27.715
01:10:46.283 : :01:10:46.284
01:14:26.420 : :01:14:26.420
01:18:25.075 : :01:18:25.075
01:21:48.403 : :01:21:48.403
01:27:42.841 : :01:27:42.841
01:31:03.291 : :01:31:03.291
Загрузка...Cкриншот1 Уиджи. Проклятие доски дьявола / Ouija: Origin of Evil (2016) BDRip 1080p [HEVC] 10 bit от AlexTwittЗагрузка...Cкриншот2 Уиджи. Проклятие доски дьявола / Ouija: Origin of Evil (2016) BDRip 1080p [HEVC] 10 bit от AlexTwittЗагрузка...Cкриншот3 Уиджи. Проклятие доски дьявола / Ouija: Origin of Evil (2016) BDRip 1080p [HEVC] 10 bit от AlexTwittЗагрузка...Cкриншот4 Уиджи. Проклятие доски дьявола / Ouija: Origin of Evil (2016) BDRip 1080p [HEVC] 10 bit от AlexTwitt
Торрент🧲 Магнет

Рейтинги КП и IMDB, кнопки "Позвать в чате" и "Спасибо", а также мультитрекерная статистика сидов и пиров доступны только зарегистрированным/авторизованным пользователям!

Файлы: 2
  • Ouija
    • 01 Ouija BDRip 1080 [HEVC] 10 bit.mkv   3.58 ГБ
    • 02 Ouija Origin of Evil BDRip 1080 [HEVC] 10 bit.mkv   6.11 ГБ
Поблагодарили: 11
aquarius1247, Brooklyn, gregor, icesnoop, ivan_1965, MIGRANT, mvclub, nelii, SaN161NeK, SwX8, VardO
AlexTwitt
010701 (2)  9.69 ГБ

Добавление нового комментария

Добавление комментариев доступно только зарегистрированным/авторизованным пользователям.