💬 Мини-чат

Убедительная просьба не обсуждать тут политику.
AdminЛёшикоБэст, вроде потихоньку идёт. Подождем, если не докачается, то встану.
AdminЛёшикоБэст, перекачайте торрент, а то в профиле не отображается ждете или уже нет
ЛёшикоБэстРаздайте, пожалуйста, Неудержимые / The Expendables (2010) [Theatrical Cut] BDRip 1080p [HEVC] 10 bit от Spartanec1308
OldGamerДа, есть.
ЛёшикоБэстДоброго вечера) Скажите пожалуйста, есть ли в планах сделать релиз дилогии "Зорро" с Антонио Бандерасом?
HANNIBALAdmin, 👍
AdminГоро, встал
ГороРаздайте, пожалуйста, Хищники / Predators (2010) BDRip 1080p [HEVC] 10 bit от HANNIBAL
AdminHANNIBAL, привет. Не помню за сколько брал, но продление в этот раз обошлось примерно в $14 со всякими комиссиями. А аренда VDS обходится примерно в $30-35 за год. Не исключено, что всё это подорожает. Пока что пожертвования с трудом покрывают расходы. Иногда если требуется и со своего кармана оплачиваю, не страшно. Прорвемся.
HANNIBALсколько сейчас стоит
HANNIBALAdmin, ПРИВЕТ
AdminНаконец-то получил банковскую карту. Продлил доменное имя (адрес сайта) на год.
  • ivan_1965
Отправка сообщений доступна только зарегистрированным/авторизованным пользователям.
Онлайн (за 10 мин.): 1

Семь / Se7en (1995) BDRip 1080p [HEVC] 10 bit от Mr. Fox

HEVC
10 bit
Обложка Семь / Se7en (1995) BDRip 1080p [HEVC] 10 bit от Mr. Fox Год: 1995
Страна: США
Жанр: Триллер, Драма, Криминал, Детектив
Продолжительность: 02:06:54

Режиссер: Дэвид Финчер
В ролях: Брэд Питт, Морган Фриман, Гвинет Пэлтроу, Кевин Спейси, Р. Ли Эрми, Джон К. МакГинли, Ричард Шифф, Ричард Раундтри, Марк Бун Джуниор, Рег Э. Кэти

Описание: Детектив Уильям Сомерсет — ветеран уголовного розыска, мечтающий уйти на пенсию и уехать подальше от города и грешных обитателей. За 7 дней до пенсии на Сомерсета сваливаются две неприятности: молодой напарник Миллс и особо изощренное убийство. Острый ум опытного сыщика сразу определяет, что за этим преступлением, скорее всего, последуют другие. Новости подтверждают его догадку. Поняв, что убийца наказывает свои жертвы за совершенные ими смертные грехи, детектив встает перед выбором: вернуться к работе либо уйти и передать дело своему менее опытному напарнику?


Видео: 1920x800, 6784 Kbps
Аудио1: AC3, 6 ch, 640 Kbps - РусскийРусский, Многоголосый (Позитив-Мультимедиа)
Аудио2: AC3, 6 ch, 448 Kbps - РусскийРусский, Многоголосый (FDV/Супербит/Киномания)
Аудио3: AC3, 6 ch, 448 Kbps - РусскийРусский, Многоголосый (CP-Digital)
Аудио4: AC3, 6 ch, 640 Kbps - РусскийРусский, Одноголосый (Сербин)
Аудио5: AC3, 6 ch, 640 Kbps - РусскийРусский, Одноголосый (Рябов)
Аудио6: AC3, 6 ch, 640 Kbps - РусскийРусский, Одноголосый (Матвеев aka Doctor_Joker)
Аудио7: AC3, 6 ch, 640 Kbps - РусскийРусский, Одноголосый (Гаврилов)
Аудио8: AC3, 6 ch, 640 Kbps - РусскийРусский, Одноголосый (Яроцкий)
Аудио9: AC3, 6 ch, 384 Kbps - РусскийРусский, Одноголосый (Визгунов)
Аудио10: AC3, 6 ch, 640 Kbps - АнглийскийАнглийский, Оригинал
Субтитры: Русские (форсированные, полные), английские (полные, SDH)

Как за пару секунд удалить ненужные аудиодорожки и субтитры (Внимание! После удаления вы не сможете поддержать раздачу)

Медиаинфо
General
Unique ID : 252950900522642658433486854562375800376 (0xBE4C9245CDDF85BE2B07929D49141638)
Complete name : E:\Torrent\Se7en (1995) BDRip 1080p [HEVC] 10bit.mkv
Format : Matroska
Format version : Version 4 / Version 2
File size : 11.1 GiB
Duration : 2 h 6 min
Overall bit rate : 12.5 Mb/s
Movie name : Se7en (1995) Mr. Fox
Encoded date : UTC 2019-03-31 14:10:34
Writing application : mkvmerge v28.2.0 ('The Awakening') 64-bit
Writing library : libebml v1.3.6 + libmatroska v1.4.9
Cover : Yes
Attachments : cover.jpg

Video
ID : 1
Format : HEVC
Format/Info : High Efficiency Video Coding
Format profile : Main 10@L4.1@High
Codec ID : V_MPEGH/ISO/HEVC
Duration : 2 h 6 min
Bit rate : 6 784 kb/s
Width : 1 920 pixels
Height : 800 pixels
Display aspect ratio : 2.40:1
Frame rate mode : Constant
Frame rate : 23.976 (23976/1000) FPS
Original frame rate : 23.976 (24000/1001) FPS
Color space : YUV
Chroma subsampling : 4:2:0
Bit depth : 10 bits
Bits/(Pixel*Frame) : 0.184
Stream size : 6.01 GiB (54%)
Writing library : x265 3.0_Au+4-dcbec33bfb0f:[Windows][MSVC 1916][64 bit] 10bit
Encoding settings : cpuid=1111039 / frame-threads=3 / numa-pools=12 / wpp / no-pmode / no-pme / no-psnr / no-ssim / log-level=2 / input-csp=1 / input-res=1920x800 / interlace=0 / total-frames=86785 / level-idc=41 / high-tier=1 / uhd-bd=0 / ref=5 / no-allow-non-conformance / no-repeat-headers / annexb / no-aud / no-hrd / info / hash=0 / no-temporal-layers / open-gop / min-keyint=23 / keyint=240 / gop-lookahead=0 / bframes=16 / b-adapt=2 / b-pyramid / bframe-bias=0 / rc-lookahead=60 / lookahead-slices=4 / scenecut=40 / radl=0 / no-splice / no-intra-refresh / ctu=32 / min-cu-size=8 / rect / amp / max-tu-size=32 / tu-inter-depth=4 / tu-intra-depth=4 / limit-tu=1 / rdoq-level=2 / dynamic-rd=0.00 / no-ssim-rd / signhide / no-tskip / nr-intra=0 / nr-inter=0 / no-constrained-intra / no-strong-intra-smoothing / max-merge=4 / limit-refs=2 / limit-modes / me=3 / subme=7 / merange=57 / temporal-mvp / weightp / weightb / no-analyze-src-pics / deblock=-3:-3 / no-sao / no-sao-non-deblock / rd=6 / no-early-skip / no-rskip / no-fast-intra / no-tskip-fast / no-cu-lossless / no-b-intra / no-splitrd-skip / rdpenalty=0 / psy-rd=2.00 / psy-rdoq=1.00 / no-rd-refine / no-lossless / cbqpoffs=0 / crqpoffs=0 / rc=crf / crf=21.0 / qcomp=0.60 / qpstep=4 / stats-write=0 / stats-read=0 / vbv-maxrate=50000 / vbv-bufsize=50000 / vbv-init=0.9 / crf-max=0.0 / crf-min=0.0 / ipratio=1.40 / pbratio=1.30 / aq-mode=1 / aq-strength=1.00 / no-cutree / zone-count=0 / no-strict-cbr / qg-size=32 / no-rc-grain / qpmax=69 / qpmin=0 / no-const-vbv / sar=1 / overscan=0 / videoformat=5 / range=0 / colorprim=2 / transfer=2 / colormatrix=2 / chromaloc=0 / display-window=0 / max-cll=0,0 / min-luma=0 / max-luma=1023 / log2-max-poc-lsb=8 / vui-timing-info / vui-hrd-info / slices=1 / no-opt-qp-pps / no-opt-ref-list-length-pps / no-multi-pass-opt-rps / scenecut-bias=0.05 / no-opt-cu-delta-qp / no-aq-motion / no-hdr / no-hdr-opt / no-dhdr10-opt / no-idr-recovery-sei / analysis-reuse-level=5 / scale-factor=0 / refine-intra=0 / refine-inter=0 / refine-mv=0 / refine-ctu-distortion=0 / no-limit-sao / ctu-info=0 / no-lowpass-dct / refine-analysis-type=0 / copy-pic=1 / max-ausize-factor=1.0 / no-dynamic-refine / no-single-sei / no-hevc-aq / qp-adaptation-range=1.00
Default : Yes
Forced : No

Audio #1
ID : 2
Format : AC-3
Format/Info : Audio Coding 3
Codec ID : A_AC3
Duration : 2 h 6 min
Bit rate mode : Constant
Bit rate : 640 kb/s
Channel(s) : 6 channels
Channel positions : Front: L C R, Side: L R, LFE
Sampling rate : 48.0 kHz
Frame rate : 31.250 FPS (1536 SPF)
Bit depth : 16 bits
Compression mode : Lossy
Stream size : 581 MiB (5%)
Title : MVO, Позитив-Мультимедиа
Language : Russian
Service kind : Complete Main
Default : Yes
Forced : No

Audio #2
ID : 3
Format : AC-3
Format/Info : Audio Coding 3
Codec ID : A_AC3
Duration : 2 h 6 min
Bit rate mode : Constant
Bit rate : 448 kb/s
Channel(s) : 6 channels
Channel positions : Front: L C R, Side: L R, LFE
Sampling rate : 48.0 kHz
Frame rate : 31.250 FPS (1536 SPF)
Bit depth : 16 bits
Compression mode : Lossy
Stream size : 407 MiB (4%)
Title : MVO, FDV / Супербит / Киномания
Language : Russian
Service kind : Complete Main
Default : No
Forced : No

Audio #3
ID : 4
Format : AC-3
Format/Info : Audio Coding 3
Codec ID : A_AC3
Duration : 2 h 6 min
Bit rate mode : Constant
Bit rate : 448 kb/s
Channel(s) : 6 channels
Channel positions : Front: L C R, Side: L R, LFE
Sampling rate : 48.0 kHz
Frame rate : 31.250 FPS (1536 SPF)
Bit depth : 16 bits
Compression mode : Lossy
Stream size : 406 MiB (4%)
Title : MVO, CP-Digital
Language : Russian
Service kind : Complete Main
Default : No
Forced : No

Audio #4
ID : 5
Format : AC-3
Format/Info : Audio Coding 3
Codec ID : A_AC3
Duration : 2 h 6 min
Bit rate mode : Constant
Bit rate : 640 kb/s
Channel(s) : 6 channels
Channel positions : Front: L C R, Side: L R, LFE
Sampling rate : 48.0 kHz
Frame rate : 31.250 FPS (1536 SPF)
Bit depth : 16 bits
Compression mode : Lossy
Stream size : 581 MiB (5%)
Title : AVO, Ю.Сербин
Language : Russian
Service kind : Complete Main
Default : No
Forced : No

Audio #5
ID : 6
Format : AC-3
Format/Info : Audio Coding 3
Codec ID : A_AC3
Duration : 2 h 6 min
Bit rate mode : Constant
Bit rate : 640 kb/s
Channel(s) : 6 channels
Channel positions : Front: L C R, Side: L R, LFE
Sampling rate : 48.0 kHz
Frame rate : 31.250 FPS (1536 SPF)
Bit depth : 16 bits
Compression mode : Lossy
Stream size : 581 MiB (5%)
Title : AVO, С. Рябов
Language : Russian
Service kind : Complete Main
Default : No
Forced : No

Audio #6
ID : 7
Format : AC-3
Format/Info : Audio Coding 3
Codec ID : A_AC3
Duration : 2 h 6 min
Bit rate mode : Constant
Bit rate : 640 kb/s
Channel(s) : 6 channels
Channel positions : Front: L C R, Side: L R, LFE
Sampling rate : 48.0 kHz
Frame rate : 31.250 FPS (1536 SPF)
Bit depth : 16 bits
Compression mode : Lossy
Stream size : 581 MiB (5%)
Title : AVO, А. Матвеев (Doctor_Joker)
Language : Russian
Service kind : Complete Main
Default : No
Forced : No

Audio #7
ID : 8
Format : AC-3
Format/Info : Audio Coding 3
Codec ID : A_AC3
Duration : 2 h 6 min
Bit rate mode : Constant
Bit rate : 640 kb/s
Channel(s) : 6 channels
Channel positions : Front: L C R, Side: L R, LFE
Sampling rate : 48.0 kHz
Frame rate : 31.250 FPS (1536 SPF)
Bit depth : 16 bits
Compression mode : Lossy
Stream size : 581 MiB (5%)
Title : AVO, А.Гаврилов
Language : Russian
Service kind : Complete Main
Default : No
Forced : No

Audio #8
ID : 9
Format : AC-3
Format/Info : Audio Coding 3
Codec ID : A_AC3
Duration : 2 h 6 min
Bit rate mode : Constant
Bit rate : 640 kb/s
Channel(s) : 6 channels
Channel positions : Front: L C R, Side: L R, LFE
Sampling rate : 48.0 kHz
Frame rate : 31.250 FPS (1536 SPF)
Bit depth : 16 bits
Compression mode : Lossy
Stream size : 581 MiB (5%)
Title : AVO, М.Яроцкий (kyberpunk)
Language : Russian
Service kind : Complete Main
Default : No
Forced : No

Audio #9
ID : 10
Format : AC-3
Format/Info : Audio Coding 3
Codec ID : A_AC3
Duration : 2 h 6 min
Bit rate mode : Constant
Bit rate : 384 kb/s
Channel(s) : 6 channels
Channel positions : Front: L C R, Side: L R, LFE
Sampling rate : 48.0 kHz
Frame rate : 31.250 FPS (1536 SPF)
Bit depth : 16 bits
Compression mode : Lossy
Stream size : 349 MiB (3%)
Title : AVO, С. Визгунов
Language : Russian
Service kind : Complete Main
Default : No
Forced : No

Audio #10
ID : 11
Format : AC-3
Format/Info : Audio Coding 3
Codec ID : A_AC3
Duration : 2 h 6 min
Bit rate mode : Constant
Bit rate : 640 kb/s
Channel(s) : 6 channels
Channel positions : Front: L C R, Side: L R, LFE
Sampling rate : 48.0 kHz
Frame rate : 31.250 FPS (1536 SPF)
Bit depth : 16 bits
Compression mode : Lossy
Stream size : 581 MiB (5%)
Language : English
Service kind : Complete Main
Default : No
Forced : No

Text #1
ID : 12
Format : UTF-8
Codec ID : S_TEXT/UTF8
Codec ID/Info : UTF-8 Plain Text
Duration : 1 h 27 min
Bit rate : 2 b/s
Count of elements : 35
Stream size : 1.40 KiB (0%)
Title : Forced Позитив-Мультимедиа
Language : Russian
Default : Yes
Forced : No

Text #2
ID : 13
Format : UTF-8
Codec ID : S_TEXT/UTF8
Codec ID/Info : UTF-8 Plain Text
Duration : 2 h 0 min
Bit rate : 91 b/s
Count of elements : 1469
Stream size : 81.2 KiB (0%)
Title : Позитив-Мультимедиа
Language : Russian
Default : No
Forced : No

Text #3
ID : 14
Format : UTF-8
Codec ID : S_TEXT/UTF8
Codec ID/Info : UTF-8 Plain Text
Duration : 2 h 0 min
Bit rate : 94 b/s
Count of elements : 1518
Stream size : 83.6 KiB (0%)
Title : Супербит
Language : Russian
Default : No
Forced : No

Text #4
ID : 15
Format : UTF-8
Codec ID : S_TEXT/UTF8
Codec ID/Info : UTF-8 Plain Text
Duration : 2 h 1 min
Bit rate : 74 b/s
Count of elements : 1273
Stream size : 66.5 KiB (0%)
Title : CP-Digital
Language : Russian
Default : No
Forced : No

Text #5
ID : 16
Format : UTF-8
Codec ID : S_TEXT/UTF8
Codec ID/Info : UTF-8 Plain Text
Duration : 2 h 0 min
Bit rate : 61 b/s
Count of elements : 1548
Stream size : 54.4 KiB (0%)
Language : English
Default : No
Forced : No

Text #6
ID : 17
Format : UTF-8
Codec ID : S_TEXT/UTF8
Codec ID/Info : UTF-8 Plain Text
Duration : 2 h 1 min
Bit rate : 64 b/s
Count of elements : 1661
Stream size : 57.7 KiB (0%)
Title : SDH
Language : English
Default : No
Forced : No

Menu
00:00:00.000 : en:The Last Seven Days
00:04:11.251 : en:Main Titles
00:06:19.253 : en:Monday
00:07:33.744 : en:Gluttony
00:14:47.511 : en:Somerset Wants Out
00:17:07.443 : en:Tuesday
00:18:11.465 : en:Greed
00:21:42.175 : en:Seven Deadly Sins
00:24:26.756 : en:Hitting The Books
00:29:28.516 : en:Wednesday
00:30:27.033 : en:Close Quarters
00:33:13.157 : en:A Late Supper
00:37:28.454 : en:Forced Attrition
00:42:23.541 : en:Mrs. Gould
00:43:32.860 : en:Help Me
00:47:43.235 : en:Thursday
00:50:18.390 : en:Sloth
00:54:24.803 : en:Feeding Off His Emotions
00:57:28.194 : en:Friday
01:01:45.159 : en:Methodical, Exacting and Patient
01:04:19.605 : en:Who's Reading What
01:07:26.584 : en:John Doe
01:14:45.022 : en:A Reason to Knock
01:20:34.037 : en:"I Admire You"
01:24:07.250 : en:Saturday
01:25:04.140 : en:Lust
01:28:15.498 : en:Apathy is Easy
01:33:05.162 : en:Sunday; Pride
01:33:58.799 : en:Surrender
01:36:46.967 : en:The Deal
01:39:04.480 : en:Ready to Move
01:40:53.797 : en:"You Won't Miss a Thing"
01:44:05.030 : en:The Chosen One
01:50:53.855 : en:"It's Close"
01:53:06.196 : en:The Package
01:56:56.634 : en:Envy and Wrath
02:02:00.313 : en:End Credits
Загрузка...Cкриншот1 Семь / Se7en (1995) BDRip 1080p [HEVC] 10 bit от Mr. FoxЗагрузка...Cкриншот2 Семь / Se7en (1995) BDRip 1080p [HEVC] 10 bit от Mr. FoxЗагрузка...Cкриншот3 Семь / Se7en (1995) BDRip 1080p [HEVC] 10 bit от Mr. FoxЗагрузка...Cкриншот4 Семь / Se7en (1995) BDRip 1080p [HEVC] 10 bit от Mr. Fox
Сэмпл Торрент🧲 Магнет

Рейтинги КП и IMDB, кнопки "Позвать в чате" и "Спасибо", а также мультитрекерная статистика доступны только зарегистрированным/авторизованным пользователям!

Файлы: 1
  • Se7en (1995) BDRip 1080p [HEVC] 10bit.mkv   11.12 ГБ
Поблагодарили: 24
375509, alexyak, Brooklyn, brukvalub, Diman, fitaurari, grudich, gurvinok, HANNIBAL, joker1001, kapitan, ko1ob, Korben_23rus, MIGRANT, mvclub, NEGAN, NoMaD, OldGamer, SaN161NeK, sedoi09, serg1962, torrentzulu, VadimM, vladd37
Admin
21970111.12 ГБ

Добавление нового комментария

Добавление комментариев доступно только зарегистрированным/авторизованным пользователям.
Аватар Cthulhu
  Cthulhu  
Судя по всему да.
Аватар Diman
  Diman  
Это ремастер?