💬 Мини-чат

OldGamerтем более иногда вдруг попадаются очень даже вменяемые рипы в AVC сделанные на качество, а не размер, и смысл в HEVC для конкретных фильмов пропадает. Например вот Разрушитель, дикий запад, одинокий волк
GiggaloСпасибо.
OldGamerТо, что уже в анонсе, значит будет. А касаемо остального - много чего в планах, но говорить об этом не вижу смысла. Решу сделать - протестирую и анонсирую.
GiggaloА что есть? Помимо того, что у Вас в анонсе
OldGamerнет
Giggaloнет ли у кого в планах "Давайте потанцуем" 2004
GiggaloСообщение удалено (удалил: Giggalo)
StarLordOldGamer, как дела?)
StarLordOldGamer, ура, вернулся 😄
OldGamerRezident, можете скачать этот фильм от другого релизёра, там невелика разница, а раздающие точно есть
OldGamerGiggalo, https://tsya.ru/mnemonic.html
NoMaDСообщение удалено (удалил: NoMaD)
NoMaDСообщение удалено (удалил: NoMaD)
GiggaloСообщение удалено (удалил: Giggalo)
GiggaloСообщение удалено (удалил: Giggalo)
Spartanec1308Был днём
StarLordGiggalo, наверное отрубало беднягу, целый день его нету 😅
GiggaloСообщение удалено (удалил: Giggalo)
OldGamerДоброе. Работы много, некогда на перинах валяться.
GiggaloСообщение удалено (удалил: Giggalo)
  • OldGamer
  • Giggalo
  • adybas
  • DKV
  • Don digidon
  • NoMaD
Отправка сообщений доступна только зарегистрированным/авторизованным пользователям.
Онлайн (за 10 мин.): 6

Смертельная битва / Mortal Kombat (1995) BDRip 1080p [HEVC] 10 bit от M@kSIMus

HEVC
10 bit
Обложка Смертельная битва / Mortal Kombat (1995) BDRip 1080p [HEVC] 10 bit от M@kSIMus Год: 1995
Страна: США
Студия: New Line Cinema
Жанр: Фантастика, Фэнтези, Боевик, Триллер
Продолжительность: 01:41:25

Режиссер: Пол У. С. Андерсон
В ролях: Робин Шоу, Линден Эшби, Бриджит Уилсон, Кристофер Ламберт, Кэри-Хироюки Тагава, Талиса Сото, Тревор Годдард, Крис Касамасса, Франсуа Пети, Кит Кук

Описание: Несколько столетий назад Шанг Тсунг — маг из потустороннего мира захватил в свои руки древний воинский турнир. Его цель — ввергнуть наш мир в хаос. Чтобы спасти человечество от гибели, троим воинам предстоит битва… смертельная битва с силами мрака.


Видео: 1920x1080, 12.3 Mbps
Аудио1: AC3, 6 ch, 384 Kbps - РусскийРусский, Многоголосый (R5)
Аудио2: AC3, 6 ch, 384 Kbps - РусскийРусский, Многоголосый (DDV)
Аудио3: AC3, 2 ch, 192 Kbps - РусскийРусский, Многоголосый (CP-DIGITAL)
Аудио4: AC3, 2 ch, 192 Kbps - РусскийРусский, Многоголосый (ОРТ)
Аудио5: AC3, 2 ch, 192 Kbps - РусскийРусский, Двухголосый (НТВ, СТС, ТВЦ, РОССИЯ 1)
Аудио6: DTS, 6 ch, 1510 Kbps - РусскийРусский, Одноголосый (Сербин)
Аудио7: DTS, 6 ch, 1510 Kbps - РусскийРусский, Одноголосый (Живов)
Аудио8: AC3, 6 ch, 448 Kbps - РусскийРусский, Одноголосый (Гаврилов)
Аудио9: AC3, 2 ch, 192 Kbps - РусскийРусский, Одноголосый (Визгунов)
Аудио10: AC3, 6 ch, 384 Kbps - РусскийРусский, Одноголосый (Черкасов)
Аудио11: AC3, 2 ch, 192 Kbps - УкраинскийУкраинский, Многоголосый
Аудио12: AC3, 6 ch, 448 Kbps - АнглийскийАнглийский, Оригинал
Субтитры: Русские, английские

Как за пару секунд удалить ненужные аудиодорожки и субтитры (Внимание! После удаления вы не сможете поддержать раздачу)

Медиаинфо
Общее
Уникальный идентификатор : 89552050226930610611577331915230116476 (0x435F18F680ABF6A6E649F77E9BB57A7C)
Полное имя : Смертельная битва (1995) BDRip 1080p [HEVC] 10 bit.mkv
Формат : Matroska
Версия формата : Version 4
Размер файла : 13,0 Гбайт
Продолжительность : 1 ч. 41 м.
Общий поток : 18,3 Мбит/сек
Название фильма : Смертельная битва (1995) Encoded_by_M@kSIMus
Дата кодирования : UTC 2019-04-08 02:11:38
Программа кодирования : mkvmerge v28.0.0 ('Voice In My Head') 64-bit
Библиотека кодирования : libebml v1.3.6 + libmatroska v1.4.9
Attachments : poster.jpg

Видео
Идентификатор : 1
Формат : HEVC
Формат/Информация : High Efficiency Video Coding
Профиль формата : Main 10@L4.1@High
Идентификатор кодека : V_MPEGH/ISO/HEVC
Продолжительность : 1 ч. 41 м.
Битрейт : 12,3 Мбит/сек
Ширина : 1920 пикселей
Высота : 1080 пикселей
Соотношение сторон : 16:9
Режим частоты кадров : Постоянный
Частота кадров : 23,976 (24000/1001) кадра/сек
Цветовое пространство : YUV
Субдискретизация насыщенности : 4:2:0
Битовая глубина : 10 бит
Бит/(Пиксели*Кадры) : 0.247
Размер потока : 8,70 Гбайт (67%)
Заголовок : Смертельная битва (1995) Encoded_by_M@kSIMus
Библиотека кодирования : x265 2.9+9-f74003e88622:[Windows][GCC 8.2.0][64 bit] 10bit
Настройки программы : cpuid=1049583 / frame-threads=5 / numa-pools=4 / wpp / no-pmode / no-pme / no-psnr / no-ssim / log-level=3 / input-csp=1 / input-res=1920x1080 / interlace=0 / total-frames=0 / level-idc=41 / high-tier=1 / uhd-bd=0 / ref=4 / allow-non-conformance / no-repeat-headers / annexb / no-aud / no-hrd / info / hash=0 / no-temporal-layers / open-gop / min-keyint=24 / keyint=240 / gop-lookahead=0 / bframes=12 / b-adapt=2 / b-pyramid / bframe-bias=0 / rc-lookahead=40 / lookahead-slices=6 / scenecut=40 / radl=0 / no-intra-refresh / ctu=32 / min-cu-size=8 / rect / no-amp / max-tu-size=32 / tu-inter-depth=4 / tu-intra-depth=4 / limit-tu=1 / rdoq-level=1 / dynamic-rd=0.00 / no-ssim-rd / signhide / no-tskip / nr-intra=0 / nr-inter=0 / no-constrained-intra / no-strong-intra-smoothing / max-merge=4 / limit-refs=3 / no-limit-modes / me=3 / subme=7 / merange=57 / temporal-mvp / weightp / weightb / no-analyze-src-pics / deblock=-3:-3 / no-sao / no-sao-non-deblock / rd=4 / no-early-skip / no-rskip / no-fast-intra / no-tskip-fast / no-cu-lossless / no-b-intra / no-splitrd-skip / rdpenalty=0 / psy-rd=2.00 / psy-rdoq=1.00 / no-rd-refine / no-lossless / cbqpoffs=0 / crqpoffs=0 / rc=crf / crf=21.0 / qcomp=0.60 / qpstep=4 / stats-write=0 / stats-read=0 / vbv-maxrate=50000 / vbv-bufsize=50000 / vbv-init=0.9 / crf-max=0.0 / crf-min=0.0 / ipratio=1.40 / pbratio=1.30 / aq-mode=3 / aq-strength=1.00 / no-cutree / zone-count=0 / no-strict-cbr / qg-size=32 / no-rc-grain / qpmax=69 / qpmin=0 / no-const-vbv / sar=1 / overscan=0 / videoformat=5 / range=0 / colorprim=1 / transfer=1 / colormatrix=1 / chromaloc=0 / display-window=0 / max-cll=0,0 / min-luma=0 / max-luma=1023 / log2-max-poc-lsb=8 / vui-timing-info / vui-hrd-info / slices=1 / no-opt-qp-pps / no-opt-ref-list-length-pps / no-multi-pass-opt-rps / scenecut-bias=0.05 / no-opt-cu-delta-qp / no-aq-motion / no-hdr / no-hdr-opt / no-dhdr10-opt / no-idr-recovery-sei / analysis-reuse-level=5 / scale-factor=0 / refine-intra=0 / refine-inter=0 / refine-mv=0 / no-limit-sao / ctu-info=0 / no-lowpass-dct / refine-mv-type=0 / copy-pic=1 / max-ausize-factor=1.0 / no-dynamic-refine / no-single-sei
Язык : English
Default : Да
Forced : Нет
Цветовой диапазон : Limited
Основные цвета : BT.709
Характеристики трансфера : BT.709
Коэффициенты матрицы : BT.709

Аудио #1
Идентификатор : 2
Формат : AC-3
Формат/Информация : Audio Coding 3
Коммерческое название : Dolby Digital
Идентификатор кодека : A_AC3
Продолжительность : 1 ч. 41 м.
Вид битрейта : Постоянный
Битрейт : 384 Кбит/сек
Каналы : 6 каналов
Channel layout : L R C LFE Ls Rs
Частота : 48,0 КГц
Частота кадров : 31,250 кадров/сек (1536 SPF)
Битовая глубина : 16 бит
Метод сжатия : С потерями
Размер потока : 279 Мбайт (2%)
Заголовок : MVO (R5)
Язык : Russian
Default : Нет
Forced : Нет

Аудио #2
Идентификатор : 3
Формат : AC-3
Формат/Информация : Audio Coding 3
Коммерческое название : Dolby Digital
Идентификатор кодека : A_AC3
Продолжительность : 1 ч. 41 м.
Вид битрейта : Постоянный
Битрейт : 384 Кбит/сек
Каналы : 6 каналов
Channel layout : L R C LFE Ls Rs
Частота : 48,0 КГц
Частота кадров : 31,250 кадров/сек (1536 SPF)
Битовая глубина : 16 бит
Метод сжатия : С потерями
Размер потока : 279 Мбайт (2%)
Заголовок : MVO (DDV)
Язык : Russian
Default : Нет
Forced : Нет

Аудио #3
Идентификатор : 4
Формат : AC-3
Формат/Информация : Audio Coding 3
Коммерческое название : Dolby Digital
Идентификатор кодека : A_AC3
Продолжительность : 1 ч. 41 м.
Вид битрейта : Постоянный
Битрейт : 192 Кбит/сек
Каналы : 2 канала
Channel layout : L R
Частота : 48,0 КГц
Частота кадров : 31,250 кадров/сек (1536 SPF)
Битовая глубина : 16 бит
Метод сжатия : С потерями
Размер потока : 139 Мбайт (1%)
Заголовок : MVO (CP-DIGITAL)
Язык : Russian
Default : Нет
Forced : Нет

Аудио #4
Идентификатор : 5
Формат : AC-3
Формат/Информация : Audio Coding 3
Коммерческое название : Dolby Digital
Идентификатор кодека : A_AC3
Продолжительность : 1 ч. 41 м.
Вид битрейта : Постоянный
Битрейт : 192 Кбит/сек
Каналы : 2 канала
Channel layout : L R
Частота : 48,0 КГц
Частота кадров : 31,250 кадров/сек (1536 SPF)
Битовая глубина : 16 бит
Метод сжатия : С потерями
Размер потока : 139 Мбайт (1%)
Заголовок : MVO (ОРТ)
Язык : Russian
Default : Нет
Forced : Нет

Аудио #5
Идентификатор : 6
Формат : AC-3
Формат/Информация : Audio Coding 3
Коммерческое название : Dolby Digital
Идентификатор кодека : A_AC3
Продолжительность : 1 ч. 41 м.
Вид битрейта : Постоянный
Битрейт : 192 Кбит/сек
Каналы : 2 канала
Channel layout : L R
Частота : 48,0 КГц
Частота кадров : 31,250 кадров/сек (1536 SPF)
Битовая глубина : 16 бит
Метод сжатия : С потерями
Размер потока : 139 Мбайт (1%)
Заголовок : DVO (НТВ, СТС, ТВЦ, РОССИЯ 1)
Язык : Russian
Default : Нет
Forced : Нет

Аудио #6
Идентификатор : 7
Формат : DTS
Формат/Информация : Digital Theater Systems
Идентификатор кодека : A_DTS
Продолжительность : 1 ч. 41 м.
Вид битрейта : Постоянный
Битрейт : 1509 Кбит/сек
Каналы : 6 каналов
Channel layout : C L R Ls Rs LFE
Частота : 48,0 КГц
Частота кадров : 93,750 кадра/сек (512 SPF)
Битовая глубина : 24 бит
Метод сжатия : С потерями
Размер потока : 1,07 Гбайт (8%)
Заголовок : AVO (Сербин)
Язык : Russian
Default : Нет
Forced : Нет

Аудио #7
Идентификатор : 8
Формат : DTS
Формат/Информация : Digital Theater Systems
Идентификатор кодека : A_DTS
Продолжительность : 1 ч. 41 м.
Вид битрейта : Постоянный
Битрейт : 1509 Кбит/сек
Каналы : 6 каналов
Channel layout : C L R Ls Rs LFE
Частота : 48,0 КГц
Частота кадров : 93,750 кадра/сек (512 SPF)
Битовая глубина : 24 бит
Метод сжатия : С потерями
Размер потока : 1,07 Гбайт (8%)
Заголовок : AVO (Живов) (новый перевод)
Язык : Russian
Default : Нет
Forced : Нет

Аудио #8
Идентификатор : 9
Формат : AC-3
Формат/Информация : Audio Coding 3
Коммерческое название : Dolby Digital
Идентификатор кодека : A_AC3
Продолжительность : 1 ч. 41 м.
Вид битрейта : Постоянный
Битрейт : 448 Кбит/сек
Каналы : 6 каналов
Channel layout : L R C LFE Ls Rs
Частота : 48,0 КГц
Частота кадров : 31,250 кадров/сек (1536 SPF)
Битовая глубина : 16 бит
Метод сжатия : С потерями
Размер потока : 325 Мбайт (2%)
Заголовок : AVO (Гаврилов)
Язык : Russian
Default : Да
Forced : Нет

Аудио #9
Идентификатор : 10
Формат : AC-3
Формат/Информация : Audio Coding 3
Коммерческое название : Dolby Digital
Идентификатор кодека : A_AC3
Продолжительность : 1 ч. 41 м.
Вид битрейта : Постоянный
Битрейт : 192 Кбит/сек
Каналы : 2 канала
Channel layout : L R
Частота : 48,0 КГц
Частота кадров : 31,250 кадров/сек (1536 SPF)
Битовая глубина : 16 бит
Метод сжатия : С потерями
Размер потока : 139 Мбайт (1%)
Заголовок : AVO (Визгунов)
Язык : Russian
Default : Нет
Forced : Нет

Аудио #10
Идентификатор : 11
Формат : AC-3
Формат/Информация : Audio Coding 3
Коммерческое название : Dolby Digital
Идентификатор кодека : A_AC3
Продолжительность : 1 ч. 41 м.
Вид битрейта : Постоянный
Битрейт : 384 Кбит/сек
Каналы : 6 каналов
Channel layout : L R C LFE Ls Rs
Частота : 48,0 КГц
Частота кадров : 31,250 кадров/сек (1536 SPF)
Битовая глубина : 16 бит
Метод сжатия : С потерями
Размер потока : 279 Мбайт (2%)
Заголовок : VO (Черкасов) (новый перевод)
Язык : Russian
Default : Нет
Forced : Нет

Аудио #11
Идентификатор : 12
Формат : AC-3
Формат/Информация : Audio Coding 3
Коммерческое название : Dolby Digital
Идентификатор кодека : A_AC3
Продолжительность : 1 ч. 41 м.
Вид битрейта : Постоянный
Битрейт : 192 Кбит/сек
Каналы : 2 канала
Channel layout : L R
Частота : 48,0 КГц
Частота кадров : 31,250 кадров/сек (1536 SPF)
Битовая глубина : 16 бит
Метод сжатия : С потерями
Размер потока : 139 Мбайт (1%)
Заголовок : MVO
Язык : Ukrainian
Default : Нет
Forced : Нет

Аудио #12
Идентификатор : 13
Формат : AC-3
Формат/Информация : Audio Coding 3
Коммерческое название : Dolby Digital
Идентификатор кодека : A_AC3
Продолжительность : 1 ч. 41 м.
Вид битрейта : Постоянный
Битрейт : 448 Кбит/сек
Каналы : 6 каналов
Channel layout : L R C LFE Ls Rs
Частота : 48,0 КГц
Частота кадров : 31,250 кадров/сек (1536 SPF)
Битовая глубина : 16 бит
Метод сжатия : С потерями
Размер потока : 325 Мбайт (2%)
Заголовок : Оригинал
Язык : English
Default : Нет
Forced : Нет

Текст #1
Идентификатор : 14
Формат : UTF-8
Идентификатор кодека : S_TEXT/UTF8
Идентификатор кодека/Информация : UTF-8 Plain Text
Продолжительность : 1 ч. 30 м.
Битрейт : 51 бит/сек
ElementCount : 601
Размер потока : 34,6 Кбайт (0%)
Заголовок : Rus Full
Язык : Russian
Default : Нет
Forced : Нет

Текст #2
Идентификатор : 15
Формат : UTF-8
Идентификатор кодека : S_TEXT/UTF8
Идентификатор кодека/Информация : UTF-8 Plain Text
Продолжительность : 1 ч. 39 м.
Битрейт : 27 бит/сек
ElementCount : 756
Размер потока : 19,9 Кбайт (0%)
Заголовок : Eng Full
Язык : English
Default : Нет
Forced : Нет

Меню
00:00:00.000 : :Chapter 1
00:00:50.133 : :Chapter 2
00:02:39.284 : :Chapter 3
00:04:50.414 : :Chapter 4
00:07:56.893 : :Chapter 5
00:12:10.354 : :Chapter 6
00:15:35.934 : :Chapter 7
00:18:15.219 : :Chapter 8
00:21:30.372 : :Chapter 9
00:25:00.831 : :Chapter 10
00:29:01.030 : :Chapter 11
00:36:24.556 : :Chapter 12
00:39:41.670 : :Chapter 13
00:42:41.850 : :Chapter 14
00:45:38.527 : :Chapter 15
00:50:59.473 : :Chapter 16
00:52:52.252 : :Chapter 17
00:56:08.281 : :Chapter 18
01:00:15.028 : :Chapter 19
01:05:48.653 : :Chapter 20
01:09:06.015 : :Chapter 21
01:10:51.956 : :Chapter 22
01:17:09.666 : :Chapter 23
01:20:50.470 : :Chapter 24
01:23:53.987 : :Chapter 25
01:30:26.629 : :Chapter 26
01:31:34.863 : :Chapter 27
Загрузка...Cкриншот1 Смертельная битва / Mortal Kombat (1995) BDRip 1080p [HEVC] 10 bit от M@kSIMusЗагрузка...Cкриншот2 Смертельная битва / Mortal Kombat (1995) BDRip 1080p [HEVC] 10 bit от M@kSIMusЗагрузка...Cкриншот3 Смертельная битва / Mortal Kombat (1995) BDRip 1080p [HEVC] 10 bit от M@kSIMusЗагрузка...Cкриншот4 Смертельная битва / Mortal Kombat (1995) BDRip 1080p [HEVC] 10 bit от M@kSIMus
Торрент🧲 Магнет

Рейтинги КП и IMDB, кнопки "Позвать в чате" и "Спасибо", а также мультитрекерная статистика доступны только зарегистрированным/авторизованным пользователям!

Файлы: 1
  • Смертельная битва (1995) BDRip 1080p [HEVC] 10 bit.mkv   12.98 ГБ
Поблагодарили: 27
aacg, Alexeyall, aquarius1247, Brooklyn, brukvalub, Chance, crash, dimm, Egor, FTOR, icesnoop, Jonny3387, Kiran, LastSurviv0r, MIGRANT, NoMaD, SaN161NeK, sanyahustler, Scythain, sedoi09, sharkey71, SoulBoy, TaiLung, VIKING, vladd37, vserginbox, Zulbay
Admin
1029790012.98 ГБ

Добавление нового комментария

Добавление комментариев доступно только зарегистрированным/авторизованным пользователям.
Аватар Cthulhu
  Cthulhu  
TaiLung писал(а):
Второй фильм ждём, только размером поменьше, так как второй фильм не такой хороший как первый :)
Странная логика. Если фильм интересный, значит его надо делать качественно, а если нет, то и гавно прокатит. Так дела не делаются.
Аватар TaiLung
  TaiLung  
Второй фильм ждём, только размером поменьше, так как второй фильм не такой хороший как первый :)
Аватар Cthulhu
  Cthulhu  
OldGamer писал(а):
Может быть когда-нибудь выпустят ремастер, отреставрируют картинку
а что тут реставрировать? Тут лишний шум подубрать надо, а в остальном исходник то хороший.
Аватар OldGamer
  OldGamer  
Может быть когда-нибудь выпустят ремастер, отреставрируют картинку
Аватар Cthulhu
  Cthulhu  
Настройки очень даже. Красиво.
Аватар MakSIMus
  MakSIMus  
Zulbay писал(а):
Просто скажите как убрать зерно в Hybrid. Меня это тоже интересует. А пока это не более чем пустая болтовня ради старта очередного срача.
Поддерживаю. Хорошо сказал.
Аватар не указан
  Zulbay  
Shanti писал(а):
и M@kSIMus стал профессионалом :) извините, но что делать с таким рипом..
если уж переживаете за зерно и мусор в изображении, тогда уж лучше рипать в x264.

рип, конечно, имеет место быть, но чаще всего, участь таких рипов на "посмотреть и удалить".
только некоторые фанаты, оставят рип с 2-3 дорожками и уйдут с раздачи. до тех пор, пока не появится лучший вариант.
оставшиеся, возможно, подержат рип, пока место на диске не прижмет.

Если Вы сделаете хороший рип фильма, снятого на пленку, даже не упоминаю слово "качественный", размером не более 5,5 gb. и с не более чем 3-мя дорожками в контейнере. (это где-то ~1 gb) (остальные дорожки, можно вынести в облако или вне контейнера.) - вот это будет неплохой уровень.. а если еще и изображение приведете к достойному виду, буду считать вас одним из лучших.

только не говорите, что это невозможно.
Просто скажите как убрать зерно в Hybrid. Меня это тоже интересует. А пока это не более чем пустая болтовня ради старта очередного срача.
Аватар не указан
  Zulbay  
Ты охренел?! Я полгода его ждал!!!😁😀😁👍
Аватар не указан
  Priest2017  
Отличный рип спасибище
Аватар Shanti
  Shanti  
и M@kSIMus стал профессионалом :) извините, но что делать с таким рипом..
если уж переживаете за зерно и мусор в изображении, тогда уж лучше рипать в x264.

рип, конечно, имеет место быть, но чаще всего, участь таких рипов на "посмотреть и удалить".
только некоторые фанаты, оставят рип с 2-3 дорожками и уйдут с раздачи. до тех пор, пока не появится лучший вариант.
оставшиеся, возможно, подержат рип, пока место на диске не прижмет.

Если Вы сделаете хороший рип фильма, снятого на пленку, даже не упоминаю слово "качественный", размером не более 5,5 gb. и с не более чем 3-мя дорожками в контейнере. (это где-то ~1 gb) (остальные дорожки, можно вынести в облако или вне контейнера.) - вот это будет неплохой уровень.. а если еще и изображение приведете к достойному виду, буду считать вас одним из лучших.

только не говорите, что это невозможно.