💬 Мини-чат

Убедительная просьба не обсуждать тут политику.
AdminXuMuK, привет. По тихоньку. Начинает появляться немного свободного времени. В этом месяце вернусь к переделке сайта, которым несколько месяцев не занимался. Надо будет до весны закончить и обновиться.
SpartanecXuMuK, Привет Паш!
XuMuKSpartanec, Лёха, здарова, братишка
OldGamerXuMuK, https://forum.blu-ray.com/showthread.php?t=348907
XuMuKOldGamer, блин, исходник в bdvm. ещё и переупаковывать
XuMuKOldGamer, мне выдаёт только 2013 год релиза диска
OldGamerрано или поздно попадётся, там и посмотрим
OldGamerXuMuK, с форума blu-ray.com переходил по ссылкам на французские обзоры, там коллекционное издание выпустили
XuMuKOldGamer, хотя не факт, походу самопал
XuMuKOldGamer, на caps-a-holic нет такого трансфера. Но видимо есть на блютопии
OldGamerпрошлогодний французский трансфер хвалят по картинке, но в сети не встретился
OldGamerXuMuK, https://rutracker.org/forum/viewtopic.php?t=4986124
XuMuKOldGamer, ссылку хоть кинь
OldGamerXuMuK, я не сохранял исходник
XuMuKOldGamer, сэмпл-то дашь?
Отправка сообщений доступна только зарегистрированным/авторизованным пользователям.
Онлайн (за 10 мин.): 0

Хеллбой: Герой из пекла / Hellboy (2004) [Theatrical Cut] BDRip 1080p [HEVC] 10 bit от OldGamer (RG RIPS CLUB)

HEVC
10 bit
Обложка Хеллбой: Герой из пекла / Hellboy (2004) [Theatrical Cut] BDRip 1080p [HEVC] 10 bit от OldGamer (RG RIPS CLUB) Год: 2004
Страна: США
Студия: Dark Horse Entertainment, Lawrence Gordon Productions, Revolution Studios, Starlite Films
Жанр: Ужасы, Фантастика, Фэнтези, Боевик
Продолжительность: 02:01:58

Режиссер: Гильермо дель Торо
В ролях: Рон Перлман, Джон Хёрт, Сэльма Блэр, Руперт Эванс, Карел Роден, Джеффри Тэмбор, Даг Джонс, Брайан Стил, Ладислав Беран, Бидди Ходсон

Описание: Вторая мировая война. Нацисты терпят одно сокрушительное поражение за другим. В результате исследования оккультных ритуалов в суперсекретной лаборатории учёным, работающим на фашистский режим, удаётся поднять из небытия Демона Ада, который должен помочь переломить ход войны. Но в научную лабораторию тайно проникает отряд союзников и поворачивает это мистическое и грозное оружие против нацистов. Однако никто из участников эксперимента и не предполагает, что врата потустороннего мира после открытия окажутся неподвластны людям, и им придётся столкнуться с существами ещё более опасными и непредсказуемыми, чем Демон Ада.


Исходник: BDRemux (RuTracker)
Видео: 1920x1040 (1.85:1), 10,9 Мбит/сек, HEVC (Main 10@L4.1@High) 10 бит
Аудио1: AC3, 6 ch, 640 Kbps - РусскийРусский, DUB (Blu-Ray)
Аудио2: AC3, 2 ch, 192 Kbps - РусскийРусский, MVO (ТК "Spike")
Аудио3: AC3, 2 ch, 192 Kbps - РусскийРусский, MVO (ТК "AMC")
Аудио4: AC3, 6 ch, 448 Kbps - РусскийРусский, DVO (Tycoon Studio)
Аудио5: AC3, 2 ch, 192 Kbps - РусскийРусский, AVO (Сергей Визгунов)
Аудио6: AC3, 6 ch, 640 Kbps - АнглийскийАнглийский
Субтитры: русские (full, forced), английские (SDH)

Как за пару секунд удалить ненужные аудиодорожки и субтитры (Внимание! После удаления вы не сможете поддержать раздачу)

Лог (x265 info)
x265 [info]: frame I: 738, Avg QP:17.97 kb/s: 24358.83
x265 [info]: frame P: 34257, Avg QP:19.40 kb/s: 18484.92
x265 [info]: frame B: 140468, Avg QP:21.75 kb/s: 8967.85
x265 [info]: Weighted P-Frames: Y:10.0% UV:8.0%
x265 [info]: Weighted B-Frames: Y:10.0% UV:7.2%
x265 [info]: encoded 175463 frames in 147825.34s (1.19 fps), 10890.68 kb/s, Avg QP:21.27
Медиаинфо
Общее
Уникальный идентификатор : 59045466540841984792849560561853308069 (0x2C6BBE42F424F919BDA4E22BCDD29CA5)
Полное имя : \\.\Хеллбой.Герой.из.пекла.Hellboy.2004.Theatrical.Cut.BDRip-HEVC.1080p.mkv
Формат : Matroska
Версия формата : Version 4
Размер файла : 11,2 Гбайт
Продолжительность : 2 ч. 1 м.
Общий поток : 13,2 Мбит/сек
Частота кадров : 23,976 кадра/сек
Дата кодирования : 2023-11-01 05:47:33 UTC
Программа кодирования : mkvmerge v79.0 ('Funeral Pyres') 64-bit
Библиотека кодирования : libebml v1.4.4 + libmatroska v1.7.1
IMDB : tt0167190
TMDB : movie/1487

Видео
Идентификатор : 1
Формат : HEVC
Формат/Информация : High Efficiency Video Coding
Профиль формата : Main 10@L4.1@High
Идентификатор кодека : V_MPEGH/ISO/HEVC
Продолжительность : 2 ч. 1 м.
Битрейт : 10,9 Мбит/сек
Ширина : 1 920 пикселей
Высота : 1 040 пикселей
Соотношение сторон : 1,85:1
Режим частоты кадров : Постоянный
Частота кадров : 23,976 (24000/1001) кадра/сек
Цветовое пространство : YUV
Субдискретизация насыщенности : 4:2:0
Битовая глубина : 10 бит
Бит/(Пиксели*Кадры) : 0.227
Размер потока : 9,28 Гбайт (83%)
Заголовок : Hellboy / Rip by OldGamer
Библиотека кодирования : x265 3.5+110-8ee01d45b:[Windows][GCC 13.2.0][64 bit] 10bit
Настройки программы : cpuid=1111039 / frame-threads=4 / numa-pools=16 / wpp / no-pmode / no-pme / no-psnr / no-ssim / log-level=2 / input-csp=1 / input-res=1920x1040 / interlace=0 / total-frames=175463 / level-idc=41 / high-tier=1 / uhd-bd=0 / ref=5 / no-allow-non-conformance / no-repeat-headers / annexb / no-aud / no-eob / no-eos / no-hrd / info / hash=0 / temporal-layers=0 / open-gop / min-keyint=23 / keyint=240 / gop-lookahead=0 / bframes=16 / b-adapt=2 / b-pyramid / bframe-bias=0 / rc-lookahead=40 / lookahead-slices=0 / scenecut=40 / no-hist-scenecut / radl=0 / no-splice / no-intra-refresh / ctu=32 / min-cu-size=8 / rect / amp / max-tu-size=32 / tu-inter-depth=4 / tu-intra-depth=4 / limit-tu=1 / rdoq-level=2 / dynamic-rd=0.00 / no-ssim-rd / signhide / no-tskip / nr-intra=0 / nr-inter=0 / no-constrained-intra / no-strong-intra-smoothing / max-merge=5 / limit-refs=3 / no-limit-modes / me=3 / subme=7 / merange=57 / temporal-mvp / no-frame-dup / no-hme / weightp / weightb / no-analyze-src-pics / deblock=-2:-2 / no-sao / no-sao-non-deblock / rd=6 / selective-sao=0 / no-early-skip / no-rskip / no-fast-intra / no-tskip-fast / no-cu-lossless / b-intra / no-splitrd-skip / rdpenalty=0 / psy-rd=2.00 / psy-rdoq=1.00 / no-rd-refine / no-lossless / cbqpoffs=0 / crqpoffs=0 / rc=crf / crf=19.7 / qcomp=0.60 / qpstep=4 / stats-write=0 / stats-read=0 / vbv-maxrate=50000 / vbv-bufsize=50000 / vbv-init=0.9 / min-vbv-fullness=50.0 / max-vbv-fullness=80.0 / crf-max=0.0 / crf-min=0.0 / ipratio=1.40 / pbratio=1.30 / aq-mode=1 / aq-strength=1.00 / no-cutree / zone-count=1 / zones: / start-frame=163433 / end-frame=175463 / qp=36 / no-strict-cbr / qg-size=32 / no-rc-grain / qpmax=69 / qpmin=0 / no-const-vbv / sar=1 / overscan=0 / videoformat=5 / range=0 / colorprim=2 / transfer=2 / colormatrix=2 / chromaloc=0 / display-window=0 / cll=0,0 / min-luma=0 / max-luma=1023 / log2-max-poc-lsb=8 / vui-timing-info / vui-hrd-info / slices=1 / no-opt-qp-pps / no-opt-ref-list-length-pps / no-multi-pass-opt-rps / scenecut-bias=0.00 / no-opt-cu-delta-qp / no-aq-motion / no-hdr10 / no-hdr10-opt / no-dhdr10-opt / no-idr-recovery-sei / analysis-reuse-level=0 / analysis-save-reuse-level=0 / analysis-load-reuse-level=0 / scale-factor=0 / refine-intra=0 / refine-inter=0 / refine-mv=1 / refine-ctu-distortion=0 / no-limit-sao / ctu-info=0 / no-lowpass-dct / refine-analysis-type=0 / copy-pic=1 / max-ausize-factor=1.0 / no-dynamic-refine / no-single-sei / no-hevc-aq / no-svt / no-field / qp-adaptation-range=1.00 / scenecut-aware-qp=0conformance-window-offsets / right=0 / bottom=0 / decoder-max-rate=0 / no-vbv-live-multi-pass / no-mcstf / no-sbrc
Язык : English
Default : Да
Forced : Нет

Аудио #1
Идентификатор : 2
Формат : AC-3
Формат/Информация : Audio Coding 3
Коммерческое название : Dolby Digital
Идентификатор кодека : A_AC3
Продолжительность : 2 ч. 1 м.
Вид битрейта : Постоянный
Битрейт : 640 Кбит/сек
Каналы : 6 каналов
Channel layout : L R C LFE Ls Rs
Частота : 48,0 КГц
Частота кадров : 31,250 кадров/сек (1536 SPF)
Метод сжатия : С потерями
Размер потока : 558 Мбайт (5%)
Заголовок : DUB (Blu-Ray)
Язык : Russian
Service kind : Complete Main
Default : Да
Forced : Нет

Аудио #2
Идентификатор : 3
Формат : AC-3
Формат/Информация : Audio Coding 3
Коммерческое название : Dolby Digital
Идентификатор кодека : A_AC3
Продолжительность : 2 ч. 1 м.
Вид битрейта : Постоянный
Битрейт : 192 Кбит/сек
Каналы : 2 канала
Channel layout : L R
Частота : 48,0 КГц
Частота кадров : 31,250 кадров/сек (1536 SPF)
Метод сжатия : С потерями
Размер потока : 167 Мбайт (1%)
Заголовок : MVO (ТК "Spike")
Язык : Russian
Service kind : Complete Main
Default : Нет
Forced : Нет

Аудио #3
Идентификатор : 4
Формат : AC-3
Формат/Информация : Audio Coding 3
Коммерческое название : Dolby Digital
Идентификатор кодека : A_AC3
Продолжительность : 2 ч. 1 м.
Вид битрейта : Постоянный
Битрейт : 192 Кбит/сек
Каналы : 2 канала
Channel layout : L R
Частота : 48,0 КГц
Частота кадров : 31,250 кадров/сек (1536 SPF)
Метод сжатия : С потерями
Размер потока : 167 Мбайт (1%)
Заголовок : MVO (ТК "AMC")
Язык : Russian
Service kind : Complete Main
Default : Нет
Forced : Нет

Аудио #4
Идентификатор : 5
Формат : AC-3
Формат/Информация : Audio Coding 3
Коммерческое название : Dolby Digital
Идентификатор кодека : A_AC3
Продолжительность : 2 ч. 1 м.
Вид битрейта : Постоянный
Битрейт : 448 Кбит/сек
Каналы : 6 каналов
Channel layout : L R C LFE Ls Rs
Частота : 48,0 КГц
Частота кадров : 31,250 кадров/сек (1536 SPF)
Метод сжатия : С потерями
Размер потока : 391 Мбайт (3%)
Заголовок : DVO (Tycoon Studio)
Язык : Russian
Service kind : Complete Main
Default : Нет
Forced : Нет

Аудио #5
Идентификатор : 6
Формат : AC-3
Формат/Информация : Audio Coding 3
Коммерческое название : Dolby Digital
Идентификатор кодека : A_AC3
Продолжительность : 2 ч. 1 м.
Вид битрейта : Постоянный
Битрейт : 192 Кбит/сек
Каналы : 2 канала
Channel layout : L R
Частота : 48,0 КГц
Частота кадров : 31,250 кадров/сек (1536 SPF)
Метод сжатия : С потерями
Размер потока : 167 Мбайт (1%)
Заголовок : AVO (Сергей Визгунов)
Язык : Russian
Service kind : Complete Main
Default : Нет
Forced : Нет

Аудио #6
Идентификатор : 7
ID in the original source medium : 4352 (0x1100)
Формат : AC-3
Формат/Информация : Audio Coding 3
Коммерческое название : Dolby Digital
Идентификатор кодека : A_AC3
Продолжительность : 2 ч. 1 м.
Вид битрейта : Постоянный
Битрейт : 640 Кбит/сек
Каналы : 6 каналов
Channel layout : L R C LFE Ls Rs
Частота : 48,0 КГц
Частота кадров : 31,250 кадров/сек (1536 SPF)
Метод сжатия : С потерями
Размер потока : 558 Мбайт (5%)
Заголовок : Original
Язык : English
Service kind : Complete Main
Default : Нет
Forced : Нет
Носитель оригинала : Blu-ray

Текст #1
Идентификатор : 8
Формат : UTF-8
Идентификатор кодека : S_TEXT/UTF8
Идентификатор кодека/Информация : UTF-8 Plain Text
Продолжительность : 1 ч. 30 м.
Битрейт : 2 бит/сек
Частота кадров : 0,005 кадр/сек
Count of elements : 25
Размер потока : 1,50 Кбайт (0%)
Заголовок : Forced
Язык : Russian
Default : Да
Forced : Нет

Текст #2
Идентификатор : 9
Формат : UTF-8
Идентификатор кодека : S_TEXT/UTF8
Идентификатор кодека/Информация : UTF-8 Plain Text
Продолжительность : 1 ч. 55 м.
Битрейт : 57 бит/сек
Частота кадров : 0,161 кадр/сек
Count of elements : 1110
Размер потока : 48,2 Кбайт (0%)
Заголовок : Full, Blu-Ray
Язык : Russian
Default : Нет
Forced : Нет

Текст #3
Идентификатор : 10
Формат : UTF-8
Идентификатор кодека : S_TEXT/UTF8
Идентификатор кодека/Информация : UTF-8 Plain Text
Продолжительность : 1 ч. 55 м.
Битрейт : 59 бит/сек
Частота кадров : 0,144 кадр/сек
Count of elements : 992
Размер потока : 50,0 Кбайт (0%)
Заголовок : Full v.2
Язык : Russian
Default : Нет
Forced : Нет

Текст #4
Идентификатор : 11
Формат : UTF-8
Идентификатор кодека : S_TEXT/UTF8
Идентификатор кодека/Информация : UTF-8 Plain Text
Продолжительность : 1 ч. 55 м.
Битрейт : 62 бит/сек
Частота кадров : 0,161 кадр/сек
Count of elements : 1112
Размер потока : 53,0 Кбайт (0%)
Заголовок : Full v.3
Язык : Russian
Default : Нет
Forced : Нет

Текст #5
Идентификатор : 12
Формат : UTF-8
Идентификатор кодека : S_TEXT/UTF8
Идентификатор кодека/Информация : UTF-8 Plain Text
Продолжительность : 1 ч. 54 м.
Битрейт : 38 бит/сек
Частота кадров : 0,168 кадр/сек
Count of elements : 1156
Размер потока : 32,0 Кбайт (0%)
Заголовок : Full
Язык : English
Default : Нет
Forced : Нет

Текст #6
Идентификатор : 13
Формат : UTF-8
Идентификатор кодека : S_TEXT/UTF8
Идентификатор кодека/Информация : UTF-8 Plain Text
Продолжительность : 1 ч. 54 м.
Битрейт : 43 бит/сек
Частота кадров : 0,197 кадр/сек
Count of elements : 1360
Размер потока : 36,2 Кбайт (0%)
Заголовок : SDH
Язык : English
Default : Нет
Forced : Нет

Меню
00:00:00.000 : en:Start
00:06:42.902 : en:Closing the Portal
00:14:38.252 : en:Resurrection
00:22:50.035 : en:The Rest of the Family
00:31:06.907 : en:Westside Highway
00:40:09.157 : en:The Seed of Destruction
00:47:42.068 : en:Inferno
00:53:32.960 : en:Underwater Chamber
00:58:40.434 : en:Doing His Job
01:03:57.667 : en:Man Down
01:10:57.503 : en:On a Mission
01:18:40.466 : en:"Something's Wrong"
01:28:18.043 : en:"Something Big"
01:34:50.184 : en:Egg Chamber
01:39:44.478 : en:The Right Hand of Doom
01:48:09.525 : en:"How Big Could it Be?"
Загрузка...Cкриншот1 Хеллбой: Герой из пекла / Hellboy (2004) [Theatrical Cut] BDRip 1080p [HEVC] 10 bit от OldGamer (RG RIPS CLUB)Загрузка...Cкриншот2 Хеллбой: Герой из пекла / Hellboy (2004) [Theatrical Cut] BDRip 1080p [HEVC] 10 bit от OldGamer (RG RIPS CLUB)Загрузка...Cкриншот3 Хеллбой: Герой из пекла / Hellboy (2004) [Theatrical Cut] BDRip 1080p [HEVC] 10 bit от OldGamer (RG RIPS CLUB)Загрузка...Cкриншот4 Хеллбой: Герой из пекла / Hellboy (2004) [Theatrical Cut] BDRip 1080p [HEVC] 10 bit от OldGamer (RG RIPS CLUB)
Релиз-группа: RIPS CLUB
Сэмпл Торрент🧲 Магнет

Раздача обновлена!
Перекодировано. Добавлены переводы: ТК "Spike", ТК "AMC", Tycoon Studio, Сергей Визгунов.

Рейтинги КП и IMDB, кнопки "Позвать в чате" и "Спасибо", а также мультитрекерная статистика доступны только зарегистрированным/авторизованным пользователям!

Файлы: 1
  • Хеллбой.Герой.из.пекла.Hellboy.2004.Theatrical.Cut.BDRip-HEVC.1080p.mkv   11.24 ГБ
Поблагодарили: 10
alexyak, Art1967, denisptp4, ko1ob, Lovejoy, MIGRANT, normalllhuman, SergKote, serg_98, stickstoff
OldGamer
11575011.24 ГБ

Добавление нового комментария

Добавление комментариев доступно только зарегистрированным/авторизованным пользователям.
Аватар не указан
  Lovejoy  
В фильмах начала нулевых есть свое очарование. Спасибо!