💬 Мини-чат

OldGamerвыводить
mafo2Admin, можно вывести, наглядно будет
StarLordAdmin, +
AdminНадпись HDR выводить на обложку?
OldGamerGiggalo, но лучше всего вообще не затрагивайте этот ключ, по умолчанию будет установлено оптимальное значение
OldGamerGiggalo, но если уж очень хочется то пишите --frame-threads 3
OldGamerGiggalo, а зачем его менять?) нужное значение устанавливается автоматически
GiggaloДобрый вечер всем! OldGamer Покажи пожалуйста почему когда пишу в командной строке frame-threads=3 он не меняется. Какой там стоит 13 он его и держит, а ругие установки спокойно меняет?
AdminStarLord, спасибо. Пока сойдет.
StarLordAdmin, ага, вижу
StarLordAdmin, а как должно брать?
AdminStarLord, ты шаришь?
AdminStarLord, у меня сейчас такая, но с точками беда. Доработать бы (https?://([-\w\.]+)+(:\d+)?(/([-\w/_:%]*(\.\w+)*(\?\S+)?)?)?)
AdminStarLord, скрины в bb некорректно берет
StarLordwww, ftp(s), http(s), #, :, &
StarLordAdmin, все мои кейсы покрыла
StarLordAdmin, вот эта хорошая -(?:(?:https?|ftps?):\/\/|\b(?:[a-z\d]+\.))(?:(?:[^\s()<>]+|\((?:[^\s()<>]+|(?:\([^\s()<>]+\)))?\))+(?:\((?:[^\s()<>]+|(?:\(?:[^\s()<>]+\)))?\)|[^\s`!()\[\]{};:'".,<>?«»“”‘’]))?
AdminStarLord, мне бы с обязательным указанием протокола
AdminСообщение удалено (удалил: Admin)
AdminСообщение удалено (удалил: Admin)
  • InSpector
  • Rizenfast
Отправка сообщений доступна только зарегистрированным/авторизованным пользователям.
Онлайн (за 10 мин.): 2

Последний самурай / The Last Samurai (2003) BDRip 1080p [HEVC] 10 bit от Cthulhu

HEVC
10 bit
Обложка Последний самурай / The Last Samurai (2003) BDRip 1080p [HEVC] 10 bit от Cthulhu Год: 2003
Страна: США, Япония, Новая Зеландия
Студия: Cruise/Wagner Productions, Radar Pictures Inc., The Bedford Falls Company, Warner Bros. Pictures
Жанр: Боевик, Драма, Военный, История
Продолжительность: 02:34:11

Режиссер: Эдвард Цвик
В ролях: Кен Ватанабе, Том Круз, Уильям Этертон, Чад Линдберг, Рэй Годшалл ст., Билли Коннолли, Тони Голдуин, Масато Харада, Масаши Одате, Джон Кояма, Тимоти Сполл, Шичиносуке Накамура, Того Игава, Шин Коямада, Хироюки Санада, Коюки

Описание: Действие разворачивается в Японии 70-ых годов девятнадцатого века. Капитан Нейтон Альгрен, уважаемый американский военный офицер, нанят Императором Японии для обучения первой армии Страны Восходящего Солнца современному искусству ведения боевых действий. Император пытается искоренить древних воинов-самураев, готовясь к более прозападной политике правительства…


Видео: 1920x792, 6400 Kbps
Аудио1: AC3, 6 ch, 640 Kbps - РусскийРусский, Дублированный (Лицензия)
Аудио2: AC3, 6 ch, 384 Kbps - РусскийРусский, Двухголосый (Гланц и Королева)
Аудио3: AC3, 6 ch, 384 Kbps - РусскийРусский, Одноголосый (Гаврилов)
Аудио4: AC3, 6 ch, 384 Kbps - РусскийРусский, Одноголосый (Живов)
Аудио5: AC3, 6 ch, 640 Kbps - Оригинал
Субтитры: Русские (форсированные, полные), английские (форсированные, полные)

Как за пару секунд удалить ненужные аудиодорожки и субтитры (Внимание! После удаления вы не сможете поддержать раздачу)

Медиаинфо
General
Unique ID : 273688865192516770908263687350653373423 (0xCDE68EDF1D690981BAE3ECB5AB654BEF)
Complete name : F:\HEVC\The Last Samurai (2003) BDRip 1080p [HEVC] 10Bit_Cthulhu.mkv
Format : Matroska
Format version : Version 4 / Version 2
File size : 9.51 GiB
Duration : 2 h 34 min
Overall bit rate : 8 834 kb/s
Movie name : The Last Samurai (2003)_rip_by_Cthulhu
Encoded date : UTC 2018-05-30 03:49:44
Writing application : mkvmerge v21.0.0 ('Tardigrades Will Inherit The Earth') 64-bit
Writing library : libebml v1.3.5 + libmatroska v1.4.8
Cover : Yes
Attachments : cover.jpg

Video
ID : 1
Format : HEVC
Format/Info : High Efficiency Video Coding
Format profile : Main 10@L4.1@High
Codec ID : V_MPEGH/ISO/HEVC
Duration : 2 h 34 min
Bit rate : 6 400 kb/s
Width : 1 920 pixels
Height : 792 pixels
Display aspect ratio : 2.40:1
Frame rate mode : Constant
Frame rate : 23.976 (24000/1001) FPS
Color space : YUV
Chroma subsampling : 4:2:0
Bit depth : 10 bits
Bits/(Pixel*Frame) : 0.176
Stream size : 6.89 GiB (72%)
Writing library : x265 2.7+340-aa9102400f24:[Windows][GCC 8.0.1][64 bit] 10bit
Encoding settings : cpuid=1049583 / frame-threads=4 / numa-pools=4 / wpp / no-pmode / no-pme / no-psnr / no-ssim / log-level=2 / input-csp=1 / input-res=1920x792 / interlace=0 / total-frames=221806 / level-idc=41 / high-tier=1 / uhd-bd=0 / ref=5 / no-allow-non-conformance / no-repeat-headers / annexb / no-aud / no-hrd / info / hash=0 / no-temporal-layers / open-gop / min-keyint=23 / keyint=240 / gop-lookahead=0 / bframes=8 / b-adapt=2 / b-pyramid / bframe-bias=0 / rc-lookahead=40 / lookahead-slices=4 / scenecut=40 / radl=0 / no-intra-refresh / ctu=64 / min-cu-size=8 / rect / amp / max-tu-size=32 / tu-inter-depth=3 / tu-intra-depth=3 / limit-tu=4 / rdoq-level=1 / dynamic-rd=0.00 / no-ssim-rd / signhide / no-tskip / nr-intra=0 / nr-inter=0 / no-constrained-intra / no-strong-intra-smoothing / max-merge=3 / limit-refs=2 / limit-modes / me=3 / subme=7 / merange=57 / temporal-mvp / weightp / weightb / no-analyze-src-pics / deblock=-3:-3 / no-sao / no-sao-non-deblock / rd=4 / no-early-skip / rskip / no-fast-intra / no-tskip-fast / no-cu-lossless / no-b-intra / no-splitrd-skip / rdpenalty=0 / psy-rd=2.00 / psy-rdoq=1.00 / no-rd-refine / no-lossless / cbqpoffs=0 / crqpoffs=0 / rc=crf / crf=18.0 / qcomp=0.65 / qpstep=4 / stats-write=0 / stats-read=0 / vbv-maxrate=50000 / vbv-bufsize=50000 / vbv-init=0.9 / crf-max=0.0 / crf-min=0.0 / ipratio=1.40 / pbratio=1.30 / aq-mode=1 / aq-strength=1.00 / cutree / zone-count=0 / no-strict-cbr / qg-size=32 / no-rc-grain / qpmax=69 / qpmin=0 / no-const-vbv / sar=1 / overscan=0 / videoformat=5 / range=0 / colorprim=1 / transfer=1 / colormatrix=1 / chromaloc=0 / display-window=0 / max-cll=0,0 / min-luma=0 / max-luma=1023 / log2-max-poc-lsb=8 / vui-timing-info / vui-hrd-info / slices=1 / no-opt-qp-pps / no-opt-ref-list-length-pps / no-multi-pass-opt-rps / scenecut-bias=0.05 / no-opt-cu-delta-qp / no-aq-motion / no-hdr / no-hdr-opt / no-dhdr10-opt / no-idr-recovery-sei / analysis-reuse-level=5 / scale-factor=0 / refine-intra=0 / refine-inter=0 / refine-mv=0 / no-limit-sao / ctu-info=0 / no-lowpass-dct / refine-mv-type=0 / copy-pic=1 / max-ausize-factor=1.0 / no-dynamic-refine / no-single-sei
Language : English
Default : Yes
Forced : No
Color range : Limited
Color primaries : BT.709
Transfer characteristics : BT.709
Matrix coefficients : BT.709

Audio #1
ID : 2
Format : AC-3
Format/Info : Audio Coding 3
Format settings, Endianness : Big
Codec ID : A_AC3
Duration : 2 h 34 min
Bit rate mode : Constant
Bit rate : 640 kb/s
Channel(s) : 6 channels
Channel positions : Front: L C R, Side: L R, LFE
Sampling rate : 48.0 kHz
Frame rate : 31.250 FPS (1536 SPF)
Bit depth : 16 bits
Compression mode : Lossy
Stream size : 706 MiB (7%)
Title : Дубляж
Language : Russian
Service kind : Complete Main
Default : Yes
Forced : No

Audio #2
ID : 3
Format : AC-3
Format/Info : Audio Coding 3
Format settings, Endianness : Big
Codec ID : A_AC3
Duration : 2 h 34 min
Bit rate mode : Constant
Bit rate : 384 kb/s
Channel(s) : 6 channels
Channel positions : Front: L C R, Side: L R, LFE
Sampling rate : 48.0 kHz
Frame rate : 31.250 FPS (1536 SPF)
Bit depth : 16 bits
Compression mode : Lossy
Stream size : 423 MiB (4%)
Title : DVO (Гланц и Королева)
Language : Russian
Service kind : Complete Main
Default : No
Forced : No

Audio #3
ID : 4
Format : AC-3
Format/Info : Audio Coding 3
Format settings, Endianness : Big
Codec ID : A_AC3
Duration : 2 h 34 min
Bit rate mode : Constant
Bit rate : 384 kb/s
Channel(s) : 6 channels
Channel positions : Front: L C R, Side: L R, LFE
Sampling rate : 48.0 kHz
Frame rate : 31.250 FPS (1536 SPF)
Bit depth : 16 bits
Compression mode : Lossy
Stream size : 423 MiB (4%)
Title : AVO (Гаврилов)
Language : Russian
Service kind : Complete Main
Default : No
Forced : No

Audio #4
ID : 5
Format : AC-3
Format/Info : Audio Coding 3
Format settings, Endianness : Big
Codec ID : A_AC3
Duration : 2 h 34 min
Bit rate mode : Constant
Bit rate : 384 kb/s
Channel(s) : 6 channels
Channel positions : Front: L C R, Side: L R, LFE
Sampling rate : 48.0 kHz
Frame rate : 31.250 FPS (1536 SPF)
Bit depth : 16 bits
Compression mode : Lossy
Stream size : 423 MiB (4%)
Title : AVO (Живов)
Language : Russian
Service kind : Complete Main
Default : No
Forced : No

Audio #5
ID : 6
Format : AC-3
Format/Info : Audio Coding 3
Format settings, Endianness : Big
Codec ID : A_AC3
Duration : 2 h 34 min
Bit rate mode : Constant
Bit rate : 640 kb/s
Channel(s) : 6 channels
Channel positions : Front: L C R, Side: L R, LFE
Sampling rate : 48.0 kHz
Frame rate : 31.250 FPS (1536 SPF)
Bit depth : 16 bits
Compression mode : Lossy
Stream size : 706 MiB (7%)
Language : English
Service kind : Complete Main
Default : No
Forced : No

Text #1
ID : 7
Format : UTF-8
Codec ID : S_TEXT/UTF8
Codec ID/Info : UTF-8 Plain Text
Duration : 2 h 19 min
Bit rate : 9 b/s
Count of elements : 197
Stream size : 9.27 KiB (0%)
Title : Forced
Language : Russian
Default : No
Forced : No

Text #2
ID : 8
Format : UTF-8
Codec ID : S_TEXT/UTF8
Codec ID/Info : UTF-8 Plain Text
Duration : 2 h 33 min
Bit rate : 45 b/s
Count of elements : 928
Stream size : 50.8 KiB (0%)
Language : Russian
Default : No
Forced : No

Text #3
ID : 9
Format : UTF-8
Codec ID : S_TEXT/UTF8
Codec ID/Info : UTF-8 Plain Text
Duration : 2 h 19 min
Bit rate : 5 b/s
Count of elements : 195
Stream size : 5.35 KiB (0%)
Title : Forced
Language : English
Default : No
Forced : No

Text #4
ID : 10
Format : UTF-8
Codec ID : S_TEXT/UTF8
Codec ID/Info : UTF-8 Plain Text
Duration : 2 h 33 min
Bit rate : 31 b/s
Count of elements : 1082
Stream size : 35.6 KiB (0%)
Language : English
Default : No
Forced : No

Menu
00:00:00.000 : en:Chapter 1
00:01:52.070 : en:Chapter 2
00:05:38.629 : en:Chapter 3
00:09:58.389 : en:Chapter 4
00:13:13.584 : en:Chapter 5
00:15:24.882 : en:Chapter 6
00:20:06.496 : en:Chapter 7
00:22:54.831 : en:Chapter 8
00:25:39.496 : en:Chapter 9
00:31:12.996 : en:Chapter 10
00:37:00.676 : en:Chapter 11
00:41:00.916 : en:Chapter 12
00:44:11.440 : en:Chapter 13
00:49:36.098 : en:Chapter 14
00:52:41.116 : en:Chapter 15
00:56:48.363 : en:Chapter 16
01:00:04.559 : en:Chapter 17
01:03:25.259 : en:Chapter 18
01:06:58.973 : en:Chapter 19
01:11:43.257 : en:Chapter 20
01:14:40.601 : en:Chapter 21
01:18:55.689 : en:Chapter 22
01:21:22.002 : en:Chapter 23
01:24:21.014 : en:Chapter 24
01:26:39.819 : en:Chapter 25
01:30:28.381 : en:Chapter 26
01:34:01.761 : en:Chapter 27
01:37:16.455 : en:Chapter 28
01:41:46.391 : en:Chapter 29
01:44:55.914 : en:Chapter 30
01:48:06.605 : en:Chapter 31
01:52:26.364 : en:Chapter 32
01:55:24.375 : en:Chapter 33
02:00:03.654 : en:Chapter 34
02:06:24.535 : en:Chapter 35
02:08:21.485 : en:Chapter 36
02:10:46.797 : en:Chapter 37
02:13:06.603 : en:Chapter 38
02:16:37.314 : en:Chapter 39
02:22:57.527 : en:Chapter 40
02:24:31.287 : en:Chapter 41
Загрузка...Cкриншот1 Последний самурай / The Last Samurai (2003) BDRip 1080p [HEVC] 10 bit от CthulhuЗагрузка...Cкриншот2 Последний самурай / The Last Samurai (2003) BDRip 1080p [HEVC] 10 bit от CthulhuЗагрузка...Cкриншот3 Последний самурай / The Last Samurai (2003) BDRip 1080p [HEVC] 10 bit от CthulhuЗагрузка...Cкриншот4 Последний самурай / The Last Samurai (2003) BDRip 1080p [HEVC] 10 bit от Cthulhu
Сэмпл Торрент🧲 Магнет

Рейтинги КП и IMDB, кнопки "Позвать в чате" и "Спасибо", а также мультитрекерная статистика сидов и пиров доступны только зарегистрированным/авторизованным пользователям!

Файлы: 1
  • The Last Samurai (2003) BDRip 1080p [HEVC] 10Bit_Cthulhu.mkv   9.51 ГБ
Поблагодарили: 8
D16T, hold, Kiran, ko1ob, mr_nikitin, stormbringer, svibog123, vserginbox
Cthulhu
0319009.51 ГБ

Добавление нового комментария

Добавление комментариев доступно только зарегистрированным/авторизованным пользователям.