💬 Мини-чат

Убедительная просьба не обсуждать тут политику.
AdminЛёшикоБэст, вроде потихоньку идёт. Подождем, если не докачается, то встану.
AdminЛёшикоБэст, перекачайте торрент, а то в профиле не отображается ждете или уже нет
ЛёшикоБэстРаздайте, пожалуйста, Неудержимые / The Expendables (2010) [Theatrical Cut] BDRip 1080p [HEVC] 10 bit от Spartanec1308
OldGamerДа, есть.
ЛёшикоБэстДоброго вечера) Скажите пожалуйста, есть ли в планах сделать релиз дилогии "Зорро" с Антонио Бандерасом?
HANNIBALAdmin, 👍
AdminГоро, встал
ГороРаздайте, пожалуйста, Хищники / Predators (2010) BDRip 1080p [HEVC] 10 bit от HANNIBAL
AdminHANNIBAL, привет. Не помню за сколько брал, но продление в этот раз обошлось примерно в $14 со всякими комиссиями. А аренда VDS обходится примерно в $30-35 за год. Не исключено, что всё это подорожает. Пока что пожертвования с трудом покрывают расходы. Иногда если требуется и со своего кармана оплачиваю, не страшно. Прорвемся.
HANNIBALсколько сейчас стоит
HANNIBALAdmin, ПРИВЕТ
AdminНаконец-то получил банковскую карту. Продлил доменное имя (адрес сайта) на год.
  • ivan_1965
Отправка сообщений доступна только зарегистрированным/авторизованным пользователям.
Онлайн (за 10 мин.): 1

На линии огня / In the Line of Fire (1993) BDRip 1080p [HEVC] 10 bit от OldGamer (RG RIPS CLUB)

HEVC
10 bit
Обложка На линии огня / In the Line of Fire (1993) BDRip 1080p [HEVC] 10 bit от OldGamer (RG RIPS CLUB) Год: 1993
Страна: США
Студия: Columbia Pictures
Жанр: Боевик, Триллер, Драма, Криминал
Продолжительность: 02:08:36

Режиссер: Вольфганг Петерсен
В ролях: Клинт Иствуд, Джон Малкович, Рене Руссо, Дилан МакДермотт, Гэри Коул, Фред Долтон Томпсон, Джон Махони, Грегори Алан Уильямс, Джим Кёрли, Сэлли Хьюз

Описание: В тот злополучный день, когда в Далласе был убит президент Кеннеди, Фрэнк Хорриган находился среди охраны. Воспоминания о невыполненной миссии уже много лет не дают ему спать спокойно. Спустя 30 лет маньяк-психопат, угрожающий убить президента, выбирает Фрэнка мишенью для преследования. И в этой опасной игре только сила воли решит, кто останется в живых…


Видео: 1920x798, 6536 кбит/сек, 0.178 бит/(Пиксели*Кадры), 23,976 (24000/1001) кадра/сек, HEVC (Main 10@L4.1@High) 10 бит
Аудио1: AC3, 6 ch, 640 Kbps - РусскийРусский, Дублированный (Лицензия)
Аудио2: AC3, 6 ch, 640 Kbps - АнглийскийАнглийский, Оригинал
Субтитры: Отсутствуют

Как за пару секунд удалить ненужные аудиодорожки и субтитры (Внимание! После удаления вы не сможете поддержать раздачу)

Медиаинфо
x265 info: frame I: 773, Avg QP:16.10 kb/s: 15739.58
x265 info: frame P: 29635, Avg QP:17.60 kb/s: 12293.78
x265 info: frame B: 154608, Avg QP:19.28 kb/s: 5568.43
x265 info: Weighted P-Frames: Y:7.8% UV:6.0%
x265 info: Weighted B-Frames: Y:6.4% UV:4.0%
x265 info: consecutive B-frames: 3.2% 4.1% 5.7% 24.6% 8.5% 17.9% 5.8% 17.1% 2.6% 2.1% 1.2% 3.7% 0.6% 0.5% 0.5% 1.4% 0.4%
x265 info: encoded 185016 frames in 247778.29s (0.75 fps), 6688.16 kb/s, Avg QP:19.00

Формат : Matroska
Версия формата : Version 4
Размер файла : 7,16 Гбайт
Продолжительность : 2 ч. 8 м.
Общий поток : 7974 Кбит/сек
Название фильма : На линии огня
Программа кодирования : XviD4PSP 7.0.471 DAILY
Библиотека кодирования : Lavf57.71.100
Примечание : Rip by OldGamer
ErrorDetectionType : Per level 1
Attachments : poster.jpg
ACTORS : Клинт Иствуд, Джон Малкович,
COUNTRY : США
DATE : 1993
DIRECTOR : Вольфганг Петерсен
ENCODING_INFO : MATROSKA,WEBM > MKV / H264 > X265 CRF 18.0 Very Slow / TRUEHD > AC3 CBR 864kbps / AC3 > COPY Безопасное
GENRE : Боевик, Триллер, Драма
HD_VIDEO : 1
Язык : und
MEDIA_TYPE : 9
ORIGINAL_TITLE : In the Line of Fire

Видео
Идентификатор : 1
Формат : HEVC
Формат/Информация : High Efficiency Video Coding
Профиль формата : Main 10@L4.1@High
Идентификатор кодека : V_MPEGH/ISO/HEVC
Продолжительность : 2 ч. 8 м.
Битрейт : 6536 Кбит/сек
Ширина : 1920 пикселей
Высота : 798 пикселей
Соотношение сторон : 2,40:1
Режим частоты кадров : Постоянный
Частота кадров : 23,976 (24000/1001) кадра/сек
Цветовое пространство : YUV
Субдискретизация насыщенности : 4:2:0
Битовая глубина : 10 бит
Бит/(Пиксели*Кадры) : 0.178
Размер потока : 5,87 Гбайт (82%)
Библиотека кодирования : x265 2.9+9-f74003e88622:[Mac OS X][clang 10.0.0][64 bit] 10bit
Настройки программы : cpuid=1111039 / frame-threads=14 / wpp / no-pmode / no-pme / no-psnr / no-ssim / log-level=3 / input-csp=1 / input-res=1920x798 / interlace=0 / total-frames=0 / level-idc=41 / high-tier=1 / uhd-bd=0 / ref=5 / allow-non-conformance / no-repeat-headers / annexb / no-aud / no-hrd / info / hash=0 / no-temporal-layers / open-gop / min-keyint=23 / keyint=240 / gop-lookahead=0 / bframes=16 / b-adapt=2 / b-pyramid / bframe-bias=0 / rc-lookahead=60 / lookahead-slices=5 / scenecut=40 / radl=0 / no-intra-refresh / ctu=64 / min-cu-size=8 / rect / amp / max-tu-size=32 / tu-inter-depth=4 / tu-intra-depth=4 / limit-tu=1 / rdoq-level=2 / dynamic-rd=0.00 / no-ssim-rd / signhide / no-tskip / nr-intra=0 / nr-inter=0 / no-constrained-intra / no-strong-intra-smoothing / max-merge=5 / limit-refs=2 / no-limit-modes / me=3 / subme=7 / merange=57 / temporal-mvp / weightp / weightb / no-analyze-src-pics / deblock=-3:-3 / no-sao / no-sao-non-deblock / rd=6 / no-early-skip / rskip / no-fast-intra / no-tskip-fast / no-cu-lossless / no-b-intra / no-splitrd-skip / rdpenalty=0 / psy-rd=2.00 / psy-rdoq=1.00 / no-rd-refine / no-lossless / cbqpoffs=0 / crqpoffs=0 / rc=crf / crf=18.0 / qcomp=0.60 / qpstep=4 / stats-write=0 / stats-read=0 / vbv-maxrate=50000 / vbv-bufsize=50000 / vbv-init=0.9 / crf-max=0.0 / crf-min=0.0 / ipratio=1.40 / pbratio=1.30 / aq-mode=2 / aq-strength=0.90 / no-cutree / zone-count=1 / zones: / start-frame=179080 / end-frame=184995 / qp=35 / no-strict-cbr / qg-size=32 / no-rc-grain / qpmax=69 / qpmin=0 / no-const-vbv / sar=1 / overscan=0 / videoformat=5 / range=0 / colorprim=2 / transfer=2 / colormatrix=2 / chromaloc=0 / display-window=0 / max-cll=0,0 / min-luma=0 / max-luma=1023 / log2-max-poc-lsb=8 / vui-timing-info / vui-hrd-info / slices=1 / no-opt-qp-pps / no-opt-ref-list-length-pps / no-multi-pass-opt-rps / scenecut-bias=0.00 / no-opt-cu-delta-qp / aq-motion / no-hdr / no-hdr-opt / no-dhdr10-opt / no-idr-recovery-sei / analysis-reuse-level=5 / scale-factor=0 / refine-intra=0 / refine-inter=0 / refine-mv=0 / no-limit-sao / ctu-info=0 / no-lowpass-dct / refine-mv-type=0 / copy-pic=1 / max-ausize-factor=1.0 / no-dynamic-refine / no-single-sei
Язык : English
Default : Да
Forced : Нет
Цветовой диапазон : Limited

Аудио #1
Идентификатор : 2
Формат : AC-3
Формат/Информация : Audio Coding 3
Коммерческое название : Dolby Digital
Идентификатор кодека : A_AC3
Продолжительность : 2 ч. 8 м.
Вид битрейта : Постоянный
Битрейт : 640 Кбит/сек
Каналы : 6 каналов
Channel layout : L R C LFE Ls Rs
Частота : 48,0 КГц
Частота кадров : 31,250 кадров/сек (1536 SPF)
Битовая глубина : 16 бит
Метод сжатия : С потерями
Размер потока : 589 Мбайт (8%)
Заголовок : English
Язык : English
ServiceKind/String : Complete Main
Default : Да
Forced : Нет

Аудио #2
Идентификатор : 3
Формат : AC-3
Формат/Информация : Audio Coding 3
Коммерческое название : Dolby Digital
Идентификатор кодека : A_AC3
Продолжительность : 2 ч. 8 м.
Вид битрейта : Постоянный
Битрейт : 640 Кбит/сек
Каналы : 6 каналов
Channel layout : L R C LFE Ls Rs
Частота : 48,0 КГц
Частота кадров : 31,250 кадров/сек (1536 SPF)
Битовая глубина : 16 бит
Метод сжатия : С потерями
Размер потока : 589 Мбайт (8%)
Заголовок : Дублированный
Язык : Russian
ServiceKind/String : Complete Main
Default : Нет
Forced : Нет

Меню
00:00:00.000 : :Chapter 01
00:07:25.278 : :Chapter 02
00:11:48.082 : :Chapter 03
00:15:07.114 : :Chapter 04
00:23:37.457 : :Chapter 05
00:32:09.385 : :Chapter 06
00:40:56.787 : :Chapter 07
00:48:47.633 : :Chapter 08
00:56:36.351 : :Chapter 09
01:07:43.392 : :Chapter 10
01:12:28.344 : :Chapter 11
01:20:42.796 : :Chapter 12
01:35:50.119 : :Chapter 13
01:52:22.777 : :Chapter 14
01:54:12.095 : :Chapter 15
01:57:39.469 : :Chapter 16
Загрузка...Cкриншот1 На линии огня / In the Line of Fire (1993) BDRip 1080p [HEVC] 10 bit от OldGamer (RG RIPS CLUB)Загрузка...Cкриншот2 На линии огня / In the Line of Fire (1993) BDRip 1080p [HEVC] 10 bit от OldGamer (RG RIPS CLUB)Загрузка...Cкриншот3 На линии огня / In the Line of Fire (1993) BDRip 1080p [HEVC] 10 bit от OldGamer (RG RIPS CLUB)Загрузка...Cкриншот4 На линии огня / In the Line of Fire (1993) BDRip 1080p [HEVC] 10 bit от OldGamer (RG RIPS CLUB)
Релиз-группа: RIPS CLUB
Сэмпл Торрент🧲 Магнет

Раздача обновлена!
Удалены субтитры

Рейтинги КП и IMDB, кнопки "Позвать в чате" и "Спасибо", а также мультитрекерная статистика доступны только зарегистрированным/авторизованным пользователям!

Файлы: 1
  • На линии огня.mkv   7.16 ГБ
Поблагодарили: 20
375509, aacg, alex_rad, Brooklyn, bs158250, Cthulhu, duke1966, ivan_1965, Kilop77, Mercury, NoMaD, normallhuman, Nuclear70, Remontaz, SaN161NeK, sedoi09, smoldin2606, SYNC80001, Undervest, vladd37
OldGamer
10483017.16 ГБ

Добавление нового комментария

Добавление комментариев доступно только зарегистрированным/авторизованным пользователям.
Аватар не указан
  XuMuK  
Cthulhu писал(а):
Скорее всего такое из за разницы фпс в видео и в сабах. Лечится за полторы минуты.
а сабы откудо-то из другого места? не из исходника?
Аватар Cthulhu
  Cthulhu  
OldGamer писал(а):
Спасибо Кабану за бдительность. Я с таким рассинхронов субтитров ещё не сталкивался. Исправил в начале фильма - всё отлично, минут 15 просмотрел, всё хорошо, перепрыгнул на середину - снова есть, а в конце уже на минуты расхождение. Решил, что проще удалить.
Скорее всего такое из за разницы фпс в видео и в сабах. Лечится за полторы минуты.
Аватар NoMaD
  NoMaD  
OldGamer писал(а):
Спасибо Кабану за бдительность. Я с таким рассинхронов субтитров ещё не сталкивался. Исправил в начале фильма - всё отлично, минут 15 просмотрел, всё хорошо, перепрыгнул на середину - снова есть, а в конце уже на минуты расхождение. Решил, что проще удалить.
у меня с самого начала был рассинхрон. Проще из другой раздачи вытащить наверное
Аватар OldGamer
  OldGamer  
Спасибо Кабану за бдительность. Я с таким рассинхронов субтитров ещё не сталкивался. Исправил в начале фильма - всё отлично, минут 15 просмотрел, всё хорошо, перепрыгнул на середину - снова есть, а в конце уже на минуты расхождение. Решил, что проще удалить.
Аватар OldGamer
  OldGamer  (Отредактировал OldGamer)    
На первом скрине - Пила?
п.с. да, точно, Тобин Белл, американский актёр, наиболее известный ролью Джона Крамера в серии фильмов «Пила».
Аватар joker63
  joker63  
Но у меня качество похуже по любому,так что не накладка,у меня как гоночная машина шпарит)кодировка.
Аватар OldGamer
  OldGamer  
joker63 писал(а):
только позавчера сделал)
вот это вот накладочка вышла)))
Аватар joker63
  joker63  
только позавчера сделал)
Аватар OldGamer
  OldGamer  
joker63 писал(а):
Бандит,че не сказал что будешь делать?Я б не делал себе)))
Да я как то не подумал)))
Аватар joker63
  joker63  
Бандит,че не сказал что будешь делать?Я б не делал себе)))