💬 Мини-чат

BrooklynOldGamer, Ок, спасибо, качаю.
OldGamerBrooklyn, они все на раздаче пока что
BrooklynOldGamer, Пораздавайте, пожалуйста, все сезоны сериала "Гримм" ближайшие 3 дня, очень хочу их забрать. Качество отличное. Заранее Благодарен.
StarLordСообщение удалено (удалил: StarLord)
OldGamerвыводить
mafo2Admin, можно вывести, наглядно будет
StarLordAdmin, +
AdminНадпись HDR выводить на обложку?
OldGamerGiggalo, но лучше всего вообще не затрагивайте этот ключ, по умолчанию будет установлено оптимальное значение
OldGamerGiggalo, но если уж очень хочется то пишите --frame-threads 3
OldGamerGiggalo, а зачем его менять?) нужное значение устанавливается автоматически
GiggaloДобрый вечер всем! OldGamer Покажи пожалуйста почему когда пишу в командной строке frame-threads=3 он не меняется. Какой там стоит 13 он его и держит, а ругие установки спокойно меняет?
AdminStarLord, спасибо. Пока сойдет.
StarLordAdmin, ага, вижу
StarLordAdmin, а как должно брать?
AdminStarLord, ты шаришь?
AdminStarLord, у меня сейчас такая, но с точками беда. Доработать бы (https?://([-\w\.]+)+(:\d+)?(/([-\w/_:%]*(\.\w+)*(\?\S+)?)?)?)
AdminStarLord, скрины в bb некорректно берет
StarLordwww, ftp(s), http(s), #, :, &
StarLordAdmin, все мои кейсы покрыла
  • OldGamer
  • InSpector
Отправка сообщений доступна только зарегистрированным/авторизованным пользователям.
Онлайн (за 10 мин.): 2

Гарфилд 2: История двух кошечек / Garfield: A Tail of Two Kitties (2006) BDRip 1080p [HEVC] 10 bit от OldGamer (RG RIPS CLUB)

HEVC
10 bit
Обложка Гарфилд 2: История двух кошечек / Garfield: A Tail of Two Kitties (2006) BDRip 1080p [HEVC] 10 bit от OldGamer (RG RIPS CLUB) Год: 2006
Страна: Великобритания, США
Студия: 20th Century Fox, Davis Entertainment
Жанр: Мультфильм, Фэнтези, Комедия, Семейный
Продолжительность: 01:25:48

Режиссер: Тим Хилл
В ролях: Брекин Мейер, Дженнифер Лав Хьюитт, Билли Коннолли, Билл Мюррей, Йен Эберкромби, Роджер Рис, Люси Дэвис, Лена Кардвэлл, Вероника Алисино, Джейн Карр

Описание: Любимец всей Америки кот Гарфилд пересекает океан с целью преподнести сюрприз своему хозяину Джону Арбаклу, отправившемуся в Лондон, чтобы сделать предложение своей возлюбленной, ветеринару Лиз Уилсон. Очутившись в Англии, Гарфилд случайно меняется местами со своим двойником — котом Принцем, принадлежащим королевской семье.


Видео: 1920x1040 (1.85:1), 11,4 Мбит/сек, 0.238 бит/(Пиксели*Кадры), 23,976 (24000/1001) кадра/сек, HEVC (Main 10@L4.1@High) 10 бит
Аудио1: AC3, 6 ch, 640 Kbps - РусскийРусский, Дублированный (Лицензия)
Аудио2: AC3, 6 ch, 640 Kbps - АнглийскийАнглийский, Оригинал
Субтитры: Русские полные (SRT), English full (SRT)

Как за пару секунд удалить ненужные аудиодорожки и субтитры (Внимание! После удаления вы не сможете поддержать раздачу)

Медиаинфо
x265 [info]: frame I: 1358, Avg QP:16.46 kb/s: 46084.69
x265 [info]: frame P: 28838, Avg QP:17.81 kb/s: 22901.76
x265 [info]: frame B: 93238, Avg QP:19.93 kb/s: 7327.75
x265 [info]: Weighted P-Frames: Y:2.5% UV:2.0%
x265 [info]: Weighted B-Frames: Y:1.5% UV:1.2%
x265 [info]: consecutive B-frames: 16.3% 7.2% 5.0% 32.2% 6.9% 29.2% 2.0% 1.0% 0.1% 0.0% 0.0% 0.0% 0.0% 0.0% 0.0% 0.0% 0.0%
encoded 123434 frames in 156958.23s (0.79 fps), 11392.72 kb/s, Avg QP:19.40
Формат : Matroska
Версия формата : Version 4
Размер файла : 7,60 Гбайт
Продолжительность : 1 ч. 25 м.
Общий поток : 12,7 Мбит/сек
Название фильма : Garfield 2
Дата кодирования : UTC 2019-05-05 02:38:45
Программа кодирования : mkvmerge v33.0.0 ('A Little Bit of Madness') 64-bit
Библиотека кодирования : libebml v1.3.7 + libmatroska v1.5.0

Видео
Идентификатор : 1
Формат : HEVC
Формат/Информация : High Efficiency Video Coding
Профиль формата : Main 10@L4.1@High
Идентификатор кодека : V_MPEGH/ISO/HEVC
Продолжительность : 1 ч. 25 м.
Битрейт : 11,4 Мбит/сек
Ширина : 1920 пикселей
Высота : 1040 пикселей
Соотношение сторон : 1,85:1
Режим частоты кадров : Постоянный
Частота кадров : 23,976 (24000/1001) кадра/сек
Цветовое пространство : YUV
Субдискретизация насыщенности : 4:2:0
Битовая глубина : 10 бит
Бит/(Пиксели*Кадры) : 0.238
Размер потока : 6,83 Гбайт (90%)
Заголовок : Garfield 2 / Rip by OldGamer
Библиотека кодирования : x265 2.9+15-81373aab81df:[Windows][GCC 8.2.0][64 bit] 10bit
Настройки программы : cpuid=1111039 / frame-threads=3 / numa-pools=12 / wpp / no-pmode / no-pme / no-psnr / no-ssim / log-level=2 / input-csp=1 / input-res=1920x1040 / interlace=0 / total-frames=123434 / level-idc=41 / high-tier=1 / uhd-bd=0 / ref=5 / no-allow-non-conformance / no-repeat-headers / annexb / no-aud / no-hrd / info / hash=0 / no-temporal-layers / open-gop / min-keyint=23 / keyint=240 / gop-lookahead=0 / bframes=16 / b-adapt=2 / b-pyramid / bframe-bias=0 / rc-lookahead=60 / lookahead-slices=0 / scenecut=40 / radl=0 / no-splice / no-intra-refresh / ctu=64 / min-cu-size=8 / rect / amp / max-tu-size=32 / tu-inter-depth=4 / tu-intra-depth=4 / limit-tu=4 / rdoq-level=2 / dynamic-rd=0.00 / no-ssim-rd / signhide / no-tskip / nr-intra=0 / nr-inter=0 / no-constrained-intra / no-strong-intra-smoothing / max-merge=5 / limit-refs=1 / limit-modes / me=3 / subme=7 / merange=57 / temporal-mvp / weightp / weightb / no-analyze-src-pics / deblock=-3:-3 / no-sao / no-sao-non-deblock / rd=6 / no-early-skip / rskip / no-fast-intra / no-tskip-fast / no-cu-lossless / b-intra / no-splitrd-skip / rdpenalty=0 / psy-rd=2.00 / psy-rdoq=1.20 / no-rd-refine / no-lossless / cbqpoffs=0 / crqpoffs=0 / rc=crf / crf=18.0 / qcomp=0.60 / qpstep=4 / stats-write=0 / stats-read=0 / vbv-maxrate=50000 / vbv-bufsize=50000 / vbv-init=0.9 / crf-max=0.0 / crf-min=0.0 / ipratio=1.40 / pbratio=1.30 / aq-mode=2 / aq-strength=0.80 / no-cutree / zone-count=0 / no-strict-cbr / qg-size=32 / no-rc-grain / qpmax=69 / qpmin=0 / no-const-vbv / sar=1 / overscan=0 / videoformat=5 / range=0 / colorprim=2 / transfer=2 / colormatrix=2 / chromaloc=0 / display-window=0 / max-cll=0,0 / min-luma=0 / max-luma=1023 / log2-max-poc-lsb=8 / vui-timing-info / vui-hrd-info / slices=1 / no-opt-qp-pps / no-opt-ref-list-length-pps / no-multi-pass-opt-rps / scenecut-bias=0.05 / no-opt-cu-delta-qp / no-aq-motion / no-hdr / no-hdr-opt / no-dhdr10-opt / no-idr-recovery-sei / analysis-reuse-level=5 / scale-factor=0 / refine-intra=0 / refine-inter=0 / refine-mv=0 / no-limit-sao / ctu-info=0 / no-lowpass-dct / refine-mv-type=0 / copy-pic=1 / max-ausize-factor=1.0 / no-dynamic-refine / no-single-sei
Язык : English
Default : Да
Forced : Нет

Аудио #1
Идентификатор : 2
Формат : AC-3
Формат/Информация : Audio Coding 3
Коммерческое название : Dolby Digital
Идентификатор кодека : A_AC3
Продолжительность : 1 ч. 25 м.
Вид битрейта : Постоянный
Битрейт : 640 Кбит/сек
Каналы : 6 каналов
Channel layout : L R C LFE Ls Rs
Частота : 48,0 КГц
Частота кадров : 31,250 кадров/сек (1536 SPF)
Битовая глубина : 16 бит
Метод сжатия : С потерями
Размер потока : 393 Мбайт (5%)
Заголовок : Дублированный
Язык : Russian
ServiceKind/String : Complete Main
Default : Да
Forced : Нет

Аудио #2
Идентификатор : 3
Формат : AC-3
Формат/Информация : Audio Coding 3
Коммерческое название : Dolby Digital
Идентификатор кодека : A_AC3
Продолжительность : 1 ч. 25 м.
Вид битрейта : Постоянный
Битрейт : 640 Кбит/сек
Каналы : 6 каналов
Channel layout : L R C LFE Ls Rs
Частота : 48,0 КГц
Частота кадров : 31,250 кадров/сек (1536 SPF)
Битовая глубина : 16 бит
Метод сжатия : С потерями
Размер потока : 393 Мбайт (5%)
Заголовок : English
Язык : English
ServiceKind/String : Complete Main
Default : Нет
Forced : Нет

Текст #1
Идентификатор : 4
Формат : UTF-8
Идентификатор кодека : S_TEXT/UTF8
Идентификатор кодека/Информация : UTF-8 Plain Text
Продолжительность : 1 ч. 24 м.
Битрейт : 105 бит/сек
ElementCount : 972
Размер потока : 66,0 Кбайт (0%)
Заголовок : Russian full
Язык : Russian
Default : Нет
Forced : Нет

Текст #2
Идентификатор : 5
Формат : UTF-8
Идентификатор кодека : S_TEXT/UTF8
Идентификатор кодека/Информация : UTF-8 Plain Text
Продолжительность : 1 ч. 23 м.
Битрейт : 69 бит/сек
ElementCount : 1111
Размер потока : 42,5 Кбайт (0%)
Заголовок : English full
Язык : English
Default : Нет
Forced : Нет

Меню
00:00:00.000 : en:Chapter 01
00:01:48.316 : en:Chapter 02
00:05:17.775 : en:Chapter 03
00:07:30.116 : en:Chapter 04
00:09:31.779 : en:Chapter 05
00:14:16.355 : en:Chapter 06
00:15:24.506 : en:Chapter 07
00:18:15.344 : en:Chapter 08
00:21:58.483 : en:Chapter 09
00:24:16.538 : en:Chapter 10
00:27:01.995 : en:Chapter 11
00:29:13.251 : en:Chapter 12
00:33:17.745 : en:Chapter 13
00:35:47.895 : en:Chapter 14
00:36:57.298 : en:Chapter 15
00:39:45.216 : en:Chapter 16
00:41:31.614 : en:Chapter 17
00:44:31.293 : en:Chapter 18
00:50:15.595 : en:Chapter 19
00:52:26.726 : en:Chapter 20
00:57:34.284 : en:Chapter 21
00:59:48.001 : en:Chapter 22
01:03:53.079 : en:Chapter 23
01:04:59.353 : en:Chapter 24
01:07:43.350 : en:Chapter 25
01:15:09.838 : en:Chapter 26
01:18:39.089 : en:Chapter 27
01:20:23.652 : en:Chapter 28
Загрузка...Cкриншот1 Гарфилд 2: История двух кошечек / Garfield: A Tail of Two Kitties (2006) BDRip 1080p [HEVC] 10 bit от OldGamer (RG RIPS CLUB)Загрузка...Cкриншот2 Гарфилд 2: История двух кошечек / Garfield: A Tail of Two Kitties (2006) BDRip 1080p [HEVC] 10 bit от OldGamer (RG RIPS CLUB)Загрузка...Cкриншот3 Гарфилд 2: История двух кошечек / Garfield: A Tail of Two Kitties (2006) BDRip 1080p [HEVC] 10 bit от OldGamer (RG RIPS CLUB)Загрузка...Cкриншот4 Гарфилд 2: История двух кошечек / Garfield: A Tail of Two Kitties (2006) BDRip 1080p [HEVC] 10 bit от OldGamer (RG RIPS CLUB)
Релиз-группа: RIPS CLUB
Сэмпл Торрент🧲 Магнет

Рейтинги КП и IMDB, кнопки "Позвать в чате" и "Спасибо", а также мультитрекерная статистика сидов и пиров доступны только зарегистрированным/авторизованным пользователям!

Файлы: 1
  • Гарфилд 2. История двух кошечек.mkv   7.6 ГБ
Поблагодарили: 16
375509, 7654321, Alexeyall, blackride, Brooklyn, brukvalub, denisptp4, Elico, kapitan, LastSurviv0r, medved2018, nazarpavluwun, NoMaD, SaN161NeK, svibog123, vserginbox
OldGamer
23772007.6 ГБ

Добавление нового комментария

Добавление комментариев доступно только зарегистрированным/авторизованным пользователям.
Аватар OldGamer
  OldGamer  
KASaLEX писал(а):
А первая часть будет?
обязательно будет
Аватар не указан
  KASaLEX  
А первая часть будет?