💬 Мини-чат

OldGamerвыводить
mafo2Admin, можно вывести, наглядно будет
StarLordAdmin, +
AdminНадпись HDR выводить на обложку?
OldGamerGiggalo, но лучше всего вообще не затрагивайте этот ключ, по умолчанию будет установлено оптимальное значение
OldGamerGiggalo, но если уж очень хочется то пишите --frame-threads 3
OldGamerGiggalo, а зачем его менять?) нужное значение устанавливается автоматически
GiggaloДобрый вечер всем! OldGamer Покажи пожалуйста почему когда пишу в командной строке frame-threads=3 он не меняется. Какой там стоит 13 он его и держит, а ругие установки спокойно меняет?
AdminStarLord, спасибо. Пока сойдет.
StarLordAdmin, ага, вижу
StarLordAdmin, а как должно брать?
AdminStarLord, ты шаришь?
AdminStarLord, у меня сейчас такая, но с точками беда. Доработать бы (https?://([-\w\.]+)+(:\d+)?(/([-\w/_:%]*(\.\w+)*(\?\S+)?)?)?)
AdminStarLord, скрины в bb некорректно берет
StarLordwww, ftp(s), http(s), #, :, &
StarLordAdmin, все мои кейсы покрыла
StarLordAdmin, вот эта хорошая -(?:(?:https?|ftps?):\/\/|\b(?:[a-z\d]+\.))(?:(?:[^\s()<>]+|\((?:[^\s()<>]+|(?:\([^\s()<>]+\)))?\))+(?:\((?:[^\s()<>]+|(?:\(?:[^\s()<>]+\)))?\)|[^\s`!()\[\]{};:'".,<>?«»“”‘’]))?
AdminStarLord, мне бы с обязательным указанием протокола
AdminСообщение удалено (удалил: Admin)
AdminСообщение удалено (удалил: Admin)
  • OldGamer
  • InSpector
  • pmihail99
  • Rizenfast
Отправка сообщений доступна только зарегистрированным/авторизованным пользователям.
Онлайн (за 10 мин.): 4

Вспомнить всё / Total Recall (2012) [4K Remastered | Theatrical Cut] BDRip 1080p [HEVC] 10 bit от XuMuK

HEVC
10 bit
Обложка Вспомнить всё / Total Recall (2012) [4K Remastered | Theatrical Cut] BDRip 1080p [HEVC] 10 bit от XuMuK Год: 2012
Страна: США, Канада
Студия: Columbia Pictures
Жанр: Фантастика, Боевик, Триллер, Детектив
Продолжительность: 01:58:18

Режиссер: Лен Уайзман
В ролях: Колин Фаррелл, Кейт Бекинсейл, Джессика Бил, Брайан Крэнстон, Боким Вудбайн, Билл Найи, Джон Чо, Уилл Юн Ли, Милтон Барнс, Джеймс Макгоун

Описание: Он — обычный рабочий-строитель, живущий в маленькой квартирке в захудалом районе города будущего где-то в Новой Азии. Хотя собственная жизнь его в целом устраивает, он не может избавиться от чувства, что ему хочется чего-то большего. Потребность в новых будоражащих впечатлениях приводит его в офис компании «Вспомнить всё», имплантирующей в память своих клиентов воспоминания-фантазии, которые они могут получить не рискуя при этом пережить сами события в реальности. Пока герой выбирает, какие именно воспоминания ему приобрести, отряд спецназа штурмует комнату, где он находится, и уже было берет его под арест. К своему собственному удивлению, он молниеносно уничтожает весь отряд при помощи невероятных бойцовских навыков, о владении которыми он и не подозревал…


Видео: 1920x802, 7585 Kbps
Аудио1: AC3, 6 ch, 640 Kbps - РусскийРусский, Дублированный
Аудио2: AC3, 6 ch, 448 Kbps - АнглийскийАнглийский, Оригинал
Субтитры: Русские, английские

Как за пару секунд удалить ненужные аудиодорожки и субтитры (Внимание! После удаления вы не сможете поддержать раздачу)

Медиаинфо
Общее
Уникальный идентификатор : 166530061648260516286484019228510826885 (0x7D4885F2DA8D986B4546FFDE4410B185)
Полное имя : H:HEVC 210 BITTotal Recall_2012_[Mastred in 4K_TC]_BDRi_1080p_[HEVC]_10bit_by XuMuK.mkv
Формат : Matroska
Версия формата : Version 4 / Version 2
Размер файла : 7,17 Гбайт
Продолжительность : 1 ч. 58 м.
Общий поток : 8676 Кбит/сек
Название фильма : HEVC4ll by XuMuK
Дата кодирования : UTC 2018-08-12 11:28:29
Программа кодирования : mkvmerge v25.0.0 ('Prog Noir') 64-bit
Библиотека кодирования : libebml v1.3.6 + libmatroska v1.4.9
Обложка : Yes
Attachments : cover.jpg

Видео
Идентификатор : 1
Формат : HEVC
Формат/Информация : High Efficiency Video Coding
Профиль формата : Main 10@L4.1@High
Идентификатор кодека : V_MPEGH/ISO/HEVC
Продолжительность : 1 ч. 58 м.
Битрейт : 7585 Кбит/сек
Ширина : 1920 пикселей
Высота : 802 пикселя
Соотношение сторон : 2,40:1
Режим частоты кадров : Постоянный
Частота кадров : 23,976 (24000/1001) кадра/сек
Цветовое пространство : YUV
Субдискретизация насыщенности : 4:2:0
Битовая глубина : 10 бит
Бит/(Пиксели*Кадры) : 0.205
Размер потока : 6,27 Гбайт (87%)
Библиотека кодирования : x265 2.8+25-0a629ea6036b:[Windows][GCC 8.1.0][64 bit] 10bit
Настройки программы : cpuid=1111039 / frame-threads=4 / numa-pools=16 / wpp / no-pmode / no-pme / no-psnr / no-ssim / log-level=2 / input-csp=1 / input-res=1920x802 / interlace=0 / total-frames=170184 / level-idc=41 / high-tier=1 / uhd-bd=0 / ref=5 / no-allow-non-conformance / no-repeat-headers / annexb / no-aud / no-hrd / info / hash=0 / no-temporal-layers / open-gop / min-keyint=23 / keyint=240 / gop-lookahead=0 / bframes=8 / b-adapt=2 / b-pyramid / bframe-bias=0 / rc-lookahead=60 / lookahead-slices=0 / scenecut=40 / radl=0 / no-intra-refresh / ctu=64 / min-cu-size=8 / rect / amp / max-tu-size=32 / tu-inter-depth=3 / tu-intra-depth=3 / limit-tu=1 / rdoq-level=1 / dynamic-rd=0.00 / no-ssim-rd / signhide / no-tskip / nr-intra=0 / nr-inter=0 / no-constrained-intra / no-strong-intra-smoothing / max-merge=2 / limit-refs=1 / limit-modes / me=3 / subme=7 / merange=57 / temporal-mvp / weightp / weightb / no-analyze-src-pics / deblock=-3:-3 / no-sao / no-sao-non-deblock / rd=6 / no-early-skip / rskip / no-fast-intra / no-tskip-fast / no-cu-lossless / b-intra / no-splitrd-skip / rdpenalty=0 / psy-rd=1.50 / psy-rdoq=1.00 / no-rd-refine / no-lossless / cbqpoffs=0 / crqpoffs=0 / rc=crf / crf=19.0 / qcomp=0.80 / qpstep=4 / stats-write=0 / stats-read=0 / vbv-maxrate=50000 / vbv-bufsize=50000 / vbv-init=0.9 / crf-max=0.0 / crf-min=0.0 / ipratio=1.40 / pbratio=1.30 / aq-mode=1 / aq-strength=1.00 / no-cutree / zone-count=1 / zones: / start-frame=158660 / end-frame=170184 / qp=35 / no-strict-cbr / qg-size=32 / no-rc-grain / qpmax=69 / qpmin=0 / no-const-vbv / sar=1 / overscan=0 / videoformat=5 / range=0 / colorprim=1 / transfer=1 / colormatrix=1 / chromaloc=0 / display-window=0 / max-cll=0,0 / min-luma=0 / max-luma=1023 / log2-max-poc-lsb=8 / vui-timing-info / vui-hrd-info / slices=1 / no-opt-qp-pps / no-opt-ref-list-length-pps / no-multi-pass-opt-rps / scenecut-bias=0.05 / no-opt-cu-delta-qp / no-aq-motion / no-hdr / no-hdr-opt / no-dhdr10-opt / no-idr-recovery-sei / analysis-reuse-level=5 / scale-factor=0 / refine-intra=0 / refine-inter=0 / refine-mv=0 / no-limit-sao / ctu-info=0 / no-lowpass-dct / refine-mv-type=0 / copy-pic=1 / max-ausize-factor=1.0 / no-dynamic-refine / no-single-sei
Default : Да
Forced : Нет
Цветовой диапазон : Limited
Основные цвета : BT.709
Характеристики трансфера : BT.709
Коэффициенты матрицы : BT.709

Аудио #1
Идентификатор : 2
Формат : AC-3
Формат/Информация : Audio Coding 3
Идентификатор кодека : A_AC3
Продолжительность : 1 ч. 58 м.
Вид битрейта : Постоянный
Битрейт : 640 Кбит/сек
Каналы : 6 каналов
Расположение каналов : Front: L C R, Side: L R, LFE
Частота : 48,0 КГц
Частота кадров : 31,250 кадров/сек (1536 SPF)
Битовая глубина : 16 бит
Метод сжатия : С потерями
Размер потока : 542 Мбайт (7%)
Заголовок : Дубляж
Язык : Russian
ServiceKind : Complete Main
Default : Да
Forced : Нет

Аудио #2
Идентификатор : 3
Формат : AC-3
Формат/Информация : Audio Coding 3
Идентификатор кодека : A_AC3
Продолжительность : 1 ч. 58 м.
Вид битрейта : Постоянный
Битрейт : 448 Кбит/сек
Каналы : 6 каналов
Расположение каналов : Front: L C R, Side: L R, LFE
Частота : 48,0 КГц
Частота кадров : 31,250 кадров/сек (1536 SPF)
Битовая глубина : 16 бит
Метод сжатия : С потерями
Размер потока : 379 Мбайт (5%)
Заголовок : Оригинал
Язык : English
ServiceKind : Complete Main
Default : Нет
Forced : Нет

Текст #1
Идентификатор : 4
Формат : UTF-8
Идентификатор кодека : S_TEXT/UTF8
Идентификатор кодека/Информация : UTF-8 Plain Text
Продолжительность : 1 ч. 49 м.
Битрейт : 63 бит/сек
ElementCount : 1161
Размер потока : 51,0 Кбайт (0%)
Заголовок : RUS Full
Язык : Russian
Default : Нет
Forced : Нет

Текст #2
Идентификатор : 5
Формат : UTF-8
Идентификатор кодека : S_TEXT/UTF8
Идентификатор кодека/Информация : UTF-8 Plain Text
Продолжительность : 1 ч. 48 м.
Битрейт : 47 бит/сек
ElementCount : 1261
Размер потока : 37,6 Кбайт (0%)
Заголовок : ENG Full
Язык : English
Default : Нет
Forced : Нет

Меню
00:00:00.000 : :Chapter 1
00:08:04.984 : :Chapter 2
00:15:19.710 : :Chapter 3
00:20:29.186 : :Chapter 4
00:27:35.278 : :Chapter 5
00:36:09.667 : :Chapter 6
00:41:46.670 : :Chapter 7
00:45:08.914 : :Chapter 8
00:53:36.087 : :Chapter 9
00:59:45.957 : :Chapter 10
01:07:13.571 : :Chapter 11
01:13:11.929 : :Chapter 12
01:18:58.775 : :Chapter 13
01:27:17.941 : :Chapter 14
01:32:33.965 : :Chapter 15
01:40:05.249 : :Chapter 16
Загрузка...Cкриншот1 Вспомнить всё / Total Recall (2012) [4K Remastered | Theatrical Cut] BDRip 1080p [HEVC] 10 bit от XuMuKЗагрузка...Cкриншот2 Вспомнить всё / Total Recall (2012) [4K Remastered | Theatrical Cut] BDRip 1080p [HEVC] 10 bit от XuMuKЗагрузка...Cкриншот3 Вспомнить всё / Total Recall (2012) [4K Remastered | Theatrical Cut] BDRip 1080p [HEVC] 10 bit от XuMuKЗагрузка...Cкриншот4 Вспомнить всё / Total Recall (2012) [4K Remastered | Theatrical Cut] BDRip 1080p [HEVC] 10 bit от XuMuK
Сэмпл Торрент🧲 Магнет

Рейтинги КП и IMDB, кнопки "Позвать в чате" и "Спасибо", а также мультитрекерная статистика сидов и пиров доступны только зарегистрированным/авторизованным пользователям!

Файлы: 1
  • Total Recall_2012_[Mastred in 4K_TC]_BDRi_1080p_[HEVC]_10bit_by XuMuK.mkv   7.17 ГБ
Поблагодарили: 18
aacg, Alexeyall, bav69u, crash, D16T, igor3176, iona999, ivs5, misharev1970, NoMaD, Nuclear70, OldGamer, sabretooth, Scythain, sixaxis, svibog123, VardO, Vvulpes
Admin
2312007.17 ГБ

Добавление нового комментария

Добавление комментариев доступно только зарегистрированным/авторизованным пользователям.
Аватар не указан
  Vvulpes  
Уважаемый кодер! Спасибо за работу! Можете сделать extended cut ? Пожалуйста. Спасибо.
Аватар NoMaD
  NoMaD  
Жалко что лицензионщики не потрудились сделать форсированные субтитры для театральной версии