💬 Мини-чат

BrooklynOldGamer, Ок, спасибо, качаю.
OldGamerBrooklyn, они все на раздаче пока что
BrooklynOldGamer, Пораздавайте, пожалуйста, все сезоны сериала "Гримм" ближайшие 3 дня, очень хочу их забрать. Качество отличное. Заранее Благодарен.
StarLordСообщение удалено (удалил: StarLord)
OldGamerвыводить
mafo2Admin, можно вывести, наглядно будет
StarLordAdmin, +
AdminНадпись HDR выводить на обложку?
OldGamerGiggalo, но лучше всего вообще не затрагивайте этот ключ, по умолчанию будет установлено оптимальное значение
OldGamerGiggalo, но если уж очень хочется то пишите --frame-threads 3
OldGamerGiggalo, а зачем его менять?) нужное значение устанавливается автоматически
GiggaloДобрый вечер всем! OldGamer Покажи пожалуйста почему когда пишу в командной строке frame-threads=3 он не меняется. Какой там стоит 13 он его и держит, а ругие установки спокойно меняет?
AdminStarLord, спасибо. Пока сойдет.
StarLordAdmin, ага, вижу
StarLordAdmin, а как должно брать?
AdminStarLord, ты шаришь?
AdminStarLord, у меня сейчас такая, но с точками беда. Доработать бы (https?://([-\w\.]+)+(:\d+)?(/([-\w/_:%]*(\.\w+)*(\?\S+)?)?)?)
AdminStarLord, скрины в bb некорректно берет
StarLordwww, ftp(s), http(s), #, :, &
StarLordAdmin, все мои кейсы покрыла
  • Andrey_alex
  • deforex
  • donadar
  • hunter
  • InSpector
  • makss333
  • moonson
Отправка сообщений доступна только зарегистрированным/авторизованным пользователям.
Онлайн (за 10 мин.): 7

Путь дракона / The Way of the Dragon / Meng long guo jiang (1972) BDRip 1080p [HEVC] 10 bit от ADVOKAT69

HEVC
10 bit
Обложка Путь дракона / The Way of the Dragon / Meng long guo jiang (1972) BDRip 1080p [HEVC] 10 bit от ADVOKAT69 Год: 1972
Страна: Гонконг
Студия: Concord Productions Inc., Golden Harvest Company Ltd.
Жанр: Боевик, Триллер, Драма, Комедия
Продолжительность: 01:39:29

Режиссер: Брюс Ли
В ролях: Брюс Ли, Нора Миао, Чак Норрис, Вэй Пинао, Чун Синь Хуан, Роберт Уолл, Ван Вэнг, Тони Лю, Юникорн Чан, Мализа Лонго

Описание: Тан приезжает из Гонконга в Рим, чтобы помочь друзьям семьи, чей ресторан задумали отобрать местные мафиози. Привыкшие всегда получать то, что захотят и не останавливаться ни перед чем, бандиты совершили большую ошибку, недооценив с виду скромного молодого человека. Не сумев справиться с ним своими силами, мафиози нанимают лучших европейских и японских мастеров боевых искусств, но Тан с легкостью побеждает всех. И тогда против него на арену древнего Колизея выходит «крутой и смертоносный» американец Колт.


Видео: 1920x818, 5554 Kbps
Аудио: DTS, 6 ch, 755 Kbps - РусскийРусский, Многоголосый (Superbit)
Субтитры: нет

Медиаинфо
Общее
Уникальный идентификатор : 187092270339164635685317614775168615512 (0x8CC0A91BD56EDAAAB0953BB482CB4458)
Полное имя : D:\Путь дракона The Way of the Dragon ( Meng long guo jiang) 1972 RM4K HEVC 10bit.mkv
Формат : Matroska
Версия формата : Version 4
Размер файла : 4,38 Гбайт
Продолжительность : 1 ч. 39 м.
Общий поток : 6304 Кбит/сек
Дата кодирования : UTC 2019-05-17 13:03:15
Программа кодирования : mkvmerge v9.2.0 ('Photograph') 64bit
Библиотека кодирования : libebml v1.3.3 + libmatroska v1.4.4

Видео
Идентификатор : 1
Формат : HEVC
Формат/Информация : High Efficiency Video Coding
Профиль формата : Main 10@L5.1@High
Идентификатор кодека : V_MPEGH/ISO/HEVC
Продолжительность : 1 ч. 39 м.
Битрейт : 5554 Кбит/сек
Ширина : 1920 пикселей
Высота : 818 пикселей
Соотношение сторон : 2,35:1
Режим частоты кадров : Постоянный
Частота кадров : 23,976 (24000/1001) кадра/сек
Цветовое пространство : YUV
Субдискретизация насыщенности : 4:2:0
Битовая глубина : 10 бит
Бит/(Пиксели*Кадры) : 0.147
Размер потока : 3,86 Гбайт (88%)
Библиотека кодирования : x265 2.5+5-0b3ba15b33ea:[Windows][GCC 7.2.0][64 bit] 10bit
Настройки программы : cpuid=1050111 / frame-threads=2 / numa-pools=4 / wpp / no-pmode / no-pme / no-psnr / no-ssim / log-level=2 / input-csp=1 / input-res=1920x818 / interlace=0 / total-frames=0 / level-idc=51 / high-tier=1 / uhd-bd=0 / ref=3 / no-allow-non-conformance / no-repeat-headers / annexb / no-aud / no-hrd / info / hash=0 / no-temporal-layers / open-gop / min-keyint=23 / keyint=250 / bframes=4 / b-adapt=2 / b-pyramid / bframe-bias=0 / rc-lookahead=20 / lookahead-slices=5 / scenecut=40 / no-intra-refresh / ctu=64 / min-cu-size=8 / no-rect / no-amp / max-tu-size=32 / tu-inter-depth=1 / tu-intra-depth=1 / limit-tu=0 / rdoq-level=0 / dynamic-rd=0.00 / no-ssim-rd / signhide / no-tskip / nr-intra=0 / nr-inter=0 / no-constrained-intra / strong-intra-smoothing / max-merge=2 / limit-refs=3 / no-limit-modes / me=1 / subme=2 / merange=57 / temporal-mvp / weightp / no-weightb / no-analyze-src-pics / deblock=-3:-3 / no-sao / no-sao-non-deblock / rd=3 / no-early-skip / rskip / no-fast-intra / no-tskip-fast / no-cu-lossless / no-b-intra / rdpenalty=0 / psy-rd=2.00 / psy-rdoq=0.00 / no-rd-refine / analysis-reuse-mode=0 / no-lossless / cbqpoffs=0 / crqpoffs=0 / rc=crf / crf=20.0 / qcomp=0.60 / qpstep=4 / stats-write=0 / stats-read=0 / vbv-maxrate=160000 / vbv-bufsize=160000 / vbv-init=0.9 / crf-max=0.0 / crf-min=0.0 / ipratio=1.40 / pbratio=1.30 / aq-mode=1 / aq-strength=1.00 / cutree / zone-count=0 / no-strict-cbr / qg-size=32 / no-rc-grain / qpmax=69 / qpmin=0 / no-const-vbv / sar=255 / sar-width / : / sar-height=818:817 / overscan=0 / videoformat=5 / range=0 / colorprim=2 / transfer=2 / colormatrix=1 / chromaloc=0 / display-window=0 / max-cll=0,0 / min-luma=0 / max-luma=1023 / log2-max-poc-lsb=8 / vui-timing-info / vui-hrd-info / slices=1 / opt-qp-pps / opt-ref-list-length-pps / no-multi-pass-opt-rps / scenecut-bias=0.05 / no-opt-cu-delta-qp / no-aq-motion / no-hdr / no-hdr-opt / no-dhdr10-opt / analysis-reuse-level=5 / scale-factor=0 / refine-intra=0 / refine-inter=0 / refine-mv=0 / no-limit-sao / ctu-info=0
Default : Да
Forced : Нет
Цветовой диапазон : Limited
Коэффициенты матрицы : BT.709

Аудио
Идентификатор : 2
Формат : DTS
Формат/Информация : Digital Theater Systems
Идентификатор кодека : A_DTS
Продолжительность : 1 ч. 38 м.
Вид битрейта : Постоянный
Битрейт : 755 Кбит/сек
Каналы : 6 каналов
Channel layout : C L R Ls Rs LFE
Частота : 48,0 КГц
Частота кадров : 93,750 кадра/сек (512 SPF)
Битовая глубина : 24 бит
Метод сжатия : С потерями
Размер потока : 532 Мбайт (12%)
Заголовок : Russian 48 kHz, DTS, 32 (L,C,R,l,r) + LFE ch, ~768.00 kbps avg Многоголосый закадровый, Superbit
Default : Да
Forced : Нет

Меню
00:00:00.000 : :Chapter 1
00:08:16.538 : :Chapter 2
00:16:55.557 : :Chapter 3
00:23:36.583 : :Chapter 4
00:32:13.266 : :Chapter 5
00:41:06.132 : :Chapter 6
00:47:50.412 : :Chapter 7
00:56:27.137 : :Chapter 8
01:02:53.523 : :Chapter 9
01:12:24.928 : :Chapter 10
01:21:53.747 : :Chapter 11
01:29:45.176 : :Chapter 12
Загрузка...Cкриншот1 Путь дракона / The Way of the Dragon / Meng long guo jiang (1972) BDRip 1080p [HEVC] 10 bit от ADVOKAT69Загрузка...Cкриншот2 Путь дракона / The Way of the Dragon / Meng long guo jiang (1972) BDRip 1080p [HEVC] 10 bit от ADVOKAT69Загрузка...Cкриншот3 Путь дракона / The Way of the Dragon / Meng long guo jiang (1972) BDRip 1080p [HEVC] 10 bit от ADVOKAT69Загрузка...Cкриншот4 Путь дракона / The Way of the Dragon / Meng long guo jiang (1972) BDRip 1080p [HEVC] 10 bit от ADVOKAT69
Сэмпл Торрент🧲 Магнет

Рейтинги КП и IMDB, кнопки "Позвать в чате" и "Спасибо", а также мультитрекерная статистика сидов и пиров доступны только зарегистрированным/авторизованным пользователям!

Файлы: 1
  • Путь дракона The Way of the Dragon ( Meng long guo jiang) 1972 RM4K HEVC 10bit.mkv   4.38 ГБ
Поблагодарили: 7
375509, brukvalub, cnn, dimm, ivs5, mvclub, Shanti
ADVOKAT69
3117024.38 ГБ

Добавление нового комментария

Добавление комментариев доступно только зарегистрированным/авторизованным пользователям.
Аватар ADVOKAT69
  ADVOKAT69  
cnn писал(а):
Спасибо за шедевр, а другие фильмы с Брюсом Ли будут
Так есть уже и не только мои!
Аватар не указан
  cnn  
Спасибо за шедевр, а другие фильмы с Брюсом Ли будут
Аватар ADVOKAT69
  ADVOKAT69  
Большое спасибо за помощь в работе со звуковой дорожкой ХиМик!Павел спасибо!