💬 Мини-чат

NoMaDAdmin, купил HDD на три гига за 4000 тысячи. С рук, 2015 года выпуска, но в заводской упаковке
AdminЗВ сегодня думаю выложу
AdminNoMaD, да я тут уже пару недель занят был поисками HDD. Мои 2 по 3 ТБ уже забиты.
Adminтолько что по объявлению купил 4 ТБ в заводской упаковке, привезенный из США, за примерно 6300 руб. Без гарантии конечно, но учитывая нынешние цены на HDD, думаю выгодная покупка.
NoMaDAdmin, глаза закрыл и уснул на несколько дней - уже давно скачаны Звёздные войны, трилогия Бегущего в лабиринте наверное тоже, но почему то выкладывать это никто не торопится
NoMaDСообщение удалено (удалил: NoMaD)
Adminглаза закрыл
OldGamerЯ забыл про страну Доставки, тогда не смотри Германию
OldGamerПосмотри ещё из Германии, хотя амазоновские цены выглядят привлекательней
StarLordAdmin, брал на амазоне
  • ivan_1965
  • Krem_OFF
  • TaurohtaR
Отправка сообщений доступна только зарегистрированным/авторизованным пользователям.
Онлайн (за 10 мин.): 3

Маньяк-полицейский 3: Знак молчания / Maniac Cop 3: Badge of Silence (1993) BDRip 1080p [HEVC] 10 bit от HANNIBAL

HEVC
10 bit
Обложка Маньяк-полицейский 3: Знак молчания / Maniac Cop 3: Badge of Silence (1993) BDRip 1080p [HEVC] 10 bit от HANNIBAL Год: 1993
Страна: США
Студия: NEO Motion Pictures, First Look Pictures
Жанр: Триллер, Ужасы
Продолжительность: 01:24:42

Режиссер: Уильям Лустиг, Джоэль Сойзон
В ролях: Роберт Дави, Кэйтлин Дюлэйни, Гретхен Беккер, Пол Глисон, Джеки Эрл Хэйли, Джулиус Хэррис

Описание: Роберт Дави играет хорошего полицейского, вовлеченного в опасную погоню за Корделлом, «маньяком — полицейским», вершащим на улицах Нью-Йорка кровавое правосудие по собственному усмотрению. На этот раз Корделл восстает из могилы для того, чтобы вернуть доброе имя находящейся в коме женщине — полицейской Кэйт. Она получила пулю в перестрелке и ее же обвинили в жестоком убийстве «случайного посетителя», который на самом деле был наркоманом — грабителем, захватившим заложницу. А подставили Кэт телерепортеры, подтасовавшие видеозапись при монтаже. Но наводящий ужас в своей безжалостной мести «маньяк — полицейский» готов разобраться со всеми «плохими парнями».


Видео: 1920x816, 14.8 Mb/s
Аудио1: AC3, 2 ch, 192 Kbps - РусскийРусский, Одноголосый (Е. Гранкин)
Аудио2: AC3, 2 ch, 256 Kbps - АнглийскийАнглийский, Оригинал
Субтитры: Русские

Как за пару секунд удалить ненужные аудиодорожки и субтитры (Внимание! После удаления вы не сможете поддержать раздачу)

Медиаинфо
General
Unique ID : 273497509782719711252460024502239679887 (0xCDC1B4524945C50AD4F481EE27C8D58F)
Complete name : H:\HEVC-CLUB\Maniac Cop\Maniac Cop 3 Badge of Silence (1993) BDRip 1080p [HEVC] 10bit.mkv
Format : Matroska
Format version : Version 4
File size : 9.04 GiB
Duration : 1 h 24 min
Overall bit rate : 15.3 Mb/s
Movie name : Маньяк-полицейский 3: Знак молчания
Encoded date : UTC 2019-05-22 15:12:08
Writing application : mkvmerge v25.0.0 ('Prog Noir') 64-bit
Writing library : libebml v1.3.6 + libmatroska v1.4.9 / Lavf57.71.100
Attachments : poster.jpg
ACTORS : Роберт Дави, Роберт З’Дар,
COUNTRY : США
DATE : 1992
DIRECTOR : Уильям Лустиг
ENCODING_INFO : MPEGTS > MKV / H264 > X265 CRF 19.0 Пользовательский 2
GENRE : ужасы, боевик
HD_VIDEO : 1
Language : und
MEDIA_TYPE : 9
ORIGINAL_TITLE : Maniac Cop 3: Badge of Silence

Video
ID : 1
Format : HEVC
Format/Info : High Efficiency Video Coding
Format profile : Main 10@L4.1@High
Codec ID : V_MPEGH/ISO/HEVC
Duration : 1 h 24 min
Bit rate : 14.8 Mb/s
Width : 1 920 pixels
Height : 816 pixels
Display aspect ratio : 2.35:1
Frame rate mode : Constant
Frame rate : 23.976 (24000/1001) FPS
Color space : YUV
Chroma subsampling : 4:2:0
Bit depth : 10 bits
Bits/(Pixel*Frame) : 0.395
Stream size : 8.77 GiB (97%)
Writing library : x265 2.9+9-f74003e88622:[Windows][GCC 8.2.0][64 bit] 10bit
Encoding settings : cpuid=1111039 / frame-threads=13 / numa-pools=12 / wpp / no-pmode / no-pme / no-psnr / no-ssim / log-level=3 / input-csp=1 / input-res=1920x816 / interlace=0 / total-frames=0 / level-idc=41 / high-tier=1 / uhd-bd=0 / ref=5 / allow-non-conformance / no-repeat-headers / annexb / no-aud / no-hrd / info / hash=0 / no-temporal-layers / open-gop / min-keyint=23 / keyint=240 / gop-lookahead=0 / bframes=8 / b-adapt=2 / b-pyramid / bframe-bias=0 / rc-lookahead=60 / lookahead-slices=4 / scenecut=40 / radl=0 / no-intra-refresh / ctu=64 / min-cu-size=8 / rect / amp / max-tu-size=32 / tu-inter-depth=4 / tu-intra-depth=4 / limit-tu=0 / rdoq-level=2 / dynamic-rd=0.00 / no-ssim-rd / signhide / no-tskip / nr-intra=0 / nr-inter=0 / no-constrained-intra / no-strong-intra-smoothing / max-merge=5 / limit-refs=2 / limit-modes / me=3 / subme=7 / merange=57 / temporal-mvp / weightp / weightb / no-analyze-src-pics / deblock=-3:-3 / no-sao / no-sao-non-deblock / rd=6 / no-early-skip / rskip / no-fast-intra / no-tskip-fast / no-cu-lossless / b-intra / no-splitrd-skip / rdpenalty=0 / psy-rd=2.00 / psy-rdoq=1.00 / no-rd-refine / no-lossless / cbqpoffs=0 / crqpoffs=0 / rc=crf / crf=19.0 / qcomp=0.70 / qpstep=4 / stats-write=0 / stats-read=0 / vbv-maxrate=50000 / vbv-bufsize=50000 / vbv-init=0.9 / crf-max=0.0 / crf-min=0.0 / ipratio=1.40 / pbratio=1.30 / aq-mode=2 / aq-strength=1.00 / no-cutree / zone-count=0 / no-strict-cbr / qg-size=32 / no-rc-grain / qpmax=69 / qpmin=0 / no-const-vbv / sar=1 / overscan=0 / videoformat=5 / range=0 / colorprim=1 / transfer=1 / colormatrix=1 / chromaloc=0 / display-window=0 / max-cll=0,0 / min-luma=0 / max-luma=1023 / log2-max-poc-lsb=8 / vui-timing-info / vui-hrd-info / slices=1 / no-opt-qp-pps / no-opt-ref-list-length-pps / no-multi-pass-opt-rps / scenecut-bias=0.05 / no-opt-cu-delta-qp / aq-motion / no-hdr / no-hdr-opt / no-dhdr10-opt / no-idr-recovery-sei / analysis-reuse-level=5 / scale-factor=0 / refine-intra=0 / refine-inter=0 / refine-mv=0 / no-limit-sao / ctu-info=0 / no-lowpass-dct / refine-mv-type=0 / copy-pic=1 / max-ausize-factor=1.0 / no-dynamic-refine / no-single-sei
Default : Yes
Forced : No
Color range : Limited
Color primaries : BT.709
Transfer characteristics : BT.709
Matrix coefficients : BT.709

Audio #1
ID : 2
Format : AC-3
Format/Info : Audio Coding 3
Commercial name : Dolby Digital
Codec ID : A_AC3
Duration : 1 h 24 min
Bit rate mode : Constant
Bit rate : 192 kb/s
Channel(s) : 2 channels
Channel layout : L R
Sampling rate : 48.0 kHz
Frame rate : 31.250 FPS (1536 SPF)
Bit depth : 16 bits
Compression mode : Lossy
Stream size : 116 MiB (1%)
Language : Russian
Service kind : Complete Main
Default : Yes
Forced : No

Audio #2
ID : 3
Format : AC-3
Format/Info : Audio Coding 3
Commercial name : Dolby Digital
Codec ID : A_AC3
Duration : 1 h 24 min
Bit rate mode : Constant
Bit rate : 256 kb/s
Channel(s) : 2 channels
Channel layout : L R
Sampling rate : 48.0 kHz
Frame rate : 31.250 FPS (1536 SPF)
Bit depth : 16 bits
Compression mode : Lossy
Stream size : 155 MiB (2%)
Language : English
Service kind : Complete Main
Default : No
Forced : No

Text
ID : 4
Format : UTF-8
Codec ID : S_TEXT/UTF8
Codec ID/Info : UTF-8 Plain Text
Duration : 1 h 24 min
Bit rate : 66 b/s
Count of elements : 656
Stream size : 41.1 KiB (0%)
Default : Yes
Forced : No

Menu
00:00:00.000 : :Глава 1
00:07:14.976 : :Глава 2
00:14:29.076 : :Глава 3
00:24:07.028 : :Глава 4
00:31:30.513 : :Глава 5
00:42:55.447 : :Глава 6
00:55:47.135 : :Глава 7
01:03:30.348 : :Глава 8
01:12:49.531 : :Глава 9
01:21:49.446 : :Глава 10
Загрузка...Cкриншот1 Маньяк-полицейский 3: Знак молчания / Maniac Cop 3: Badge of Silence (1993) BDRip 1080p [HEVC] 10 bit от HANNIBALЗагрузка...Cкриншот2 Маньяк-полицейский 3: Знак молчания / Maniac Cop 3: Badge of Silence (1993) BDRip 1080p [HEVC] 10 bit от HANNIBALЗагрузка...Cкриншот3 Маньяк-полицейский 3: Знак молчания / Maniac Cop 3: Badge of Silence (1993) BDRip 1080p [HEVC] 10 bit от HANNIBALЗагрузка...Cкриншот4 Маньяк-полицейский 3: Знак молчания / Maniac Cop 3: Badge of Silence (1993) BDRip 1080p [HEVC] 10 bit от HANNIBAL
Сэмпл Торрент🧲 Магнет

Рейтинги КП и IMDB, кнопки "Позвать в чате" и "Спасибо", а также мультитрекерная статистика доступны только зарегистрированным/авторизованным пользователям!

Файлы: 1
  • Maniac Cop 3 Badge of Silence (1993) BDRip 1080p [HEVC] 10bit.mkv   9.04 ГБ
Поблагодарили: 6
375509, brukvalub, IRIT, LastSurviv0r, OldGamer, Vvulpes
HANNIBAL
722009.04 ГБ

Добавление нового комментария

Добавление комментариев доступно только зарегистрированным/авторизованным пользователям.
Аватар Студень
  Студень  
HANNIBAL писал(а):
Макс ты почему такой злой на всех ?
он не злой, он глупый, самонадеянеый и по дурости наглый
Аватар HANNIBAL
  HANNIBAL  
MakSIMus писал(а):
Да, мне вот тоже не понятно, зачем уменьшать размер crf=19, и тут же его увеличивать qcomp=0.70 ? И сразу выскочат "маэстры" как здрасти из под дивана со словами "Зато недолива нет!" Ну-ну. )))
Макс ты почему такой злой на всех ?
Аватар OldGamer
  OldGamer  
Теперь можно и пересмотреть трилогию. Когда-то ещё по кабельным сетям смотрел, а приемлемых рипов не попадалось.
Аватар OldGamer
  OldGamer  
А маэстро то и не знают и почему то в крайних рипах qcomp повышают до 0.78 😂
Аватар Студень
  Студень  
MakSIMus писал(а):
Да, мне вот тоже не понятно, зачем уменьшать размер crf=19, и тут же его увеличивать qcomp=0.70 ? И сразу выскочат "маэстры" как здрасти из под дивана со словами "Зато недолива нет!" Ну-ну. )))
маэстры скажут, что ты не знаешь значения ключей. qcomp повышают совсем для другого
Аватар MakSIMus
  MakSIMus  
Vvulpes писал(а):
через месяц уже 2- мбит увидим в релизах :D
Да, мне вот тоже не понятно, зачем уменьшать размер crf=19, и тут же его увеличивать qcomp=0.70 ? И сразу выскочат "маэстры" как здрасти из под дивана со словами "Зато недолива нет!" Ну-ну. )))
Аватар не указан
  Vvulpes  
через месяц уже 2- мбит увидим в релизах :D