Чат

⚫︎
Список изменений сайта - https://rips.club/changelog.html (обновлен 24.05.2024)
  • arwis
  • Roman1312
  • z1M4p9i0
Онлайн (за 10 мин.): 3
Отправка сообщений доступна только зарегистрированным/авторизованным пользователям.

🎥︎Никита / Nikita (1990) BDRip 1080p [HEVC] 10 bit от OldGamer (RG RIPS CLUB)


Обложка Никита / Nikita (1990) BDRip 1080p [HEVC] 10 bit от OldGamer (RG RIPS CLUB)
HEVC
10 bit
✂︎Сэмпл⤓︎Торрент🧲︎Магнет$Пожертвования

При перезаливке на другие сайты просьба указать автора и релиз-группу.


Год: 1990
Страна: Франция, Италия
Студия: Cecchi Gori Group Tiger Cinematografica, Gaumont, Les Films du Loup
Жанр: Боевик, Триллер, Драма, Криминал
Длительность: 01:57:13

Режиссер: Люк Бессон
В ролях: Анн Парийо, Чеки Карио, Жан-Юг Англад, Жанна Моро, Филипп Леруа, Жан Рено, Жан Буиз, Марк Дюре, Патрик Фонтана, Ален Латьер

Описание: Никита, молоденькая девушка, под действием наркотиков вместе с друзьями совершает ограбление и убийство. После суда приговор не приводится в исполнение, а Никиту отправляют в школу специальных агентов. Её больше нет, она становится секретным агентом без прошлого и будущего…


Релиз-группа: RIPS CLUB
Исходник: Blu-Ray Remux 1080p (rutracker)
Видео: 1918x816, 7300 Kbps
Аудио1: AC3, 6 ch, 448 Kbps - РусскийРусский, MVO (Амальгама)
Аудио2: AC3, 2 ch, 256 Kbps - РусскийРусский, MVO («Видеосервис» VHS)
Аудио3: AC3, 2 ch, 192 Kbps - РусскийРусский, MVO #2
Аудио4: AC3, 2 ch, 192 Kbps - РусскийРусский, MVO (Канал «Петербург-5»)
Аудио5: AC3, 6 ch, 640 Kbps - РусскийРусский, DVO (Пётр Гланц и Инна Королёва С.Р.И. SUPERBIT R2 Japan)
Аудио6: AC3, 2 ch, 256 Kbps - РусскийРусский, VO («Мост-Медиа / SVS Magnetic» VHS)
Аудио7: AC3, 6 ch, 448 Kbps - РусскийРусский, AVO (Юрий Живов)
Аудио8: AC3, 2 ch, 192 Kbps - РусскийРусский, AVO (Андрей Гаврилов ранний)
Аудио9: AC3, 1 ch, 192 Kbps - РусскийРусский, AVO (Виктор Махонько)
Аудио10: AC3, 2 ch, 192 Kbps - РусскийРусский, VO (с немецкого языка)
Аудио11: AC3, 6 ch, 448 Kbps - ФранцузскийФранцузский
Субтитры: русские, английские

Как за несколько секунд удалить ненужные аудиодорожки и субтитры (Внимание! После удаления вы не сможете поддержать раздачу)


Лог (x265 info)x265 [info]: frame I: 706, Avg QP:18.59 kb/s: 20072.15
x265 [info]: frame P: 31083, Avg QP:19.70 kb/s: 14349.59
x265 [info]: frame B: 136835, Avg QP:21.54 kb/s: 5632.14
x265 [info]: Weighted P-Frames: Y:8.9% UV:7.0%
x265 [info]: Weighted B-Frames: Y:5.8% UV:4.5%
x265 [info]: encoded 168624 frames in 103771.07s (1.62 fps), 7299.52 kb/s, Avg QP:21.19
МедиаинфоОбщее
Уникальный идентификатор : 145064597045631063749619786287924223358 (0x6D226CD5747B3B678EEE91EEC0559D7E)
Полное имя : \\.\Никита.La.Femme.Nikita.1990.BDRip-HEVC.1080p.mkv
Формат : Matroska
Версия формата : Version 4
Размер файла : 8,81 Гбайт
Продолжительность : 1 ч. 57 мин.
Общий битрейт : 10,8 Мбит/сек
Частота кадров : 23,976 кадра/сек
Название фильма : Её звали Никита / Её звали Никита
Кодирование выполнил : OldGamer
Тип содержимого : Movie
Описание : Она убивает. Для того, чтобы жить.
Дата выпуска : 1990-02-21
Дата записи : 1990-02-21
Программа кодирования : mkvmerge v83.0 ('Circle Of Friends') 64-bit
Библиотека кодирования : libebml v1.4.5 + libmatroska v1.7.1 / xvid4psp5
Обложка : Yes
Attachments : cover.jpg
ACTOR : Anne Parillaud, Жан-Юг Англад, Tchéky Karyo, Жан Рено, Marc Duret, Jeanne Moreau, Patrick Fontana, Roland Blanche, Jacques Boudet, Jean Bouise, Philippe du Janerand, Alain Lathière, Laura Chéron, Pierre-Alain de Garrigues, Helene Aligier, Philippe Le...
ARTIST : Anne Parillaud, Жан-Юг Англад, Tchéky Karyo, Жан Рено, Marc Duret, Jeanne Moreau, Patrick Fontana, Roland Blanche, Jacques Boudet, Jean Bouise, Philippe du Janerand, Alain Lathière, Laura Chéron, Pierre-Alain de Garrigues, Helene Aligier, Philippe Le...
DIRECTOR : Люк Бессон
GENRE : боевик, триллер
LAW_RATING : R
PRODUCER : Patrice Ledoux
PRODUCTION_STUDIO : Les Films du Loup
RATING : R
SUMMARY : Она убивает. Для того, чтобы жить.
SYNOPSIS : Никита, молоденькая девушка, под действием наркотиков вместе с друзьями совершает ограбление и убийство. После суда приговор не приводится в исполнение, а Никиту отправляют в школу специальных агентов.Её больше нет, она становится секретным агентом без прошлого и будущего…

Видео
Идентификатор : 1
Формат : HEVC
Формат/Информация : High Efficiency Video Coding
Профиль формата : Main 10@L4.1@High
Идентификатор кодека : V_MPEGH/ISO/HEVC
Продолжительность : 1 ч. 57 мин.
Битрейт : 7 300 Кбит/сек
Ширина : 1 918 пикселей
Высота : 816 пикселей
Соотношение сторон дисплея : 2,35:1
Режим частоты кадров : Постоянный
Частота кадров : 23,976 (24000/1001) кадра/сек
Цветовое пространство : YUV
Цветовая субдискретизация : 4:2:0
Битовая глубина : 10 бит
Бит/(Пиксели*Кадры) : 0.195
Размер потока : 5,98 Гбайт (68%)
Заголовок : La Femme Nikita / Rip by OldGamer
Библиотека кодирования : x265 3.5+110-8ee01d45b:[Windows][GCC 13.2.0][64 bit] 10bit
Параметры библиотеки кодирования : cpuid=1111039 / frame-threads=4 / numa-pools=16 / wpp / no-pmode / no-pme / no-psnr / no-ssim / log-level=2 / input-csp=1 / input-res=1918x816 / interlace=0 / total-frames=168624 / level-idc=41 / high-tier=1 / uhd-bd=0 / ref=5 / no-allow-non-conformance / no-repeat-headers / annexb / no-aud / no-eob / no-eos / no-hrd / info / hash=0 / temporal-layers=0 / open-gop / min-keyint=23 / keyint=240 / gop-lookahead=0 / bframes=16 / b-adapt=2 / b-pyramid / bframe-bias=0 / rc-lookahead=40 / lookahead-slices=0 / scenecut=40 / no-hist-scenecut / radl=0 / no-splice / no-intra-refresh / ctu=32 / min-cu-size=8 / rect / amp / max-tu-size=32 / tu-inter-depth=4 / tu-intra-depth=4 / limit-tu=1 / rdoq-level=2 / dynamic-rd=0.00 / no-ssim-rd / signhide / no-tskip / nr-intra=0 / nr-inter=0 / no-constrained-intra / no-strong-intra-smoothing / max-merge=5 / limit-refs=3 / no-limit-modes / me=3 / subme=7 / merange=57 / temporal-mvp / no-frame-dup / no-hme / weightp / weightb / no-analyze-src-pics / deblock=-2:-2 / no-sao / no-sao-non-deblock / rd=6 / selective-sao=0 / no-early-skip / no-rskip / no-fast-intra / no-tskip-fast / no-cu-lossless / b-intra / no-splitrd-skip / rdpenalty=0 / psy-rd=2.00 / psy-rdoq=1.00 / no-rd-refine / no-lossless / cbqpoffs=0 / crqpoffs=0 / rc=crf / crf=20.0 / qcomp=0.60 / qpstep=4 / stats-write=0 / stats-read=0 / vbv-maxrate=50000 / vbv-bufsize=50000 / vbv-init=0.9 / min-vbv-fullness=50.0 / max-vbv-fullness=80.0 / crf-max=0.0 / crf-min=0.0 / ipratio=1.40 / pbratio=1.30 / aq-mode=1 / aq-strength=1.00 / no-cutree / zone-count=1 / zones: / start-frame=163120 / end-frame=168624 / qp=36 / no-strict-cbr / qg-size=32 / no-rc-grain / qpmax=69 / qpmin=0 / no-const-vbv / sar=1 / overscan=0 / videoformat=5 / range=0 / colorprim=2 / transfer=2 / colormatrix=2 / chromaloc=0 / display-window=0 / cll=0,0 / min-luma=0 / max-luma=1023 / log2-max-poc-lsb=8 / vui-timing-info / vui-hrd-info / slices=1 / no-opt-qp-pps / no-opt-ref-list-length-pps / no-multi-pass-opt-rps / scenecut-bias=0.00 / no-opt-cu-delta-qp / no-aq-motion / no-hdr10 / no-hdr10-opt / no-dhdr10-opt / no-idr-recovery-sei / analysis-reuse-level=0 / analysis-save-reuse-level=0 / analysis-load-reuse-level=0 / scale-factor=0 / refine-intra=0 / refine-inter=0 / refine-mv=1 / refine-ctu-distortion=0 / no-limit-sao / ctu-info=0 / no-lowpass-dct / refine-analysis-type=0 / copy-pic=1 / max-ausize-factor=1.0 / no-dynamic-refine / no-single-sei / no-hevc-aq / no-svt / no-field / qp-adaptation-range=1.00 / scenecut-aware-qp=0conformance-window-offsets / right=0 / bottom=0 / decoder-max-rate=0 / no-vbv-live-multi-pass / no-mcstf / no-sbrc
Язык : Французский
По умолчанию : Да
Принудительно : Нет

Аудио #1
Идентификатор : 2
Формат : AC-3
Формат/Информация : Audio Coding 3
Коммерческое название : Dolby Digital
Идентификатор кодека : A_AC3
Продолжительность : 1 ч. 57 мин.
Вид битрейта : Постоянный
Битрейт : 448 Кбит/сек
Канал(-ы) : 6 каналов
Расположение каналов : L R C LFE Ls Rs
Частота дискретизации : 48,0 КГц
Частота кадров : 31,250 кадров/сек (1536 SPF)
Метод сжатия : С потерями
Размер потока : 376 Мбайт (4%)
Заголовок : MVO (Амальгама)
Язык : Русский
Вид сервиса : Complete Main
По умолчанию : Да
Принудительно : Нет
Нормализация звука речи : -27 dB
compr : -0.28 dB
dynrng : -0.86 dB
cmixlev : -3.0 dB
surmixlev : -3 dB
mixlevel : 281 dB
roomtyp : Small
dialnorm_Average : -27 dB
dialnorm_Minimum : -27 dB
dialnorm_Maximum : -27 dB

Аудио #2
Идентификатор : 3
Формат : AC-3
Формат/Информация : Audio Coding 3
Коммерческое название : Dolby Digital
Идентификатор кодека : A_AC3
Продолжительность : 1 ч. 57 мин.
Вид битрейта : Постоянный
Битрейт : 256 Кбит/сек
Канал(-ы) : 2 канала
Расположение каналов : L R
Частота дискретизации : 48,0 КГц
Частота кадров : 31,250 кадров/сек (1536 SPF)
Метод сжатия : С потерями
Размер потока : 215 Мбайт (2%)
Заголовок : MVO («Видеосервис» VHS)
Язык : Русский
Вид сервиса : Complete Main
По умолчанию : Нет
Принудительно : Нет
Нормализация звука речи : -31 dB
dialnorm_Average : -31 dB
dialnorm_Minimum : -31 dB
dialnorm_Maximum : -31 dB

Аудио #3
Идентификатор : 4
Формат : AC-3
Формат/Информация : Audio Coding 3
Коммерческое название : Dolby Digital
Идентификатор кодека : A_AC3
Продолжительность : 1 ч. 57 мин.
Вид битрейта : Постоянный
Битрейт : 192 Кбит/сек
Канал(-ы) : 2 канала
Расположение каналов : L R
Частота дискретизации : 48,0 КГц
Частота кадров : 31,250 кадров/сек (1536 SPF)
Метод сжатия : С потерями
Размер потока : 161 Мбайт (2%)
Заголовок : MVO #2
Язык : Русский
Вид сервиса : Complete Main
По умолчанию : Нет
Принудительно : Нет
Нормализация звука речи : -26 dB
compr : -0.28 dB
dynrng : -3.66 dB
mixlevel : 281 dB
roomtyp : Small
dialnorm_Average : -26 dB
dialnorm_Minimum : -26 dB
dialnorm_Maximum : -26 dB

Аудио #4
Идентификатор : 5
Формат : AC-3
Формат/Информация : Audio Coding 3
Коммерческое название : Dolby Digital
Идентификатор кодека : A_AC3
Продолжительность : 1 ч. 57 мин.
Вид битрейта : Постоянный
Битрейт : 192 Кбит/сек
Канал(-ы) : 2 канала
Расположение каналов : L R
Частота дискретизации : 48,0 КГц
Частота кадров : 31,250 кадров/сек (1536 SPF)
Метод сжатия : С потерями
Размер потока : 161 Мбайт (2%)
Заголовок : MVO (Канал «Петербург-5»)
Язык : Русский
Вид сервиса : Complete Main
По умолчанию : Нет
Принудительно : Нет
Нормализация звука речи : -31 dB
compr : -4.53 dB
dialnorm_Average : -31 dB
dialnorm_Minimum : -31 dB
dialnorm_Maximum : -31 dB

Аудио #5
Идентификатор : 6
Формат : AC-3
Формат/Информация : Audio Coding 3
Коммерческое название : Dolby Digital
Идентификатор кодека : A_AC3
Продолжительность : 1 ч. 57 мин.
Вид битрейта : Постоянный
Битрейт : 640 Кбит/сек
Канал(-ы) : 6 каналов
Расположение каналов : L R C LFE Ls Rs
Частота дискретизации : 48,0 КГц
Частота кадров : 31,250 кадров/сек (1536 SPF)
Метод сжатия : С потерями
Размер потока : 537 Мбайт (6%)
Заголовок : DVO (Пётр Гланц и Инна Королёва С.Р.И. SUPERBIT R2 Japan)
Язык : Русский
Вид сервиса : Complete Main
По умолчанию : Нет
Принудительно : Нет
Нормализация звука речи : -27 dB
compr : -0.28 dB
cmixlev : -3.0 dB
surmixlev : -3 dB
mixlevel : 285 dB
roomtyp : Small
dialnorm_Average : -27 dB
dialnorm_Minimum : -27 dB
dialnorm_Maximum : -27 dB

Аудио #6
Идентификатор : 7
Формат : AC-3
Формат/Информация : Audio Coding 3
Коммерческое название : Dolby Digital
Идентификатор кодека : A_AC3
Продолжительность : 1 ч. 57 мин.
Вид битрейта : Постоянный
Битрейт : 256 Кбит/сек
Канал(-ы) : 2 канала
Расположение каналов : L R
Частота дискретизации : 48,0 КГц
Частота кадров : 31,250 кадров/сек (1536 SPF)
Метод сжатия : С потерями
Размер потока : 215 Мбайт (2%)
Заголовок : VO («Мост-Медиа / SVS Magnetic» VHS)
Язык : Русский
Вид сервиса : Complete Main
По умолчанию : Нет
Принудительно : Нет
Нормализация звука речи : -31 dB
dialnorm_Average : -31 dB
dialnorm_Minimum : -31 dB
dialnorm_Maximum : -31 dB

Аудио #7
Идентификатор : 8
Формат : AC-3
Формат/Информация : Audio Coding 3
Коммерческое название : Dolby Digital
Идентификатор кодека : A_AC3
Продолжительность : 1 ч. 57 мин.
Вид битрейта : Постоянный
Битрейт : 448 Кбит/сек
Канал(-ы) : 6 каналов
Расположение каналов : L R C LFE Ls Rs
Частота дискретизации : 48,0 КГц
Частота кадров : 31,250 кадров/сек (1536 SPF)
Метод сжатия : С потерями
Размер потока : 376 Мбайт (4%)
Заголовок : AVO (Юрий Живов)
Язык : Русский
Вид сервиса : Complete Main
По умолчанию : Нет
Принудительно : Нет
Нормализация звука речи : -31 dB
compr : -0.28 dB
dynrng : -0.86 dB
cmixlev : -3.0 dB
surmixlev : -3 dB
mixlevel : 281 dB
roomtyp : Small
dialnorm_Average : -31 dB
dialnorm_Minimum : -31 dB
dialnorm_Maximum : -31 dB

Аудио #8
Идентификатор : 9
Формат : AC-3
Формат/Информация : Audio Coding 3
Коммерческое название : Dolby Digital
Идентификатор кодека : A_AC3
Продолжительность : 1 ч. 57 мин.
Вид битрейта : Постоянный
Битрейт : 192 Кбит/сек
Канал(-ы) : 2 канала
Расположение каналов : L R
Частота дискретизации : 48,0 КГц
Частота кадров : 31,250 кадров/сек (1536 SPF)
Метод сжатия : С потерями
Размер потока : 161 Мбайт (2%)
Заголовок : AVO (Андрей Гаврилов ранний)
Язык : Русский
Вид сервиса : Complete Main
По умолчанию : Нет
Принудительно : Нет
Нормализация звука речи : -27 dB
compr : -0.28 dB
dynrng : -8.70 dB
dsurmod : Not Dolby Surround encoded
mixlevel : 285 dB
roomtyp : Small
dialnorm_Average : -27 dB
dialnorm_Minimum : -27 dB
dialnorm_Maximum : -27 dB

Аудио #9
Идентификатор : 10
Формат : AC-3
Формат/Информация : Audio Coding 3
Коммерческое название : Dolby Digital
Идентификатор кодека : A_AC3
Продолжительность : 1 ч. 57 мин.
Вид битрейта : Постоянный
Битрейт : 192 Кбит/сек
Канал(-ы) : 1 канал
Расположение каналов : M
Частота дискретизации : 48,0 КГц
Частота кадров : 31,250 кадров/сек (1536 SPF)
Метод сжатия : С потерями
Размер потока : 161 Мбайт (2%)
Заголовок : AVO (Виктор Махонько)
Язык : Русский
Вид сервиса : Complete Main
По умолчанию : Нет
Принудительно : Нет
Нормализация звука речи : -27 dB
compr : -0.28 dB
dynrng : 11.76 dB
mixlevel : 285 dB
roomtyp : Small
dialnorm_Average : -27 dB
dialnorm_Minimum : -27 dB
dialnorm_Maximum : -27 dB

Аудио #10
Идентификатор : 11
Формат : AC-3
Формат/Информация : Audio Coding 3
Коммерческое название : Dolby Digital
Идентификатор кодека : A_AC3
Продолжительность : 1 ч. 57 мин.
Вид битрейта : Постоянный
Битрейт : 192 Кбит/сек
Канал(-ы) : 2 канала
Расположение каналов : L R
Частота дискретизации : 48,0 КГц
Частота кадров : 31,250 кадров/сек (1536 SPF)
Метод сжатия : С потерями
Размер потока : 161 Мбайт (2%)
Заголовок : VO (с немецкого языка)
Язык : Русский
Вид сервиса : Complete Main
По умолчанию : Нет
Принудительно : Нет
Нормализация звука речи : -27 dB
compr : -0.28 dB
dsurmod : Not Dolby Surround encoded
mixlevel : 285 dB
roomtyp : Small
dialnorm_Average : -27 dB
dialnorm_Minimum : -27 dB
dialnorm_Maximum : -27 dB

Аудио #11
Идентификатор : 12
Формат : AC-3
Формат/Информация : Audio Coding 3
Коммерческое название : Dolby Digital
Идентификатор кодека : A_AC3
Продолжительность : 1 ч. 57 мин.
Вид битрейта : Постоянный
Битрейт : 448 Кбит/сек
Канал(-ы) : 6 каналов
Расположение каналов : L R C LFE Ls Rs
Частота дискретизации : 48,0 КГц
Частота кадров : 31,250 кадров/сек (1536 SPF)
Метод сжатия : С потерями
Размер потока : 376 Мбайт (4%)
Язык : Французский
Вид сервиса : Complete Main
По умолчанию : Нет
Принудительно : Нет
Нормализация звука речи : -31 dB
compr : -0.28 dB
cmixlev : -3.0 dB
surmixlev : -3 dB
dialnorm_Average : -31 dB
dialnorm_Minimum : -31 dB
dialnorm_Maximum : -31 dB

Текст #1
Идентификатор : 13
Формат : UTF-8
Идентификатор кодека : S_TEXT/UTF8
Идентификатор кодека/Информация : UTF-8 Plain Text
Продолжительность : 1 ч. 51 мин.
Битрейт : 50 бит/сек
Частота кадров : 0,111 кадр/сек
Число элементов : 740
Размер потока : 41,4 КиБ (0%)
Язык : Русский
По умолчанию : Нет
Принудительно : Нет

Текст #2
Идентификатор : 14
Формат : UTF-8
Идентификатор кодека : S_TEXT/UTF8
Идентификатор кодека/Информация : UTF-8 Plain Text
Продолжительность : 1 ч. 51 мин.
Битрейт : 22 бит/сек
Частота кадров : 0,114 кадр/сек
Число элементов : 762
Размер потока : 18,2 КиБ (0%)
Язык : Английский
По умолчанию : Нет
Принудительно : Нет

Меню
00:00:00.000 : en:Main Title
00:07:45.964 : en:Shop Till You Drop... Dead
00:13:26.972 : en:Her Name in Blood
00:21:06.848 : en:A Life Sentence
00:24:57.579 : en:Mother Has Been Warned
00:35:09.690 : en:Officially Deceased
00:41:15.264 : en:Never the First Bullet
00:49:15.744 : en:Reeducation
00:55:00.714 : en:Barely Human
01:02:30.580 : en:No Sunday, No Exception
01:08:58.050 : en:Happy Final Birthday
01:16:13.860 : en:Abusing Feminine Wiles
01:28:49.032 : en:A Date Outside
01:34:41.008 : en:One Hell of a Present
01:41:27.414 : en:A Kiss Before Leaving
01:45:53.555 : en:Code Name "Josephine"
Загрузка...Cкриншот1 Никита / Nikita (1990) BDRip 1080p [HEVC] 10 bit от OldGamer (RG RIPS CLUB)Загрузка...Cкриншот2 Никита / Nikita (1990) BDRip 1080p [HEVC] 10 bit от OldGamer (RG RIPS CLUB)Загрузка...Cкриншот3 Никита / Nikita (1990) BDRip 1080p [HEVC] 10 bit от OldGamer (RG RIPS CLUB)Загрузка...Cкриншот4 Никита / Nikita (1990) BDRip 1080p [HEVC] 10 bit от OldGamer (RG RIPS CLUB)
История обновленийПерекодировано. Замена перевода "Видеосервис", добавлены переводы: MVO #2, Канал «Петербург-5», «Мост-Медиа / SVS Magnetic» VHS, Андрей Гаврилов, Виктор Махонько, неизвестный одноголосый (с немецкого языка)
Поблагодарили: 14AlexsBond, and50, AndresUA, Antilord90, bronsonw200, D16T, gotgame1, Miss Exclusive 888, natali, Niflung, sharkey71, stickstoff, vserginbox, Торпеда
Файлы: 1
  • Никита.La.Femme.Nikita.1990.BDRip-HEVC.1080p.mkv

Рейтинги КП и IMDB, кнопки "Раздайте, пожалуйста" и "Спасибо", а также мультитрекерная статистика доступны только зарегистрированным/авторизованным пользователям!

OldGamer
9024008.81 ГБ

💬︎ Комментарии

Добавление комментариев доступно только зарегистрированным/авторизованным пользователям.