💬 Мини-чат

BrooklynOldGamer, Ок, спасибо, качаю.
OldGamerBrooklyn, они все на раздаче пока что
BrooklynOldGamer, Пораздавайте, пожалуйста, все сезоны сериала "Гримм" ближайшие 3 дня, очень хочу их забрать. Качество отличное. Заранее Благодарен.
StarLordСообщение удалено (удалил: StarLord)
OldGamerвыводить
mafo2Admin, можно вывести, наглядно будет
StarLordAdmin, +
AdminНадпись HDR выводить на обложку?
OldGamerGiggalo, но лучше всего вообще не затрагивайте этот ключ, по умолчанию будет установлено оптимальное значение
OldGamerGiggalo, но если уж очень хочется то пишите --frame-threads 3
OldGamerGiggalo, а зачем его менять?) нужное значение устанавливается автоматически
GiggaloДобрый вечер всем! OldGamer Покажи пожалуйста почему когда пишу в командной строке frame-threads=3 он не меняется. Какой там стоит 13 он его и держит, а ругие установки спокойно меняет?
AdminStarLord, спасибо. Пока сойдет.
StarLordAdmin, ага, вижу
StarLordAdmin, а как должно брать?
AdminStarLord, ты шаришь?
AdminStarLord, у меня сейчас такая, но с точками беда. Доработать бы (https?://([-\w\.]+)+(:\d+)?(/([-\w/_:%]*(\.\w+)*(\?\S+)?)?)?)
AdminStarLord, скрины в bb некорректно берет
StarLordwww, ftp(s), http(s), #, :, &
StarLordAdmin, все мои кейсы покрыла
  • DKV
  • InSpector
  • moonson
Отправка сообщений доступна только зарегистрированным/авторизованным пользователям.
Онлайн (за 10 мин.): 3

Спартак: кровь и песок / Spartacus: Blood and Sand (2010) BDRip 1080p [HEVC] 8 bit от HANNIBAL

HEVC
8 bit
Обложка Спартак: кровь и песок / Spartacus: Blood and Sand (2010) BDRip 1080p [HEVC] 8 bit от HANNIBAL Год: 2010
Страна: США
Студия: Starz Media, Starz Productions
Жанр: Боевик, История, Драма
Продолжительность: 13 x ~00:54:56

Режиссер: Майкл Херст, Рик Джейкобсон, Джесси Уарн
В ролях: Ману Беннетт, Питер Менса, Ник Тарабэй, Вива Скубижевски, Джей Кортни, Лесли-Энн Брандт, Эрин Каммингс, Энди Уитфилд, Джон Ханна, Крэйг Паркер

Описание: Легенда о фракийском воине Спартаке, попавшем в рабство к римлянам, ставшим гладиатором и возглавившим одно из самых массовых восстаний рабов в Древнем Риме - известна всем ещё со школьной скамьи. Создатели сериала дают нам возможность вновь окунуться в атмосферу античности и помогают древней легенде буквально заиграть новыми красками, с применением новейших технологий кинематографии. Предупреждение: Сериал содержит сцены насилия и сексуального характера, не рекомендуется к просмотру лицам до 18 лет


Видео: 1920x1080, ~4870Kbps
Аудио: AC3, 5.1, 48 КГц, 640 Кбит/с - РусскийРусский, Профессиональный (многоголосый) (LostFilm)
Субтитры: нет

Медиаинфо
General
Unique ID : 248555635986523275240514405042957779780 (0xBAFE130008A7B127AA7BAAEC8ECB0344)
Complete name : F:\HEVC-CLUB\Spartacus Blood and Sand [Сезон 1] (2010) BDRip 1080p [HEVC]\(s1).mkv
Format : Matroska
Format version : Version 2
File size : 2.16 GiB
Duration : 54 min 56 s
Overall bit rate : 5 621 kb/s
Movie name : 00001
Encoded date : UTC 2016-05-21 21:55:28
Writing application : DVDFab 9.2.3.9
Writing library : libebml v0.7.8 + libmatroska v0.8.1

Video
ID : 1
Format : HEVC
Format/Info : High Efficiency Video Coding
Format profile : Main@L5@High
Codec ID : V_MPEGH/ISO/HEVC
Duration : 54 min 56 s
Bit rate : 4 869 kb/s
Width : 1 920 pixels
Height : 1 080 pixels
Display aspect ratio : 16:9
Frame rate mode : Constant
Frame rate : 23.976 (24000/1001) FPS
Color space : YUV
Chroma subsampling : 4:2:0
Bit depth : 8 bits
Bits/(Pixel*Frame) : 0.098
Stream size : 1.87 GiB (87%)
Default : Yes
Forced : No

Audio
ID : 2
Format : AC-3
Format/Info : Audio Coding 3
Codec ID : A_AC3
Duration : 54 min 56 s
Bit rate mode : Constant
Bit rate : 640 kb/s
Channel(s) : 6 channels
Channel positions : Front: L C R, Side: L R, LFE
Sampling rate : 48.0 kHz
Frame rate : 31.250 FPS (1536 SPF)
Bit depth : 16 bits
Compression mode : Lossy
Stream size : 251 MiB (11%)
Language : Russian
Service kind : Complete Main
Default : No
Forced : No
Загрузка...Cкриншот1 Спартак: кровь и песок / Spartacus: Blood and Sand (2010) BDRip 1080p [HEVC] 8 bit от HANNIBALЗагрузка...Cкриншот2 Спартак: кровь и песок / Spartacus: Blood and Sand (2010) BDRip 1080p [HEVC] 8 bit от HANNIBALЗагрузка...Cкриншот3 Спартак: кровь и песок / Spartacus: Blood and Sand (2010) BDRip 1080p [HEVC] 8 bit от HANNIBALЗагрузка...Cкриншот4 Спартак: кровь и песок / Spartacus: Blood and Sand (2010) BDRip 1080p [HEVC] 8 bit от HANNIBAL
Сэмпл Торрент🧲 Магнет

Рейтинги КП и IMDB, кнопки "Позвать в чате" и "Спасибо", а также мультитрекерная статистика сидов и пиров доступны только зарегистрированным/авторизованным пользователям!

Файлы: 13
  • Spartacus Blood and Sand [Сезон 1] (2010) BDRip 1080p [HEVC]
    • (6s).mkv   2.13 ГБ
    • (7s).mkv   2 ГБ
    • (s1).mkv   2.16 ГБ
    • (s10).mkv   2.03 ГБ
    • (s11).mkv   2.03 ГБ
    • (s12).mkv   2.17 ГБ
    • (s13).mkv   2.12 ГБ
    • (s2).mkv   2.07 ГБ
    • (s3).mkv   2.17 ГБ
    • (s4).mkv   1.93 ГБ
    • (s5).mkv   2.17 ГБ
    • (s8).mkv   2 ГБ
    • (s9).mkv   1.98 ГБ
Поблагодарили: 3
brukvalub, igor3176, Long_Boy
HANNIBAL
06600 (13)  26.96 ГБ

Добавление нового комментария

Добавление комментариев доступно только зарегистрированным/авторизованным пользователям.