💬 Мини-чат

Убедительная просьба не обсуждать тут политику.
AdminЛёшикоБэст, вроде потихоньку идёт. Подождем, если не докачается, то встану.
AdminЛёшикоБэст, перекачайте торрент, а то в профиле не отображается ждете или уже нет
ЛёшикоБэстРаздайте, пожалуйста, Неудержимые / The Expendables (2010) [Theatrical Cut] BDRip 1080p [HEVC] 10 bit от Spartanec1308
OldGamerДа, есть.
ЛёшикоБэстДоброго вечера) Скажите пожалуйста, есть ли в планах сделать релиз дилогии "Зорро" с Антонио Бандерасом?
HANNIBALAdmin, 👍
AdminГоро, встал
ГороРаздайте, пожалуйста, Хищники / Predators (2010) BDRip 1080p [HEVC] 10 bit от HANNIBAL
AdminHANNIBAL, привет. Не помню за сколько брал, но продление в этот раз обошлось примерно в $14 со всякими комиссиями. А аренда VDS обходится примерно в $30-35 за год. Не исключено, что всё это подорожает. Пока что пожертвования с трудом покрывают расходы. Иногда если требуется и со своего кармана оплачиваю, не страшно. Прорвемся.
HANNIBALсколько сейчас стоит
HANNIBALAdmin, ПРИВЕТ
AdminНаконец-то получил банковскую карту. Продлил доменное имя (адрес сайта) на год.
  • ivan_1965
Отправка сообщений доступна только зарегистрированным/авторизованным пользователям.
Онлайн (за 10 мин.): 1

Спартак: Кровь и песок / Spartacus: Blood and Sand (2010) BDRip 1080p [HEVC] 10 bit от OldGamer (RG RIPS CLUB)

HEVC
10 bit
Обложка Спартак: Кровь и песок / Spartacus: Blood and Sand (2010) BDRip 1080p [HEVC] 10 bit от OldGamer (RG RIPS CLUB) Год: 2010
Страна: США
Студия: Starz!, Tapert / Donen / Raimi
Жанр: Боевик, Драма, Мелодрама, Приключения
Продолжительность: 11:26:23

Режиссер: Джесси Уарн, Майкл Херст, Рик Джейкобсон
В ролях: Энди Уитфилд, Лиам Макинтайр, Ману Беннетт, Дастин Клер, Дэниел Фьюрригал, Ник Е. Тарабэй, Джон Ханна, Люси Лоулесс, Вива Бьянка, Питер Менса

Описание: «Спартак: Кровь и песок» – это жёсткий и выразительный рассказ о самом знаменитом из римских гладиаторов. Спартака разлучили с любовью всей его жизни и заставили выходить на арену, где смерть – лучшее развлечение для толпы. Спартак должен бороться за выживание, подружиться с врагами, и усвоить политику нового мира жестокости, секса и славы. Его будут соблазнять властью и изводить местью. Но его страсть даст ему силы преодолеть все испытания в этой истории о смерти, чести и стойкости. Внимание: сериал содержит сцены насилия и сексуального характера, не рекомендуется к просмотру лицам до 18 лет.


Исходник: Blu-Ray Remux 1080p (rutracker)
Видео: 1920x1080 (16:9), 8132-12700 Кбит/сек, HEVC (Main10@L.4.1@High)
Аудио1: AC3, 6 ch, 640 Kbps - РусскийРусский, MVO (LostFilm)
Аудио2: AC3, 6 ch, 384 Kbps - РусскийРусский, MVO (TVShows)
Аудио3: AC3, 6 ch, 640 Kbps - EnglishEnglish, Original
Субтитры: Русские полные (SRT), English full (SDH)

Как за пару секунд удалить ненужные аудиодорожки и субтитры (Внимание! После удаления вы не сможете поддержать раздачу)

Лог (x265 info)
x265 [info]: frame I: 300, Avg QP:17.57 kb/s: 26324.40
x265 [info]: frame P: 13606, Avg QP:18.84 kb/s: 20387.64
x265 [info]: frame B: 56821, Avg QP:20.85 kb/s: 8343.85
x265 [info]: Weighted P-Frames: Y:17.0% UV:14.0%
x265 [info]: Weighted B-Frames: Y:16.0% UV:12.2%
x265 [info]: consecutive B-frames: 1.8% 3.0% 4.0% 32.9% 8.4% 41.2% 3.3% 4.6% 0.4% 0.2% 0.1% 0.1% 0.1%
x265 [info]: encoded 70727 frames in 60807.10s (1.16 fps), 10737.02 kb/s, Avg QP:20.45
Медиаинфо
Общее
Уникальный идентификатор : 36843538240049269791612306377380880184 (0x1BB7CEAED768DAABC1E2107AEA9A5F38)
Полное имя : \\.\01.Spartacus.Blood.And.Sand.2010.BDRip-HEVC.1080p\Spartacus.Blood.And.Sand.E04.The.Thing.In.The.Pit.mkv
Формат : Matroska
Версия формата : Version 4
Размер файла : 4,26 Гбайт
Продолжительность : 49 м. 9 с.
Общий поток : 12,4 Мбит/сек
Название фильма : Spartacus.Blood.And.Sand.E04.The.Thing.In.The.Pit
Дата кодирования : UTC 2022-03-15 01:15:45
Программа кодирования : mkvmerge v66.0.0 ('Josie') 64-bit
Библиотека кодирования : libebml v1.4.2 + libmatroska v1.6.4

Видео
Идентификатор : 1
Формат : HEVC
Формат/Информация : High Efficiency Video Coding
Профиль формата : Main 10@L4.1@High
Идентификатор кодека : V_MPEGH/ISO/HEVC
Продолжительность : 49 м. 9 с.
Битрейт : 10,7 Мбит/сек
Ширина : 1 920 пикселей
Высота : 1 080 пикселей
Соотношение сторон : 16:9
Режим частоты кадров : Постоянный
Частота кадров : 23,976 (24000/1001) кадра/сек
Цветовое пространство : YUV
Субдискретизация насыщенности : 4:2:0
Битовая глубина : 10 бит
Бит/(Пиксели*Кадры) : 0.216
Размер потока : 3,69 Гбайт (87%)
Заголовок : Spartacus Blood And Sand E04 / Rip by OldGamer
Библиотека кодирования : x265 3.5+19-8003e4382:[Windows][GCC 11.2.0][64 bit] 10bit
Настройки программы : cpuid=1111039 / frame-threads=4 / numa-pools=16 / wpp / no-pmode / no-pme / no-psnr / no-ssim / log-level=2 / input-csp=1 / input-res=1920x1080 / interlace=0 / total-frames=70727 / level-idc=41 / high-tier=1 / uhd-bd=0 / ref=5 / no-allow-non-conformance / no-repeat-headers / annexb / no-aud / no-eob / no-eos / no-hrd / info / hash=0 / no-temporal-layers / open-gop / min-keyint=23 / keyint=240 / gop-lookahead=0 / bframes=12 / b-adapt=2 / b-pyramid / bframe-bias=0 / rc-lookahead=40 / lookahead-slices=0 / scenecut=40 / no-hist-scenecut / radl=0 / no-splice / no-intra-refresh / ctu=32 / min-cu-size=8 / rect / amp / max-tu-size=32 / tu-inter-depth=4 / tu-intra-depth=4 / limit-tu=1 / rdoq-level=2 / dynamic-rd=0.00 / no-ssim-rd / signhide / no-tskip / nr-intra=0 / nr-inter=0 / no-constrained-intra / no-strong-intra-smoothing / max-merge=5 / limit-refs=3 / no-limit-modes / me=3 / subme=7 / merange=57 / temporal-mvp / no-frame-dup / no-hme / weightp / weightb / no-analyze-src-pics / deblock=-2:-2 / no-sao / no-sao-non-deblock / rd=6 / selective-sao=0 / no-early-skip / no-rskip / no-fast-intra / no-tskip-fast / no-cu-lossless / b-intra / no-splitrd-skip / rdpenalty=0 / psy-rd=2.00 / psy-rdoq=1.00 / no-rd-refine / no-lossless / cbqpoffs=0 / crqpoffs=0 / rc=crf / crf=20.5 / qcomp=0.60 / qpstep=4 / stats-write=0 / stats-read=0 / vbv-maxrate=50000 / vbv-bufsize=50000 / vbv-init=0.9 / min-vbv-fullness=50.0 / max-vbv-fullness=80.0 / crf-max=0.0 / crf-min=0.0 / ipratio=1.40 / pbratio=1.30 / aq-mode=1 / aq-strength=1.00 / no-cutree / zone-count=0 / no-strict-cbr / qg-size=32 / no-rc-grain / qpmax=69 / qpmin=0 / no-const-vbv / sar=1 / overscan=0 / videoformat=5 / range=0 / colorprim=2 / transfer=2 / colormatrix=2 / chromaloc=0 / display-window=0 / cll=0,0 / min-luma=0 / max-luma=1023 / log2-max-poc-lsb=8 / vui-timing-info / vui-hrd-info / slices=1 / no-opt-qp-pps / no-opt-ref-list-length-pps / no-multi-pass-opt-rps / scenecut-bias=0.00 / hist-threshold=0.03 / no-opt-cu-delta-qp / no-aq-motion / no-hdr10 / no-hdr10-opt / no-dhdr10-opt / no-idr-recovery-sei / analysis-reuse-level=0 / analysis-save-reuse-level=0 / analysis-load-reuse-level=0 / scale-factor=0 / refine-intra=0 / refine-inter=0 / refine-mv=1 / refine-ctu-distortion=0 / no-limit-sao / ctu-info=0 / no-lowpass-dct / refine-analysis-type=0 / copy-pic=1 / max-ausize-factor=1.0 / no-dynamic-refine / no-single-sei / no-hevc-aq / no-svt / no-field / qp-adaptation-range=1.00 / scenecut-aware-qp=0conformance-window-offsets / right=0 / bottom=0 / decoder-max-rate=0 / no-vbv-live-multi-pass
Язык : English
Default : Да
Forced : Нет

Аудио #1
Идентификатор : 2
Формат : AC-3
Формат/Информация : Audio Coding 3
Коммерческое название : Dolby Digital
Идентификатор кодека : A_AC3
Продолжительность : 49 м. 9 с.
Вид битрейта : Постоянный
Битрейт : 640 Кбит/сек
Каналы : 6 каналов
Channel layout : L R C LFE Ls Rs
Частота : 48,0 КГц
Частота кадров : 31,250 кадров/сек (1536 SPF)
Метод сжатия : С потерями
Размер потока : 225 Мбайт (5%)
Заголовок : MVO (LostFilm)
Язык : Russian
Service kind : Complete Main
Default : Да
Forced : Нет

Аудио #2
Идентификатор : 3
Формат : AC-3
Формат/Информация : Audio Coding 3
Коммерческое название : Dolby Digital
Идентификатор кодека : A_AC3
Продолжительность : 49 м. 9 с.
Вид битрейта : Постоянный
Битрейт : 384 Кбит/сек
Каналы : 6 каналов
Channel layout : L R C LFE Ls Rs
Частота : 48,0 КГц
Частота кадров : 31,250 кадров/сек (1536 SPF)
Метод сжатия : С потерями
Размер потока : 135 Мбайт (3%)
Заголовок : MVO (TVShows)
Язык : Russian
Service kind : Complete Main
Default : Нет
Forced : Нет

Аудио #3
Идентификатор : 4
Формат : AC-3
Формат/Информация : Audio Coding 3
Коммерческое название : Dolby Digital
Идентификатор кодека : A_AC3
Продолжительность : 49 м. 9 с.
Вид битрейта : Постоянный
Битрейт : 640 Кбит/сек
Каналы : 6 каналов
Channel layout : L R C LFE Ls Rs
Частота : 48,0 КГц
Частота кадров : 31,250 кадров/сек (1536 SPF)
Метод сжатия : С потерями
Размер потока : 225 Мбайт (5%)
Заголовок : Original
Язык : English
Service kind : Complete Main
Default : Нет
Forced : Нет

Текст #1
Идентификатор : 5
Формат : UTF-8
Идентификатор кодека : S_TEXT/UTF8
Идентификатор кодека/Информация : UTF-8 Plain Text
Продолжительность : 46 м. 58 с.
Битрейт : 78 бит/сек
Count of elements : 608
Размер потока : 27,1 Кбайт (0%)
Язык : Russian
Default : Нет
Forced : Нет

Текст #2
Идентификатор : 6
Формат : UTF-8
Идентификатор кодека : S_TEXT/UTF8
Идентификатор кодека/Информация : UTF-8 Plain Text
Продолжительность : 47 м. 13 с.
Битрейт : 47 бит/сек
Count of elements : 602
Размер потока : 16,5 Кбайт (0%)
Заголовок : SDH
Язык : English
Default : Нет
Forced : Нет
Загрузка...Cкриншот1 Спартак: Кровь и песок / Spartacus: Blood and Sand (2010) BDRip 1080p [HEVC] 10 bit от OldGamer (RG RIPS CLUB)Загрузка...Cкриншот2 Спартак: Кровь и песок / Spartacus: Blood and Sand (2010) BDRip 1080p [HEVC] 10 bit от OldGamer (RG RIPS CLUB)Загрузка...Cкриншот3 Спартак: Кровь и песок / Spartacus: Blood and Sand (2010) BDRip 1080p [HEVC] 10 bit от OldGamer (RG RIPS CLUB)Загрузка...Cкриншот4 Спартак: Кровь и песок / Spartacus: Blood and Sand (2010) BDRip 1080p [HEVC] 10 bit от OldGamer (RG RIPS CLUB)
Релиз-группа: RIPS CLUB
Сэмпл Торрент🧲 Магнет

Раздача обновлена!
Перекодировано. Добавлены звуковые дорожки (TVShow, английская) и субтитры.

Рейтинги КП и IMDB, кнопки "Позвать в чате" и "Спасибо", а также мультитрекерная статистика доступны только зарегистрированным/авторизованным пользователям!

Файлы: 13
  • 01.Spartacus.Blood.And.Sand.2010.BDRip-HEVC.1080p
    • Spartacus.Blood.And.Sand.E01.The.Red.Serpent.mkv   4.44 ГБ
    • Spartacus.Blood.And.Sand.E02.Sacramentum.Gladiatorum.mkv   4.68 ГБ
    • Spartacus.Blood.And.Sand.E03.Legends.mkv   4.83 ГБ
    • Spartacus.Blood.And.Sand.E04.The.Thing.In.The.Pit.mkv   4.26 ГБ
    • Spartacus.Blood.And.Sand.E05.Shadow.Games.mkv   3.78 ГБ
    • Spartacus.Blood.And.Sand.E06.Delicate.Things.mkv   4.07 ГБ
    • Spartacus.Blood.And.Sand.E07.Great.And.Unfortunate.Things.mkv   3.69 ГБ
    • Spartacus.Blood.And.Sand.E08.Mark.Of.The.Brotherhood.mkv   3.57 ГБ
    • Spartacus.Blood.And.Sand.E09.Whore.mkv   3.65 ГБ
    • Spartacus.Blood.And.Sand.E10.Party.Favors.mkv   4.34 ГБ
    • Spartacus.Blood.And.Sand.E11.Old.Wounds.mkv   5.19 ГБ
    • Spartacus.Blood.And.Sand.E12.Revelations.mkv   4.66 ГБ
    • Spartacus.Blood.And.Sand.E13.Kill.Them.All.mkv   4.29 ГБ
Поблагодарили: 7
makss333, maximka, Nuclear70, Savitar5073, slavjanin, Tony, Тренер по Йоге
OldGamer
310771 (13)  55.45 ГБ

Добавление нового комментария

Добавление комментариев доступно только зарегистрированным/авторизованным пользователям.
Аватар OldGamer
  OldGamer  
Butrenka писал(а):
Остальные сезоны планируются?
Да
Аватар не указан
  Butrenka  
Остальные сезоны планируются?
Аватар не указан
  Tony  
От это битрейт и размерчик! о_О
(Вам то маленький, то большой - не угодить!😆)