💬 Мини-чат

Для тех, кому интересен процесс переделки сайта - https://rips.club/changelog.html (обновлен 20.04.2024)
  • justmkr
Отправка сообщений доступна только зарегистрированным/авторизованным пользователям.
Онлайн (за 10 мин.): 1

Каратель / The Punisher (1989) BDRip 1080p [HEVC] 10 bit от Cthulhu

HEVC
10 bit
Обложка Каратель / The Punisher (1989) BDRip 1080p [HEVC] 10 bit от Cthulhu Год: 1989
Страна: США, Австралия
Студия: New World Pictures
Жанр: Боевик, Триллер, Криминал, Драма
Продолжительность: 01:29:05

Режиссер: Марк Голдблатт
В ролях: Дольф Лундгрен, Луис Госсет мл., Ерун Краббе, Ким Мийори, Брайан Маршалл, Нэнси Эверхард, Бэрри Отто, Брайан Руни, Зошка Мизак, Кэндзи Ямаки, Хирофуми Канаяма, Ларри МакКормик

Описание: Фрэнк Кастл был хорошим полицейским и отличным семьянином, однако все изменилось в один миг, когда его любимая жена и дочь были сожжены заживо во взорванном автомобиле. После этого Кастл начал мстить с особой жестокостью всем представителям преступного мира. Он не ловил их и не тащил в суд, он просто убивал преступивших закон и виновных перед обществом. Уже 125 гангстеров пали от его руки, он стал им и палачом и судьей. Казалось его уже невозможно остановить, но количество врагов росло в геометрической прогрессии, слишком многие его боялись и стремились устранить любыми методами.


Видео: 1920x1036, 7392 Kbps
Аудио1: AC3, 2 ch, 384 Kbps - РусскийРусский, Многоголосый (Викинг видео)
Аудио2: AC3, 6 ch, 640 Kbps - РусскийРусский, Одноголосый (Гаврилов)
Аудио3: AC3, 2 ch, 192 Kbps - РусскийРусский, Одноголосый (Володарский)
Аудио4: AC3, 6 ch, 640 Kbps - Оригинал
Субтитры: Русские, английские

Как за пару секунд удалить ненужные аудиодорожки и субтитры (Внимание! После удаления вы не сможете поддержать раздачу)

Медиаинфо
General
Unique ID : 94760849832526108815721135337420073557 (0x474A469C74526AA96F9A7BD1A6C3AA55)
Complete name : F:\HEVC\The Punisher (1989) BDRip 1080p [HEVC] 10Bit_Cthulhu.mkv
Format : Matroska
Format version : Version 4 / Version 2
File size : 5.76 GiB
Duration : 1 h 29 min
Overall bit rate : 9 251 kb/s
Movie name : The Punisher (1989)_rip_by_Cthulhu
Encoded date : UTC 2018-06-14 17:42:41
Writing application : mkvmerge v24.0.0 ('Beyond The Pale') 64-bit
Writing library : libebml v1.3.6 + libmatroska v1.4.9
Cover : Yes
Attachments : cover.jpg

Video
ID : 1
Format : HEVC
Format/Info : High Efficiency Video Coding
Format profile : Main 10@L4.1@High
Codec ID : V_MPEGH/ISO/HEVC
Duration : 1 h 29 min
Bit rate : 7 392 kb/s
Width : 1 920 pixels
Height : 1 036 pixels
Display aspect ratio : 1.85:1
Frame rate mode : Constant
Frame rate : 23.976 (24000/1001) FPS
Color space : YUV
Chroma subsampling : 4:2:0
Bit depth : 10 bits
Bits/(Pixel*Frame) : 0.155
Stream size : 4.60 GiB (80%)
Writing library : x265 2.7+340-aa9102400f24:[Windows][GCC 8.0.1][64 bit] 10bit
Encoding settings : cpuid=1049583 / frame-threads=4 / numa-pools=4 / wpp / no-pmode / no-pme / no-psnr / no-ssim / log-level=2 / input-csp=1 / input-res=1920x1036 / interlace=0 / total-frames=128170 / level-idc=41 / high-tier=1 / uhd-bd=0 / ref=5 / no-allow-non-conformance / no-repeat-headers / annexb / no-aud / no-hrd / info / hash=0 / no-temporal-layers / open-gop / min-keyint=23 / keyint=240 / gop-lookahead=0 / bframes=8 / b-adapt=2 / b-pyramid / bframe-bias=0 / rc-lookahead=40 / lookahead-slices=4 / scenecut=40 / radl=0 / no-intra-refresh / ctu=64 / min-cu-size=8 / rect / amp / max-tu-size=32 / tu-inter-depth=3 / tu-intra-depth=3 / limit-tu=4 / rdoq-level=1 / dynamic-rd=0.00 / no-ssim-rd / signhide / no-tskip / nr-intra=0 / nr-inter=0 / no-constrained-intra / no-strong-intra-smoothing / max-merge=3 / limit-refs=2 / limit-modes / me=3 / subme=7 / merange=57 / temporal-mvp / weightp / weightb / no-analyze-src-pics / deblock=-3:-3 / no-sao / no-sao-non-deblock / rd=4 / no-early-skip / rskip / no-fast-intra / no-tskip-fast / no-cu-lossless / no-b-intra / no-splitrd-skip / rdpenalty=0 / psy-rd=2.00 / psy-rdoq=1.00 / no-rd-refine / no-lossless / cbqpoffs=0 / crqpoffs=0 / rc=crf / crf=18.5 / qcomp=0.60 / qpstep=4 / stats-write=0 / stats-read=0 / vbv-maxrate=50000 / vbv-bufsize=50000 / vbv-init=0.9 / crf-max=0.0 / crf-min=0.0 / ipratio=1.40 / pbratio=1.30 / aq-mode=1 / aq-strength=1.00 / cutree / zone-count=0 / no-strict-cbr / qg-size=32 / no-rc-grain / qpmax=69 / qpmin=0 / no-const-vbv / sar=1 / overscan=0 / videoformat=5 / range=0 / colorprim=1 / transfer=1 / colormatrix=1 / chromaloc=0 / display-window=0 / max-cll=0,0 / min-luma=0 / max-luma=1023 / log2-max-poc-lsb=8 / vui-timing-info / vui-hrd-info / slices=1 / no-opt-qp-pps / no-opt-ref-list-length-pps / no-multi-pass-opt-rps / scenecut-bias=0.05 / no-opt-cu-delta-qp / no-aq-motion / no-hdr / no-hdr-opt / no-dhdr10-opt / no-idr-recovery-sei / analysis-reuse-level=5 / scale-factor=0 / refine-intra=0 / refine-inter=0 / refine-mv=0 / no-limit-sao / ctu-info=0 / no-lowpass-dct / refine-mv-type=0 / copy-pic=1 / max-ausize-factor=1.0 / no-dynamic-refine / no-single-sei
Language : English
Default : Yes
Forced : No
Color range : Limited
Color primaries : BT.709
Transfer characteristics : BT.709
Matrix coefficients : BT.709

Audio #1
ID : 2
Format : AC-3
Format/Info : Audio Coding 3
Format settings, Endianness : Big
Codec ID : A_AC3
Duration : 1 h 29 min
Bit rate mode : Constant
Bit rate : 384 kb/s
Channel(s) : 2 channels
Channel positions : Front: L R
Sampling rate : 48.0 kHz
Frame rate : 31.250 FPS (1536 SPF)
Bit depth : 16 bits
Compression mode : Lossy
Stream size : 245 MiB (4%)
Title : MVO Викинг видео
Language : Russian
Service kind : Complete Main
Default : Yes
Forced : No

Audio #2
ID : 3
Format : AC-3
Format/Info : Audio Coding 3
Format settings, Endianness : Big
Codec ID : A_AC3
Duration : 1 h 29 min
Bit rate mode : Constant
Bit rate : 640 kb/s
Channel(s) : 6 channels
Channel positions : Front: L C R, Side: L R, LFE
Sampling rate : 48.0 kHz
Frame rate : 31.250 FPS (1536 SPF)
Bit depth : 16 bits
Compression mode : Lossy
Stream size : 408 MiB (7%)
Title : AVO Гаврилов
Language : Russian
Service kind : Complete Main
Default : No
Forced : No

Audio #3
ID : 4
Format : AC-3
Format/Info : Audio Coding 3
Format settings, Endianness : Big
Codec ID : A_AC3
Duration : 1 h 29 min
Bit rate mode : Constant
Bit rate : 192 kb/s
Channel(s) : 2 channels
Channel positions : Front: L R
Sampling rate : 48.0 kHz
Frame rate : 31.250 FPS (1536 SPF)
Bit depth : 16 bits
Compression mode : Lossy
Stream size : 122 MiB (2%)
Title : AVO Володарский
Language : Russian
Service kind : Complete Main
Default : No
Forced : No

Audio #4
ID : 5
Format : AC-3
Format/Info : Audio Coding 3
Format settings, Endianness : Big
Codec ID : A_AC3
Duration : 1 h 29 min
Bit rate mode : Constant
Bit rate : 640 kb/s
Channel(s) : 6 channels
Channel positions : Front: L C R, Side: L R, LFE
Sampling rate : 48.0 kHz
Frame rate : 31.250 FPS (1536 SPF)
Bit depth : 16 bits
Compression mode : Lossy
Stream size : 408 MiB (7%)
Language : English
Service kind : Complete Main
Default : No
Forced : No

Text #1
ID : 6
Format : UTF-8
Codec ID : S_TEXT/UTF8
Codec ID/Info : UTF-8 Plain Text
Duration : 1 h 21 min
Bit rate : 58 b/s
Count of elements : 956
Stream size : 35.3 KiB (0%)
Title : Full Rus
Language : Russian
Default : No
Forced : No

Text #2
ID : 7
Format : UTF-8
Codec ID : S_TEXT/UTF8
Codec ID/Info : UTF-8 Plain Text
Duration : 1 h 21 min
Bit rate : 36 b/s
Count of elements : 956
Stream size : 21.8 KiB (0%)
Title : Full Eng
Language : English
Default : No
Forced : No

Menu
00:00:00.000 : :Chapter 01
00:07:33.453 : :Chapter 02
00:15:58.832 : :Chapter 03
00:21:38.755 : :Chapter 04
00:29:20.759 : :Chapter 05
00:37:31.332 : :Chapter 06
00:43:20.514 : :Chapter 07
00:50:53.467 : :Chapter 08
00:58:21.915 : :Chapter 09
01:07:28.461 : :Chapter 10
01:14:21.039 : :Chapter 11
01:21:31.052 : :Chapter 12
Загрузка...Cкриншот1 Каратель / The Punisher (1989) BDRip 1080p [HEVC] 10 bit от CthulhuЗагрузка...Cкриншот2 Каратель / The Punisher (1989) BDRip 1080p [HEVC] 10 bit от CthulhuЗагрузка...Cкриншот3 Каратель / The Punisher (1989) BDRip 1080p [HEVC] 10 bit от CthulhuЗагрузка...Cкриншот4 Каратель / The Punisher (1989) BDRip 1080p [HEVC] 10 bit от Cthulhu
Сэмпл Торрент🧲 Магнет

Рейтинги КП и IMDB, кнопки "Позвать в чате" и "Спасибо", а также мультитрекерная статистика доступны только зарегистрированным/авторизованным пользователям!

Файлы: 1
  • The Punisher (1989) BDRip 1080p [HEVC] 10Bit_Cthulhu.mkv   5.76 ГБ
Поблагодарили: 3
mr_nikitin, Redman, TETRIS
Cthulhu
074005.76 ГБ

Добавление нового комментария

Добавление комментариев доступно только зарегистрированным/авторизованным пользователям.