Чат

⚫︎
Список изменений сайта - https://rips.club/changelog.html (обновлен 24.05.2024)
  • ExoticDeer
Онлайн (за 10 мин.): 1
Отправка сообщений доступна только зарегистрированным/авторизованным пользователям.

🎥︎Теория заговора / Conspiracy Theory (1997) BDRip 1080p [HEVC] 10 bit от OldGamer (RG RIPS CLUB)


Обложка Теория заговора / Conspiracy Theory (1997) BDRip 1080p [HEVC] 10 bit от OldGamer (RG RIPS CLUB)
HEVC
10 bit
✂︎Сэмпл⤓︎Торрент🧲︎Магнет$Пожертвования

При перезаливке на другие сайты просьба указать автора и релиз-группу.


Год: 1997
Страна: США
Студия: Donner/Shuler-Donner Productions, Silver Pictures, Warner Bros.
Жанр: Боевик, Триллер, Детектив
Длительность: 02:15:17

Режиссер: Ричард Доннер
В ролях: Мэл Гибсон, Джулия Робертс, Патрик Стюарт, Силк Козарт, Стив Кэхэн, Терри Александр, Алекс МакАртур, Род МакЛахлан, Майкл Поттс, Джим Стерлинг

Описание: Джерри Флетчер кругом подозревает заговоры! Он владеет смертельно опасной информацией. Враги предпочли бы видеть Джерри мёртвым. В этой ситуации она - единственная, кому он может доверять... Он - таксист и параноик. Она - прокурор, которая отказывается ему верить. Теперь они вместе вынуждены выживать... Одно из его сумасшедших предположений уже подтвердилось!


Релиз-группа: RIPS CLUB
Исходник: Blu-Ray Remux 1080p (rutracker)
Видео: 1920x800, 8058 Kbps
Аудио1: AC3, 6 ch, 640 Kbps - РусскийРусский, DUB (Мост Видео / CEE)
Аудио2: AC3, 2 ch, 256 Kbps - РусскийРусский, MVO (Варус Видео)
Аудио3: AC3, 2 ch, 192 Kbps - РусскийРусский, MVO (РТР)
Аудио4: AC3, 6 ch, 640 Kbps - РусскийРусский, AVO (Сергей Визгунов)
Аудио5: AC3, 6 ch, 384 Kbps - РусскийРусский, AVO (Андрей Гаврилов)
Аудио6: AC3, 6 ch, 384 Kbps - РусскийРусский, AVO (Юрий Живов)
Аудио7: AC3, 2 ch, 192 Kbps - РусскийРусский, AVO (Александр Кашкин)
Аудио8: AC3, 2 ch, 192 Kbps - РусскийРусский, AVO (Сергей Визгунов VHS)
Аудио9: AC3, 6 ch, 448 Kbps - РусскийРусский, VO (Михаил Яроцкий)
Аудио10: AC3, 6 ch, 640 Kbps - АнглийскийАнглийский
Субтитры: русские, английские (SDH)

Как за несколько секунд удалить ненужные аудиодорожки и субтитры (Внимание! После удаления вы не сможете поддержать раздачу)


Лог (x265 info)x265 [info]: frame I: 829, Avg QP:17.64 kb/s: 17362.04
x265 [info]: frame P: 34893, Avg QP:18.89 kb/s: 13620.74
x265 [info]: frame B: 158902, Avg QP:21.27 kb/s: 6787.51
x265 [info]: Weighted P-Frames: Y:10.3% UV:8.9%
x265 [info]: Weighted B-Frames: Y:9.8% UV:8.0%
x265 [info]: encoded 194624 frames in 120955.37s (1.61 fps), 8057.64 kb/s, Avg QP:20.83
МедиаинфоОбщее
Уникальный идентификатор : 7417079432720657389646916642914393478 (0x5947A3FED20561E279BBA301FC75D86)
Полное имя : \\.\Теория.заговора.Conspiracy.theory.1997.BDRip-HEVC.1080p.mkv
Формат : Matroska
Версия формата : Version 4
Размер файла : 11,4 Гбайт
Продолжительность : 2 ч. 15 мин.
Общий битрейт : 12,0 Мбит/сек
Частота кадров : 23,976 кадра/сек
Название фильма : Теория заговора
Кодирование выполнил : OldGamer
Тип содержимого : Movie
Дата выпуска : 1997-08-08
Дата записи : 1997-08-08
Дата кодирования : 2024-05-26 13:50:50 UTC
Программа кодирования : mkvmerge v83.0 ('Circle Of Friends') 64-bit
Библиотека кодирования : libebml v1.4.5 + libmatroska v1.7.1 / xvid4psp5
Обложка : Yes
Attachments : cover.jpg
ACTOR : Мэл Гибсон, Julia Roberts, Патрик Стюарт, Cylk Cozart, Steve Kahan, Terry Alexander, Alex McArthur, Rod McLachlan, Michael Potts, Jim Sterling, Rich Hebert, Brian J. Williams, G. A. Aguilar, Cece Neber Labao, Saxon Trainor, Sage Allen, Joanna Sanchez...
ARTIST : Мэл Гибсон, Julia Roberts, Патрик Стюарт, Cylk Cozart, Steve Kahan, Terry Alexander, Alex McArthur, Rod McLachlan, Michael Potts, Jim Sterling, Rich Hebert, Brian J. Williams, G. A. Aguilar, Cece Neber Labao, Saxon Trainor, Sage Allen, Joanna Sanchez...
DIRECTOR : Richard Donner
GENRE : боевик, драма, детектив, триллер
LAW_RATING : R
PRODUCER : Richard Donner, Joel Silver
PRODUCTION_STUDIO : Donner/Shuler-Donner Productions
RATING : R
SYNOPSIS : Джерри Флетчер кругом подозревает заговоры! Он владеет смертельно опасной информацией. Враги предпочли бы видеть Джерри мёртвым. В этой ситуации она единственная, кому он может доверять. Он таксист и параноик. Она прокурор, которая отказывается ему верить. Теперь они вместе вынуждены выживать Одно из его сумасшедших предположений уже подтвердилось!

Видео
Идентификатор : 1
Формат : HEVC
Формат/Информация : High Efficiency Video Coding
Профиль формата : Main 10@L4.1@High
Идентификатор кодека : V_MPEGH/ISO/HEVC
Продолжительность : 2 ч. 15 мин.
Битрейт : 8 058 Кбит/сек
Ширина : 1 920 пикселей
Высота : 800 пикселей
Соотношение сторон дисплея : 2,40:1
Режим частоты кадров : Постоянный
Частота кадров : 23,976 (24000/1001) кадра/сек
Цветовое пространство : YUV
Цветовая субдискретизация : 4:2:0
Битовая глубина : 10 бит
Бит/(Пиксели*Кадры) : 0.219
Размер потока : 7,62 Гбайт (67%)
Заголовок : Conspiracy theory / Rip by OldGamer
Библиотека кодирования : x265 3.5+110-8ee01d45b:[Windows][GCC 13.2.0][64 bit] 10bit
Параметры библиотеки кодирования : cpuid=1111039 / frame-threads=4 / numa-pools=16 / wpp / no-pmode / no-pme / no-psnr / no-ssim / log-level=2 / input-csp=1 / input-res=1920x800 / interlace=0 / total-frames=194624 / level-idc=41 / high-tier=1 / uhd-bd=0 / ref=5 / no-allow-non-conformance / no-repeat-headers / annexb / no-aud / no-eob / no-eos / no-hrd / info / hash=0 / temporal-layers=0 / open-gop / min-keyint=23 / keyint=240 / gop-lookahead=0 / bframes=16 / b-adapt=2 / b-pyramid / bframe-bias=0 / rc-lookahead=40 / lookahead-slices=0 / scenecut=40 / no-hist-scenecut / radl=0 / no-splice / no-intra-refresh / ctu=32 / min-cu-size=8 / rect / amp / max-tu-size=32 / tu-inter-depth=4 / tu-intra-depth=4 / limit-tu=1 / rdoq-level=2 / dynamic-rd=0.00 / no-ssim-rd / signhide / no-tskip / nr-intra=0 / nr-inter=0 / no-constrained-intra / no-strong-intra-smoothing / max-merge=5 / limit-refs=3 / no-limit-modes / me=3 / subme=7 / merange=57 / temporal-mvp / no-frame-dup / no-hme / weightp / weightb / no-analyze-src-pics / deblock=-2:-2 / no-sao / no-sao-non-deblock / rd=6 / selective-sao=0 / no-early-skip / no-rskip / no-fast-intra / no-tskip-fast / no-cu-lossless / b-intra / no-splitrd-skip / rdpenalty=0 / psy-rd=2.00 / psy-rdoq=1.00 / no-rd-refine / no-lossless / cbqpoffs=0 / crqpoffs=0 / rc=crf / crf=20.0 / qcomp=0.60 / qpstep=4 / stats-write=0 / stats-read=0 / vbv-maxrate=50000 / vbv-bufsize=50000 / vbv-init=0.9 / min-vbv-fullness=50.0 / max-vbv-fullness=80.0 / crf-max=0.0 / crf-min=0.0 / ipratio=1.40 / pbratio=1.30 / aq-mode=1 / aq-strength=1.00 / no-cutree / zone-count=1 / zones: / start-frame=190403 / end-frame=194624 / qp=36 / no-strict-cbr / qg-size=32 / no-rc-grain / qpmax=69 / qpmin=0 / no-const-vbv / sar=1 / overscan=0 / videoformat=5 / range=0 / colorprim=2 / transfer=2 / colormatrix=2 / chromaloc=0 / display-window=0 / cll=0,0 / min-luma=0 / max-luma=1023 / log2-max-poc-lsb=8 / vui-timing-info / vui-hrd-info / slices=1 / no-opt-qp-pps / no-opt-ref-list-length-pps / no-multi-pass-opt-rps / scenecut-bias=0.00 / no-opt-cu-delta-qp / no-aq-motion / no-hdr10 / no-hdr10-opt / no-dhdr10-opt / no-idr-recovery-sei / analysis-reuse-level=0 / analysis-save-reuse-level=0 / analysis-load-reuse-level=0 / scale-factor=0 / refine-intra=0 / refine-inter=0 / refine-mv=1 / refine-ctu-distortion=0 / no-limit-sao / ctu-info=0 / no-lowpass-dct / refine-analysis-type=0 / copy-pic=1 / max-ausize-factor=1.0 / no-dynamic-refine / no-single-sei / no-hevc-aq / no-svt / no-field / qp-adaptation-range=1.00 / scenecut-aware-qp=0conformance-window-offsets / right=0 / bottom=0 / decoder-max-rate=0 / no-vbv-live-multi-pass / no-mcstf / no-sbrc
Язык : Английский
По умолчанию : Да
Принудительно : Нет

Аудио #1
Идентификатор : 2
Формат : AC-3
Формат/Информация : Audio Coding 3
Коммерческое название : Dolby Digital
Идентификатор кодека : A_AC3
Продолжительность : 2 ч. 15 мин.
Вид битрейта : Постоянный
Битрейт : 640 Кбит/сек
Канал(-ы) : 6 каналов
Расположение каналов : L R C LFE Ls Rs
Частота дискретизации : 48,0 КГц
Частота кадров : 31,250 кадров/сек (1536 SPF)
Метод сжатия : С потерями
Размер потока : 619 Мбайт (5%)
Заголовок : DUB (Мост Видео / CEE)
Язык : Русский
Вид сервиса : Complete Main
По умолчанию : Да
Принудительно : Нет
Нормализация звука речи : -27 dB
compr : -0.28 dB
cmixlev : -3.0 dB
surmixlev : -3 dB
mixlevel : 283 dB
roomtyp : 3
ltrtcmixlev : -3.0 dB
ltrtsurmixlev : -3.0 dB
lorocmixlev : -3.0 dB
lorosurmixlev : -4.5 dB
dialnorm_Average : -27 dB
dialnorm_Minimum : -27 dB
dialnorm_Maximum : -27 dB

Аудио #2
Идентификатор : 3
Формат : AC-3
Формат/Информация : Audio Coding 3
Коммерческое название : Dolby Digital
Идентификатор кодека : A_AC3
Продолжительность : 2 ч. 15 мин.
Вид битрейта : Постоянный
Битрейт : 256 Кбит/сек
Канал(-ы) : 2 канала
Расположение каналов : L R
Частота дискретизации : 48,0 КГц
Частота кадров : 31,250 кадров/сек (1536 SPF)
Метод сжатия : С потерями
Размер потока : 248 Мбайт (2%)
Заголовок : MVO (Варус Видео)
Язык : Русский
Вид сервиса : Complete Main
По умолчанию : Нет
Принудительно : Нет
Нормализация звука речи : -31 dB
dialnorm_Average : -27 dB
dialnorm_Minimum : -31 dB
dialnorm_Maximum : -27 dB

Аудио #3
Идентификатор : 4
Формат : AC-3
Формат/Информация : Audio Coding 3
Коммерческое название : Dolby Digital
Идентификатор кодека : A_AC3
Продолжительность : 2 ч. 15 мин.
Вид битрейта : Постоянный
Битрейт : 192 Кбит/сек
Канал(-ы) : 2 канала
Расположение каналов : L R
Частота дискретизации : 48,0 КГц
Частота кадров : 31,250 кадров/сек (1536 SPF)
Метод сжатия : С потерями
Размер потока : 186 Мбайт (2%)
Заголовок : MVO (РТР)
Язык : Русский
Вид сервиса : Complete Main
По умолчанию : Нет
Принудительно : Нет
Нормализация звука речи : -31 dB
compr : -0.28 dB
dialnorm_Average : -31 dB
dialnorm_Minimum : -31 dB
dialnorm_Maximum : -31 dB

Аудио #4
Идентификатор : 5
Формат : AC-3
Формат/Информация : Audio Coding 3
Коммерческое название : Dolby Digital
Идентификатор кодека : A_AC3
Продолжительность : 2 ч. 15 мин.
Вид битрейта : Постоянный
Битрейт : 640 Кбит/сек
Канал(-ы) : 6 каналов
Расположение каналов : L R C LFE Ls Rs
Частота дискретизации : 48,0 КГц
Частота кадров : 31,250 кадров/сек (1536 SPF)
Метод сжатия : С потерями
Размер потока : 620 Мбайт (5%)
Заголовок : AVO (Сергей Визгунов)
Язык : Русский
Вид сервиса : Complete Main
По умолчанию : Нет
Принудительно : Нет
Нормализация звука речи : -27 dB
compr : -0.28 dB
cmixlev : -3.0 dB
surmixlev : -3 dB
mixlevel : 285 dB
roomtyp : Small
dialnorm_Average : -27 dB
dialnorm_Minimum : -27 dB
dialnorm_Maximum : -27 dB

Аудио #5
Идентификатор : 6
Формат : AC-3
Формат/Информация : Audio Coding 3
Коммерческое название : Dolby Digital
Идентификатор кодека : A_AC3
Продолжительность : 2 ч. 15 мин.
Вид битрейта : Постоянный
Битрейт : 384 Кбит/сек
Канал(-ы) : 6 каналов
Расположение каналов : L R C LFE Ls Rs
Частота дискретизации : 48,0 КГц
Частота кадров : 31,250 кадров/сек (1536 SPF)
Метод сжатия : С потерями
Размер потока : 372 Мбайт (3%)
Заголовок : AVO (Андрей Гаврилов)
Язык : Русский
Вид сервиса : Complete Main
По умолчанию : Нет
Принудительно : Нет
Нормализация звука речи : -31 dB
cmixlev : -4.5 dB
surmixlev : -6 dB
dialnorm_Average : -27 dB
dialnorm_Minimum : -31 dB
dialnorm_Maximum : -27 dB

Аудио #6
Идентификатор : 7
Формат : AC-3
Формат/Информация : Audio Coding 3
Коммерческое название : Dolby Digital
Идентификатор кодека : A_AC3
Продолжительность : 2 ч. 15 мин.
Вид битрейта : Постоянный
Битрейт : 384 Кбит/сек
Канал(-ы) : 6 каналов
Расположение каналов : L R C LFE Ls Rs
Частота дискретизации : 48,0 КГц
Частота кадров : 31,250 кадров/сек (1536 SPF)
Метод сжатия : С потерями
Размер потока : 372 Мбайт (3%)
Заголовок : AVO (Юрий Живов)
Язык : Русский
Вид сервиса : Complete Main
По умолчанию : Нет
Принудительно : Нет
Нормализация звука речи : -31 dB
cmixlev : -4.5 dB
surmixlev : -6 dB
dialnorm_Average : -31 dB
dialnorm_Minimum : -31 dB
dialnorm_Maximum : -31 dB

Аудио #7
Идентификатор : 8
Формат : AC-3
Формат/Информация : Audio Coding 3
Коммерческое название : Dolby Digital
Идентификатор кодека : A_AC3
Продолжительность : 2 ч. 15 мин.
Вид битрейта : Постоянный
Битрейт : 192 Кбит/сек
Канал(-ы) : 2 канала
Расположение каналов : L R
Частота дискретизации : 48,0 КГц
Частота кадров : 31,250 кадров/сек (1536 SPF)
Метод сжатия : С потерями
Размер потока : 186 Мбайт (2%)
Заголовок : AVO (Александр Кашкин)
Язык : Русский
Вид сервиса : Complete Main
По умолчанию : Нет
Принудительно : Нет
Нормализация звука речи : -31 dB
dialnorm_Average : -31 dB
dialnorm_Minimum : -31 dB
dialnorm_Maximum : -31 dB

Аудио #8
Идентификатор : 9
Формат : AC-3
Формат/Информация : Audio Coding 3
Коммерческое название : Dolby Digital
Идентификатор кодека : A_AC3
Продолжительность : 2 ч. 15 мин.
Вид битрейта : Постоянный
Битрейт : 192 Кбит/сек
Канал(-ы) : 2 канала
Расположение каналов : L R
Частота дискретизации : 48,0 КГц
Частота кадров : 31,250 кадров/сек (1536 SPF)
Метод сжатия : С потерями
Размер потока : 186 Мбайт (2%)
Заголовок : AVO (Сергей Визгунов VHS)
Язык : Русский
Вид сервиса : Complete Main
По умолчанию : Нет
Принудительно : Нет
Нормализация звука речи : -31 dB
dialnorm_Average : -31 dB
dialnorm_Minimum : -31 dB
dialnorm_Maximum : -31 dB

Аудио #9
Идентификатор : 10
Формат : AC-3
Формат/Информация : Audio Coding 3
Коммерческое название : Dolby Digital
Идентификатор кодека : A_AC3
Продолжительность : 2 ч. 15 мин.
Вид битрейта : Постоянный
Битрейт : 448 Кбит/сек
Канал(-ы) : 6 каналов
Расположение каналов : L R C LFE Ls Rs
Частота дискретизации : 48,0 КГц
Частота кадров : 31,250 кадров/сек (1536 SPF)
Метод сжатия : С потерями
Размер потока : 434 Мбайт (4%)
Заголовок : VO (Михаил Яроцкий)
Язык : Русский
Вид сервиса : Complete Main
По умолчанию : Нет
Принудительно : Нет
Нормализация звука речи : -31 dB
compr : -0.28 dB
cmixlev : -3.0 dB
surmixlev : -3 dB
dialnorm_Average : -31 dB
dialnorm_Minimum : -31 dB
dialnorm_Maximum : -31 dB

Аудио #10
Идентификатор : 11
Формат : AC-3
Формат/Информация : Audio Coding 3
Коммерческое название : Dolby Digital
Идентификатор кодека : A_AC3
Продолжительность : 2 ч. 15 мин.
Вид битрейта : Постоянный
Битрейт : 640 Кбит/сек
Канал(-ы) : 6 каналов
Расположение каналов : L R C LFE Ls Rs
Частота дискретизации : 48,0 КГц
Частота кадров : 31,250 кадров/сек (1536 SPF)
Метод сжатия : С потерями
Размер потока : 619 Мбайт (5%)
Язык : Английский
Вид сервиса : Complete Main
По умолчанию : Нет
Принудительно : Нет
Нормализация звука речи : -27 dB
compr : -0.28 dB
cmixlev : -3.0 dB
surmixlev : -3 dB
mixlevel : 285 dB
roomtyp : Small
dialnorm_Average : -27 dB
dialnorm_Minimum : -27 dB
dialnorm_Maximum : -27 dB

Текст #1
Идентификатор : 12
Формат : UTF-8
Идентификатор кодека : S_TEXT/UTF8
Идентификатор кодека/Информация : UTF-8 Plain Text
Продолжительность : 2 ч. 14 мин.
Битрейт : 71 бит/сек
Частота кадров : 0,174 кадр/сек
Число элементов : 1406
Размер потока : 70,2 КиБ (0%)
Заголовок : full
Язык : Русский
По умолчанию : Нет
Принудительно : Нет

Текст #2
Идентификатор : 13
Формат : UTF-8
Идентификатор кодека : S_TEXT/UTF8
Идентификатор кодека/Информация : UTF-8 Plain Text
Продолжительность : 2 ч. 14 мин.
Битрейт : 56 бит/сек
Частота кадров : 0,204 кадр/сек
Число элементов : 1652
Размер потока : 56,0 КиБ (0%)
Заголовок : full
Язык : Английский
По умолчанию : Нет
Принудительно : Нет

Текст #3
Идентификатор : 14
Формат : UTF-8
Идентификатор кодека : S_TEXT/UTF8
Идентификатор кодека/Информация : UTF-8 Plain Text
Продолжительность : 2 ч. 14 мин.
Битрейт : 55 бит/сек
Частота кадров : 0,204 кадр/сек
Число элементов : 1654
Размер потока : 55,1 КиБ (0%)
Заголовок : SDH
Язык : Английский
По умолчанию : Нет
Принудительно : Нет

Меню
00:00:00.000 : en:Jerry's Theories (Credits)
00:04:01.824 : en:Call It Geronimo
00:07:01.963 : en:Can't Take His Eyes Off Her
00:11:33.859 : en:The Next Issue
00:16:46.672 : en:Nonappointment with Alice
00:19:48.312 : en:Getting to Know Her Better
00:22:44.863 : en:Kidnapped
00:25:12.928 : en:Who Knows What?
00:28:53.398 : en:Escape By a Nose
00:32:03.671 : en:Remembering Alice
00:34:48.419 : en:Hospital Paranoia
00:39:00.588 : en:Key to Another Escape
00:43:21.181 : en:Something About Jerry
00:47:51.326 : en:A Passenger and a Pursuer
00:51:09.649 : en:Fortress of a Catcher Fan
00:59:28.273 : en:Under Attack
01:03:06.032 : en:"Are You Watching Me?"
01:05:55.660 : en:Her Guardian Angel
01:08:33.692 : en:Swooping in on Jerry
01:14:31.592 : en:Extra Safeguard
01:15:46.250 : en:Excess Baggage
01:20:12.307 : en:A Theory and a Declaration
01:24:34.444 : en:Meeting Henry Finch
01:31:37.533 : en:Riding Toward the Music
01:39:51.276 : en:"I Believe You"
01:45:18.437 : en:See Alice Run/Because He'd Find Me
01:51:17.337 : en:Closing in on Jerry
01:57:33.337 : en:A Kiss Before Dying?
02:01:07.551 : en:Blood and Water
02:02:56.952 : en:"Now You Tell Me"
02:07:04.700 : en:Nothing As It Seems
02:09:50.157 : en:End Credits (Cant Take My Eyes Off You)
Загрузка...Cкриншот1 Теория заговора / Conspiracy Theory (1997) BDRip 1080p [HEVC] 10 bit от OldGamer (RG RIPS CLUB)Загрузка...Cкриншот2 Теория заговора / Conspiracy Theory (1997) BDRip 1080p [HEVC] 10 bit от OldGamer (RG RIPS CLUB)Загрузка...Cкриншот3 Теория заговора / Conspiracy Theory (1997) BDRip 1080p [HEVC] 10 bit от OldGamer (RG RIPS CLUB)Загрузка...Cкриншот4 Теория заговора / Conspiracy Theory (1997) BDRip 1080p [HEVC] 10 bit от OldGamer (RG RIPS CLUB)
История обновленийПерекодировано. Добавлены перевод Михаила Яроцкого и второй перевод Сергея Визгунова.
Поблагодарили: 10Alex302, and50, Brooklyn, justmkr, ko1ob, Miss Exclusive 888, sabretooth, sharkey71, stickstoff, Winsent
Файлы: 1
  • Теория.заговора.Conspiracy.theory.1997.BDRip-HEVC.1080p.mkv

Рейтинги КП и IMDB, кнопки "Раздайте, пожалуйста" и "Спасибо", а также мультитрекерная статистика доступны только зарегистрированным/авторизованным пользователям!

OldGamer
120183011.37 ГБ

💬︎ Комментарии

Добавление комментариев доступно только зарегистрированным/авторизованным пользователям.