💬 Мини-чат

Для тех, кому интересен процесс переделки сайта - https://rips.club/changelog.html (обновлен 20.04.2024)
Отправка сообщений доступна только зарегистрированным/авторизованным пользователям.
Онлайн (за 10 мин.): 0

Заколдованный мальчик (1955) BDRip 1080p [HEVC] 10 bit от ADVOKAT69

HEVC
10 bit
Обложка Заколдованный мальчик (1955) BDRip 1080p [HEVC] 10 bit от ADVOKAT69 Год: 1955
Страна: СССР
Студия: Союзмультфильм
Жанр: Мультфильм, Семейный
Продолжительность: 00:42:53

Режиссер: Александра Снежко-Блоцкая, Владимир Полковников
В ролях: Валентина Сперантова, Анатолий Кубацкий, Эраст Гарин, Татьяна Струкова, Георгий Вицин, Алексей Консовский

Описание: Мультипликационный фильм по мотивам повести С. Лагерлеф «Чудесное путешествие Нильса с дикими гусями». Сказочная история рассказывает об озорнике Нильсе, который обидел волшебного Гнома, за что был наказан: превращен в карлика и унесен гусями в Лапландию. Много благородных поступков совершил мальчик, прежде чем Гном снял с него чары.


Видео: 1488x1080, 5 008 Kbps
Аудио: AC3, 6 ch, 448 Kbps - РусскийРусский, Оригинал
Субтитры: нет

Лог (x265 info)
x265 [info]: frame I: 451, Avg QP:17.89 kb/s: 15347.01
x265 [info]: frame P: 16099, Avg QP:19.64 kb/s: 11149.78
x265 [info]: frame B: 47776, Avg QP:21.83 kb/s: 2839.73
x265 [info]: Weighted P-Frames: Y:33.7% UV:25.0%
x265 [info]: Weighted B-Frames: Y:21.1% UV:12.1%
x265 [info]: consecutive B-frames: 9.0% 7.6% 9.1% 51.1% 9.5% 11.3% 1.2% 1.1%

encoded 64326 frames in 39554.35s (1.63 fps), 5007.20 kb/s, Avg QP:21.26
Медиаинфо
Общее
Уникальный идентификатор : 197287130779463723564696765592800037355 (0x946C1E8933CA15468125D5D49FBF89EB)
Полное имя : D:\Заколдованный мальчик (1955).mkv
Формат : Matroska
Версия формата : Version 4
Размер файла : 1,63 Гбайт
Продолжительность : 42 м. 53 с.
Общий поток : 5 458 Кбит/сек
Дата кодирования : UTC 2021-02-16 10:31:02
Программа кодирования : mkvmerge v9.2.0 ('Photograph') 64bit
Библиотека кодирования : libebml v1.3.3 + libmatroska v1.4.4

Видео
Идентификатор : 1
Формат : HEVC
Формат/Информация : High Efficiency Video Coding
Профиль формата : Main 10@L4.1@High
Идентификатор кодека : V_MPEGH/ISO/HEVC
Продолжительность : 42 м. 53 с.
Битрейт : 5 008 Кбит/сек
Ширина : 1 488 пикселей
Высота : 1 080 пикселей
Соотношение сторон : 1,378
Режим частоты кадров : Постоянный
Частота кадров : 25,000 кадров/сек
Цветовое пространство : YUV
Субдискретизация насыщенности : 4:2:0
Битовая глубина : 10 бит
Бит/(Пиксели*Кадры) : 0.125
Размер потока : 1,50 Гбайт (92%)
Библиотека кодирования : x265 3.4+12-g9103319fc:[Windows][MSVC 1927][64 bit] 10bit
Настройки программы : cpuid=1049583 / frame-threads=3 / numa-pools=8 / wpp / no-pmode / no-pme / no-psnr / no-ssim / log-level=2 / input-csp=1 / input-res=1488x1080 / interlace=0 / total-frames=64326 / level-idc=41 / high-tier=1 / uhd-bd=0 / ref=5 / no-allow-non-conformance / no-repeat-headers / annexb / no-aud / no-hrd / info / hash=0 / no-temporal-layers / open-gop / min-keyint=24 / keyint=240 / gop-lookahead=0 / bframes=7 / b-adapt=2 / b-pyramid / bframe-bias=0 / rc-lookahead=40 / lookahead-slices=4 / scenecut=40 / hist-scenecut=0 / radl=0 / no-splice / no-intra-refresh / ctu=32 / min-cu-size=8 / rect / no-amp / max-tu-size=32 / tu-inter-depth=1 / tu-intra-depth=1 / limit-tu=0 / rdoq-level=2 / dynamic-rd=0.00 / no-ssim-rd / signhide / no-tskip / nr-intra=0 / nr-inter=0 / constrained-intra / strong-intra-smoothing / max-merge=3 / limit-refs=3 / limit-modes / me=3 / subme=7 / merange=57 / temporal-mvp / no-frame-dup / no-hme / weightp / weightb / no-analyze-src-pics / deblock=0:0 / no-sao / no-sao-non-deblock / rd=4 / selective-sao=0 / no-early-skip / rskip / no-fast-intra / no-tskip-fast / no-cu-lossless / b-intra / no-splitrd-skip / rdpenalty=0 / psy-rd=1.50 / psy-rdoq=0.70 / no-rd-refine / no-lossless / cbqpoffs=0 / crqpoffs=0 / rc=crf / crf=20.0 / qcomp=0.60 / qpstep=4 / stats-write=0 / stats-read=0 / vbv-maxrate=50000 / vbv-bufsize=50000 / vbv-init=0.9 / crf-max=0.0 / crf-min=0.0 / ipratio=1.40 / pbratio=1.30 / aq-mode=2 / aq-strength=0.80 / no-cutree / zone-count=0 / no-strict-cbr / qg-size=32 / no-rc-grain / qpmax=69 / qpmin=0 / no-const-vbv / sar=1 / overscan=0 / videoformat=5 / range=0 / colorprim=1 / transfer=1 / colormatrix=1 / chromaloc=0 / display-window=0 / cll=0,0 / min-luma=0 / max-luma=1023 / log2-max-poc-lsb=8 / vui-timing-info / vui-hrd-info / slices=1 / no-opt-qp-pps / no-opt-ref-list-length-pps / no-multi-pass-opt-rps / scenecut-bias=0.05 / hist-threshold=0.01 / no-opt-cu-delta-qp / no-aq-motion / no-hdr10 / no-hdr10-opt / no-dhdr10-opt / no-idr-recovery-sei / analysis-reuse-level=0 / analysis-save-reuse-level=0 / analysis-load-reuse-level=0 / scale-factor=0 / refine-intra=0 / refine-inter=0 / refine-mv=1 / refine-ctu-distortion=0 / no-limit-sao / ctu-info=0 / no-lowpass-dct / refine-analysis-type=0 / copy-pic=1 / max-ausize-factor=1.0 / no-dynamic-refine / no-single-sei / no-hevc-aq / no-svt / no-field / qp-adaptation-range=1.00 / no-scenecut-aware-qpconformance-window-offsets / right=0 / bottom=0 / decoder-max-rate=0
Default : Да
Forced : Нет
Цветовой диапазон : Limited
Основные цвета : BT.709
Характеристики трансфера : BT.709
Коэффициенты матрицы : BT.709

Аудио
Идентификатор : 2
Формат : AC-3
Формат/Информация : Audio Coding 3
Коммерческое название : Dolby Digital
Идентификатор кодека : A_AC3
Продолжительность : 42 м. 51 с.
Вид битрейта : Постоянный
Битрейт : 448 Кбит/сек
Каналы : 6 каналов
Channel layout : L R C LFE Ls Rs
Частота : 48,0 КГц
Частота кадров : 31,250 кадров/сек (1536 SPF)
Метод сжатия : С потерями
Размер потока : 137 Мбайт (8%)
Заголовок : Русский DVD
Service kind : Complete Main
Default : Да
Forced : Нет
Загрузка...Cкриншот1 Заколдованный мальчик (1955) BDRip 1080p [HEVC] 10 bit от ADVOKAT69Загрузка...Cкриншот2 Заколдованный мальчик (1955) BDRip 1080p [HEVC] 10 bit от ADVOKAT69Загрузка...Cкриншот3 Заколдованный мальчик (1955) BDRip 1080p [HEVC] 10 bit от ADVOKAT69Загрузка...Cкриншот4 Заколдованный мальчик (1955) BDRip 1080p [HEVC] 10 bit от ADVOKAT69
Сэмпл Торрент🧲 Магнет

Рейтинги КП и IMDB, кнопки "Позвать в чате" и "Спасибо", а также мультитрекерная статистика доступны только зарегистрированным/авторизованным пользователям!

Файлы: 1
  • Заколдованный мальчик (1955).mkv   1.63 ГБ
Поблагодарили: 24
375509, andreynnn, animen67, Art1967, brukvalub, curly2, donadar, e7e1, F2002, FFantasy, han-nik, iha777, ilyich05, ivan_1965, ivs5, kapitan, kate kateva, kiocera, kotkosten, LastSurviv0r, medved2018, Quinn86, serg1962, ригиль
ADVOKAT69
047011.63 ГБ

Добавление нового комментария

Добавление комментариев доступно только зарегистрированным/авторизованным пользователям.