💬 Мини-чат

GiggaloСообщение удалено (удалил: Giggalo)
StarLordOldGamer, как дела?)
StarLordOldGamer, ура, вернулся 😄
OldGamerRezident, можете скачать этот фильм от другого релизёра, там невелика разница, а раздающие точно есть
OldGamerGiggalo, https://tsya.ru/mnemonic.html
NoMaDСообщение удалено (удалил: NoMaD)
NoMaDСообщение удалено (удалил: NoMaD)
GiggaloСообщение удалено (удалил: Giggalo)
GiggaloСообщение удалено (удалил: Giggalo)
Spartanec1308Был днём
StarLordGiggalo, наверное отрубало беднягу, целый день его нету 😅
GiggaloСообщение удалено (удалил: Giggalo)
OldGamerДоброе. Работы много, некогда на перинах валяться.
GiggaloСообщение удалено (удалил: Giggalo)
GiggaloСообщение удалено (удалил: Giggalo)
  • Spartanec1308
  • StarLord
  • Krem_OFF
  • litanglong
  • mr_nikitin
Отправка сообщений доступна только зарегистрированным/авторизованным пользователям.
Онлайн (за 10 мин.): 5

Джо Кидд / Joe Kidd (1972) BDRip 1080p [HEVC] 10 bit от joker63

HEVC
10 bit
Обложка Джо Кидд / Joe Kidd (1972) BDRip 1080p [HEVC] 10 bit от joker63 Год: 1972
Страна: США
Жанр: Вестерн
Продолжительность: 01:27:32

Режиссер: Джон Стёрджес
В ролях: Клинт Иствуд, Роберт Дювалл, Джон Сэксон, Дон Страуд, Стелла Гарсиа, Джеймс Уэйнрайт, Пол Косло, Грегори Уэлкотт, Дик Ван Паттен, Линн Марта, Джон Картер

Описание: Джо Кидд — бывший охотник за головами, один из лучших стрелков Дикого Запада. От богатого, нечистого на руку землевладельца Фрэнка Гарлана поступает привычное для Кидда предложение: разыскать и обезвредить преступника. На этот раз это мексиканский бунтовщик Луис Чам, убежденный, что Гарлан незаконно завладел его землей. И теперь Чам и его помощники с оружием в руках защищают свои владения. Кидду предстоит разобраться, кто же все-таки прав и чьи интересы ему следует защищать. Ведь Джо Кидд всегда стоял на стороне закона.


Видео: 1920x800, 5000 Kbps
Аудио1: AC3, 2 ch, 192 Kbps - РусскийРусский, Многоголосый (Первый канал)
Аудио2: AC3, 2 ch, 192 Kbps - РусскийРусский, Многоголосый (SomeWax)
Аудио3: DTS, 6 ch, 642 Kbps - EnglishEnglish
Субтитры: UTF-8 Russian

Как за пару секунд удалить ненужные аудиодорожки и субтитры (Внимание! После удаления вы не сможете поддержать раздачу)

Медиаинфо
Общее
Уникальный идентификатор : 40698053269525577767639507557893075528 (0x1E9E28F24971EB0B271D648FD3A0F248)
Полное имя : D:\Клинт Иствуд\Джо Кидд Joe Kidd (1972)BDRip 1080p [HEVC] 10 bit.mkv
Формат : Matroska
Версия формата : Version 4
Размер файла : 5,51 Гбайт
Продолжительность : 1 ч. 27 м.
Общий поток : 9007 Кбит/сек
Название фильма : Joe Kidd 1972 _рип_от _Joker63
Программа кодирования : XviD4PSP 7.0.459 DAILY
Библиотека кодирования : Lavf57.71.100
Обложка : Yes
ErrorDetectionType : Per level 1
Attachments : cover.jpg
ENCODING_INFO : MATROSKA,WEBM > MKV 1080p 10-bit / VC1 > X265 CBR 8000kbps Medium / AC3 > AC3 CBR 192kbps / AC3 > AC3 CBR 192kbps / DTS-HD MA > DTS CBR 640kbps
Язык : und

Видео
Идентификатор : 1
Формат : HEVC
Формат/Информация : High Efficiency Video Coding
Профиль формата : Main 10@L5.1@Main
Идентификатор кодека : V_MPEGH/ISO/HEVC
Продолжительность : 1 ч. 27 м.
Битрейт : 7802 Кбит/сек
Ширина : 1920 пикселей
Высота : 816 пикселей
Соотношение сторон : 2,35:1
Режим частоты кадров : Постоянный
Частота кадров : 23,976 (24000/1001) кадра/сек
Цветовое пространство : YUV
Субдискретизация насыщенности : 4:2:0
Битовая глубина : 10 бит
Бит/(Пиксели*Кадры) : 0.208
Размер потока : 4,77 Гбайт (87%)
Библиотека кодирования : x265 2.8+74-fd517ae68f93:[Windows][GCC 7.3.0][64 bit] 10bit
Настройки программы : cpuid=1049583 / frame-threads=5 / numa-pools=4 / wpp / no-pmode / no-pme / no-psnr / no-ssim / log-level=3 / input-csp=1 / input-res=1920x816 / interlace=0 / total-frames=0 / level-idc=51 / high-tier=1 / uhd-bd=0 / ref=5 / allow-non-conformance / no-repeat-headers / annexb / no-aud / no-hrd / info / hash=0 / no-temporal-layers / open-gop / min-keyint=24 / keyint=240 / gop-lookahead=0 / bframes=8 / b-adapt=2 / b-pyramid / bframe-bias=0 / rc-lookahead=40 / lookahead-slices=5 / scenecut=40 / radl=0 / no-intra-refresh / ctu=64 / min-cu-size=8 / no-rect / no-amp / max-tu-size=32 / tu-inter-depth=1 / tu-intra-depth=1 / limit-tu=0 / rdoq-level=0 / dynamic-rd=0.00 / no-ssim-rd / signhide / no-tskip / nr-intra=0 / nr-inter=0 / no-constrained-intra / strong-intra-smoothing / max-merge=2 / limit-refs=3 / no-limit-modes / me=1 / subme=5 / merange=57 / temporal-mvp / weightp / no-weightb / no-analyze-src-pics / deblock=-3:-3 / sao / no-sao-non-deblock / rd=3 / no-early-skip / rskip / no-fast-intra / no-tskip-fast / no-cu-lossless / no-b-intra / no-splitrd-skip / rdpenalty=0 / psy-rd=2.00 / psy-rdoq=0.00 / no-rd-refine / no-lossless / cbqpoffs=0 / crqpoffs=0 / rc=cbr / bitrate=8000 / qcomp=0.50 / qpstep=4 / stats-write=0 / stats-read=0 / vbv-maxrate=8000 / vbv-bufsize=5714 / vbv-init=0.9 / ipratio=1.40 / pbratio=1.30 / aq-mode=1 / aq-strength=1.00 / cutree / zone-count=0 / no-strict-cbr / qg-size=32 / no-rc-grain / qpmax=69 / qpmin=0 / no-const-vbv / sar=1 / overscan=0 / videoformat=5 / range=0 / colorprim=2 / transfer=2 / colormatrix=2 / chromaloc=0 / display-window=0 / max-cll=0,0 / min-luma=0 / max-luma=1023 / log2-max-poc-lsb=8 / vui-timing-info / vui-hrd-info / slices=1 / no-opt-qp-pps / no-opt-ref-list-length-pps / no-multi-pass-opt-rps / scenecut-bias=0.05 / no-opt-cu-delta-qp / no-aq-motion / no-hdr / no-hdr-opt / no-dhdr10-opt / no-idr-recovery-sei / analysis-reuse-level=5 / scale-factor=0 / refine-intra=0 / refine-inter=0 / refine-mv=0 / no-limit-sao / ctu-info=0 / no-lowpass-dct / refine-mv-type=0 / copy-pic=1 / max-ausize-factor=1.0 / no-dynamic-refine / no-single-sei
Язык : English
Default : Да
Forced : Нет

Аудио #1
Идентификатор : 2
Формат : AC-3
Формат/Информация : Audio Coding 3
Коммерческое название : Dolby Digital
Идентификатор кодека : A_AC3
Продолжительность : 1 ч. 27 м.
Вид битрейта : Постоянный
Битрейт : 192 Кбит/сек
Каналы : 2 канала
ChannelLayout : L R
Частота : 48,0 КГц
Частота кадров : 31,250 кадров/сек (1536 SPF)
Битовая глубина : 16 бит
Метод сжатия : С потерями
Размер потока : 120 Мбайт (2%)
Заголовок : MVO – Первый канал
Язык : Russian
ServiceKind/String : Complete Main
Default : Да
Forced : Нет

Аудио #2
Идентификатор : 3
Формат : AC-3
Формат/Информация : Audio Coding 3
Коммерческое название : Dolby Digital
Идентификатор кодека : A_AC3
Продолжительность : 1 ч. 27 м.
Вид битрейта : Постоянный
Битрейт : 192 Кбит/сек
Каналы : 2 канала
ChannelLayout : L R
Частота : 48,0 КГц
Частота кадров : 31,250 кадров/сек (1536 SPF)
Битовая глубина : 16 бит
Метод сжатия : С потерями
Размер потока : 120 Мбайт (2%)
Заголовок : MVO – SomeWax
Язык : Russian
ServiceKind/String : Complete Main
Default : Нет
Forced : Нет

Аудио #3
Идентификатор : 4
Формат : DTS
Формат/Информация : Digital Theater Systems
Идентификатор кодека : A_DTS
Продолжительность : 1 ч. 27 м.
Вид битрейта : Постоянный
Битрейт : 642 Кбит/сек
Каналы : 2 канала
ChannelLayout : L R
Частота : 48,0 КГц
Частота кадров : 93,750 кадра/сек (512 SPF)
Битовая глубина : 16 бит
Метод сжатия : С потерями
Размер потока : 402 Мбайт (7%)
Заголовок : Original
Язык : English
Default : Нет
Forced : Нет

Текст #1
Идентификатор : 5
Формат : UTF-8
Идентификатор кодека : S_TEXT/UTF8
Идентификатор кодека/Информация : UTF-8 Plain Text
Язык : Russian
Default : Да
Forced : Нет

Текст #2
Идентификатор : 6
Формат : UTF-8
Идентификатор кодека : S_TEXT/UTF8
Идентификатор кодека/Информация : UTF-8 Plain Text
Язык : English
Default : Нет
Forced : Нет

Меню
00:00:00.000 : :Chapter 01
00:06:07.825 : :Chapter 02
00:17:41.894 : :Chapter 03
00:23:52.764 : :Chapter 04
00:28:01.012 : :Chapter 05
00:30:13.353 : :Chapter 06
00:37:10.144 : :Chapter 07
00:42:13.864 : :Chapter 08
00:49:45.440 : :Chapter 09
01:00:35.506 : :Chapter 10
01:04:46.382 : :Chapter 11
01:09:01.929 : :Chapter 12
01:14:32.676 : :Chapter 13
01:18:15.190 : :Chapter 14
01:23:19.035 : :Chapter 15
01:25:16.986 : :Chapter 16
Загрузка...Cкриншот1 Джо Кидд / Joe Kidd (1972) BDRip 1080p [HEVC] 10 bit от joker63Загрузка...Cкриншот2 Джо Кидд / Joe Kidd (1972) BDRip 1080p [HEVC] 10 bit от joker63Загрузка...Cкриншот3 Джо Кидд / Joe Kidd (1972) BDRip 1080p [HEVC] 10 bit от joker63Загрузка...Cкриншот4 Джо Кидд / Joe Kidd (1972) BDRip 1080p [HEVC] 10 bit от joker63
Сэмпл Торрент🧲 Магнет

Рейтинги КП и IMDB, кнопки "Позвать в чате" и "Спасибо", а также мультитрекерная статистика доступны только зарегистрированным/авторизованным пользователям!

Файлы: 1
  • Джо Кидд Joe Kidd (1972)BDRip 1080p [HEVC] 10 bit.mkv   5.51 ГБ
Поблагодарили: 15
375509, 7654321, Alex302, and50, bright, brukvalub, davidoff_k4, ivan_1965, ivs5, Korbis, LastSurviv0r, ops, SaN161NeK, sapata, vladd37
joker63
0136005.51 ГБ

Добавление нового комментария

Добавление комментариев доступно только зарегистрированным/авторизованным пользователям.