💬 Мини-чат

OldGamerвыводить
mafo2Admin, можно вывести, наглядно будет
StarLordAdmin, +
AdminНадпись HDR выводить на обложку?
OldGamerGiggalo, но лучше всего вообще не затрагивайте этот ключ, по умолчанию будет установлено оптимальное значение
OldGamerGiggalo, но если уж очень хочется то пишите --frame-threads 3
OldGamerGiggalo, а зачем его менять?) нужное значение устанавливается автоматически
GiggaloДобрый вечер всем! OldGamer Покажи пожалуйста почему когда пишу в командной строке frame-threads=3 он не меняется. Какой там стоит 13 он его и держит, а ругие установки спокойно меняет?
AdminStarLord, спасибо. Пока сойдет.
StarLordAdmin, ага, вижу
StarLordAdmin, а как должно брать?
AdminStarLord, ты шаришь?
AdminStarLord, у меня сейчас такая, но с точками беда. Доработать бы (https?://([-\w\.]+)+(:\d+)?(/([-\w/_:%]*(\.\w+)*(\?\S+)?)?)?)
AdminStarLord, скрины в bb некорректно берет
StarLordwww, ftp(s), http(s), #, :, &
StarLordAdmin, все мои кейсы покрыла
StarLordAdmin, вот эта хорошая -(?:(?:https?|ftps?):\/\/|\b(?:[a-z\d]+\.))(?:(?:[^\s()<>]+|\((?:[^\s()<>]+|(?:\([^\s()<>]+\)))?\))+(?:\((?:[^\s()<>]+|(?:\(?:[^\s()<>]+\)))?\)|[^\s`!()\[\]{};:'".,<>?«»“”‘’]))?
AdminStarLord, мне бы с обязательным указанием протокола
AdminСообщение удалено (удалил: Admin)
AdminСообщение удалено (удалил: Admin)
  • Andrey_alex
  • InSpector
  • Rizenfast
Отправка сообщений доступна только зарегистрированным/авторизованным пользователям.
Онлайн (за 10 мин.): 3

Сыграй мне перед смертью / Play Misty for Me (1971) BDRip 1080p [HEVC] 10 bit от joker63

HEVC
10 bit
Обложка Сыграй мне перед смертью / Play Misty for Me (1971) BDRip 1080p [HEVC] 10 bit от joker63 Год: 1971
Страна: США
Жанр: Триллер
Продолжительность: 01:42:04

Режиссер: Клинт Иствуд
В ролях: Клинт Иствуд, Джессика Уолтер, Донна Миллс, Джон Ларч, Джек Джинг, Ирен Херви, Джеймс МакИчин, Клариса Тейлор, Дон Сигел, Дьюк Эвертс, Джордж Фарго, Тим Фроули, Брит Линд, Пол Е. Липпман, Джинна Паттерсон, Малкольм Моран, Дон Хэмилтон, Роберт С. Холман, Джонни Отис, Уолтер Спир

Описание: Популярному калифорнийскому диск-жокею Дэйву постоянно звонит по телефону сексуальный женский голос и просит передать песню «Сыграй мне пожалостней». Заинтригованный, он вскоре встречается с фанаткой в его любимом ночном заведении, и у них начинается любовная интрига. Но когда Дэйв решает прекратить роман, Эвелин воспламеняется еще большей страстью, и угроза нависает над жизнью его постоянной подруги.


Видео: 1920x800, 5000 Kbps
Аудио: DTS, 2 ch, 768 Kbps - РусскийРусский, Дублированный
Субтитры: Нет

Медиаинфо
Общее
Уникальный идентификатор : 153674813341404412215681498230836619691 (0x739CB145CB7317625B73D04FF68EE9AB)
Полное имя : D:\Клинт Иствуд\Сыграй мне перед смертью (Сыграй мне Туманно) Play Misty for me (1971)BDRip 1080p [HEVC] 10 bit.mkv
Формат : Matroska
Версия формата : Version 4
Размер файла : 5,53 Гбайт
Продолжительность : 1 ч. 42 м.
Общий поток : 7756 Кбит/сек
Название фильма : Сыграй мне перед смертью (Сыграй мне "Туманно") / Play Misty for me / 1971_рип от Joker63
Дата кодирования : UTC 2019-01-01 14:19:08
Программа кодирования : mkvmerge v26.0.0 ('In The Game') 64-bit
Библиотека кодирования : libebml v1.3.6 + libmatroska v1.4.9
Обложка : Yes
Attachments : cover.jpg / cover.jpg

Видео
Идентификатор : 1
Формат : HEVC
Формат/Информация : High Efficiency Video Coding
Профиль формата : Main 10@L5.1@Main
Идентификатор кодека : V_MPEGH/ISO/HEVC
Продолжительность : 1 ч. 42 м.
Битрейт : 6986 Кбит/сек
Ширина : 1920 пикселей
Высота : 1040 пикселей
Соотношение сторон : 1,85:1
Режим частоты кадров : Постоянный
Частота кадров : 23,976 (24000/1001) кадра/сек
Цветовое пространство : YUV
Субдискретизация насыщенности : 4:2:0
Битовая глубина : 10 бит
Бит/(Пиксели*Кадры) : 0.146
Размер потока : 4,98 Гбайт (90%)
Библиотека кодирования : x265 2.9+9-f74003e88622:[Windows][GCC 7.3.0][64 bit] 10bit
Настройки программы : cpuid=1049583 / frame-threads=5 / numa-pools=4 / wpp / no-pmode / no-pme / no-psnr / no-ssim / log-level=3 / input-csp=1 / input-res=1920x1040 / interlace=0 / total-frames=0 / level-idc=51 / high-tier=1 / uhd-bd=0 / ref=3 / allow-non-conformance / no-repeat-headers / annexb / no-aud / no-hrd / info / hash=0 / no-temporal-layers / open-gop / min-keyint=24 / keyint=240 / gop-lookahead=0 / bframes=6 / b-adapt=2 / b-pyramid / bframe-bias=0 / rc-lookahead=20 / lookahead-slices=6 / scenecut=40 / radl=0 / no-intra-refresh / ctu=64 / min-cu-size=8 / no-rect / no-amp / max-tu-size=32 / tu-inter-depth=1 / tu-intra-depth=1 / limit-tu=0 / rdoq-level=0 / dynamic-rd=0.00 / no-ssim-rd / signhide / no-tskip / nr-intra=0 / nr-inter=0 / no-constrained-intra / strong-intra-smoothing / max-merge=2 / limit-refs=3 / no-limit-modes / me=1 / subme=7 / merange=57 / temporal-mvp / weightp / no-weightb / no-analyze-src-pics / deblock=-2:-2 / sao / no-sao-non-deblock / rd=3 / no-early-skip / rskip / no-fast-intra / no-tskip-fast / no-cu-lossless / no-b-intra / no-splitrd-skip / rdpenalty=0 / psy-rd=2.00 / psy-rdoq=0.00 / no-rd-refine / no-lossless / cbqpoffs=0 / crqpoffs=0 / rc=cbr / bitrate=7000 / qcomp=0.60 / qpstep=4 / stats-write=0 / stats-read=0 / vbv-maxrate=7000 / vbv-bufsize=5000 / vbv-init=0.9 / ipratio=1.40 / pbratio=1.30 / aq-mode=1 / aq-strength=1.00 / cutree / zone-count=0 / no-strict-cbr / qg-size=32 / no-rc-grain / qpmax=69 / qpmin=0 / no-const-vbv / sar=1 / overscan=0 / videoformat=5 / range=0 / colorprim=2 / transfer=2 / colormatrix=2 / chromaloc=0 / display-window=0 / max-cll=0,0 / min-luma=0 / max-luma=1023 / log2-max-poc-lsb=8 / vui-timing-info / vui-hrd-info / slices=1 / no-opt-qp-pps / no-opt-ref-list-length-pps / no-multi-pass-opt-rps / scenecut-bias=0.05 / no-opt-cu-delta-qp / no-aq-motion / no-hdr / no-hdr-opt / no-dhdr10-opt / no-idr-recovery-sei / analysis-reuse-level=5 / scale-factor=0 / refine-intra=0 / refine-inter=0 / refine-mv=0 / no-limit-sao / ctu-info=0 / no-lowpass-dct / refine-mv-type=0 / copy-pic=1 / max-ausize-factor=1.0 / no-dynamic-refine / no-single-sei
Default : Да
Forced : Нет

Аудио
Идентификатор : 2
Формат : DTS
Формат/Информация : Digital Theater Systems
Идентификатор кодека : A_DTS
Продолжительность : 1 ч. 42 м.
Вид битрейта : Постоянный
Битрейт : 768 Кбит/сек
Каналы : 2 канала
ChannelLayout : L R
Частота : 48,0 КГц
Частота кадров : 93,750 кадра/сек (512 SPF)
Битовая глубина : 24 бит
Метод сжатия : С потерями
Размер потока : 561 Мбайт (10%)
Заголовок : Дублированный
Язык : Russian
Default : Да
Forced : Нет
Загрузка...Cкриншот1 Сыграй мне перед смертью / Play Misty for Me (1971) BDRip 1080p [HEVC] 10 bit от joker63Загрузка...Cкриншот2 Сыграй мне перед смертью / Play Misty for Me (1971) BDRip 1080p [HEVC] 10 bit от joker63Загрузка...Cкриншот3 Сыграй мне перед смертью / Play Misty for Me (1971) BDRip 1080p [HEVC] 10 bit от joker63Загрузка...Cкриншот4 Сыграй мне перед смертью / Play Misty for Me (1971) BDRip 1080p [HEVC] 10 bit от joker63
Сэмпл Торрент🧲 Магнет

Рейтинги КП и IMDB, кнопки "Позвать в чате" и "Спасибо", а также мультитрекерная статистика сидов и пиров доступны только зарегистрированным/авторизованным пользователям!

Файлы: 1
  • Сыграй мне перед смертью (Сыграй мне Туманно) Play Misty for me (1971)BDRip 1080p [HEVC] 10 bit.mkv   5.53 ГБ
Поблагодарили: 9
375509, and50, brukvalub, ivan_1965, ivs5, LastSurviv0r, mvclub, ops, SaN161NeK
joker63
1113065.53 ГБ

Добавление нового комментария

Добавление комментариев доступно только зарегистрированным/авторизованным пользователям.
Аватар не указан
  sevolgin  
Отличный фильм