💬 Мини-чат

Убедительная просьба не обсуждать тут политику.
AdminЛёшикоБэст, вроде потихоньку идёт. Подождем, если не докачается, то встану.
AdminЛёшикоБэст, перекачайте торрент, а то в профиле не отображается ждете или уже нет
ЛёшикоБэстРаздайте, пожалуйста, Неудержимые / The Expendables (2010) [Theatrical Cut] BDRip 1080p [HEVC] 10 bit от Spartanec1308
OldGamerДа, есть.
ЛёшикоБэстДоброго вечера) Скажите пожалуйста, есть ли в планах сделать релиз дилогии "Зорро" с Антонио Бандерасом?
HANNIBALAdmin, 👍
AdminГоро, встал
ГороРаздайте, пожалуйста, Хищники / Predators (2010) BDRip 1080p [HEVC] 10 bit от HANNIBAL
AdminHANNIBAL, привет. Не помню за сколько брал, но продление в этот раз обошлось примерно в $14 со всякими комиссиями. А аренда VDS обходится примерно в $30-35 за год. Не исключено, что всё это подорожает. Пока что пожертвования с трудом покрывают расходы. Иногда если требуется и со своего кармана оплачиваю, не страшно. Прорвемся.
HANNIBALсколько сейчас стоит
HANNIBALAdmin, ПРИВЕТ
AdminНаконец-то получил банковскую карту. Продлил доменное имя (адрес сайта) на год.
  • Brooklyn
  • ivan_1965
Отправка сообщений доступна только зарегистрированным/авторизованным пользователям.
Онлайн (за 10 мин.): 2

Старое ружье / Le vieux fusil (1975) BDRip 1080p [HEVC] 8 bit от ADVOKAT69

HEVC
8 bit
Обложка Старое ружье / Le vieux fusil (1975) BDRip 1080p [HEVC] 8 bit от ADVOKAT69 Год: 1975
Страна: Франция, ФРГ
Жанр: Триллер, Драма, Военный
Продолжительность: 01:27:07

Режиссер: Робер Энрико
В ролях: Филипп Нуаре, Роми Шнайдер, Жан Буиз, Иоахим Ханзен, Роберт Хоффманн, Карл Михаэль Фоглер, Каролина Бономм, Катрин Делапорте, Мадлен Озерэ, Даниэль Бретон

Описание: 1944 год. Перед наступлением союзников немцы спешно покидают французский Монтабан и «на прощанье» устраивают зверские облавы. Считая, что в городе находиться опасно, хирург Жюльен Дандье отправляет жену и 13-летнюю дочь в глухую деревню, где его семье принадлежит древний полуразрушенный замок. Спустя несколько дней он едет их навестить и попадает в ад: все жители деревни убиты, его дочь расстреляна, а жена сожжена из огнемета. Эсэсовский отряд, уничтоживший ни в чем не повинных людей, все еще находится в замке, и Дандье, достав старое охотничье ружье, начинает собственную войну с убийцами…


Видео: 1792x1080, 5679 Kbps
Аудио: AC3, 2 ch, 384 Kbps - РусскийРусский, Дублированный (Ленфильм)
Субтитры: нет

Медиаинфо
Общее
Уникальный идентификатор : 246249723702269632220646412505375506969 (0xB941F8BF34013659B0FFD70443370219)
Полное имя : H:\Старое ружье HEVC.mkv
Формат : Matroska
Версия формата : Version 4
Размер файла : 4,01 Гбайт
Продолжительность : 1 ч. 37 м.
Общий поток : 5873 Кбит/сек
Дата кодирования : UTC 2017-10-18 18:07:13
Программа кодирования : mkvmerge v17.0.0 ('Be Ur Friend') 64-bit
Библиотека кодирования : libebml v1.3.5 + libmatroska v1.4.8
Encoding Gui : Hybrid 2017.05.06.1

Видео
Идентификатор : 1
Формат : HEVC
Формат/Информация : High Efficiency Video Coding
Идентификатор кодека : V_MPEGH/ISO/HEVC
Продолжительность : 1 ч. 37 м.
Битрейт : 5679 Кбит/сек
Ширина : 1792 пикселя
Высота : 1080 пикселей
Соотношение сторон : 5:3
Режим частоты кадров : Постоянный
Частота кадров : 25,000 кадров/сек
Бит/(Пиксели*Кадры) : 0.117
Размер потока : 3,88 Гбайт (97%)
Default : Да
Forced : Да

Аудио
Идентификатор : 2
Формат : AC-3
Формат/Информация : Audio Coding 3
Коммерческое название : Dolby Digital
Идентификатор кодека : A_AC3
Продолжительность : 1 ч. 37 м.
Вид битрейта : Постоянный
Битрейт : 192 Кбит/сек
Каналы : 2 канала
Channel layout : L R
Частота : 48,0 КГц
Частота кадров : 31,250 кадров/сек (1536 SPF)
Битовая глубина : 16 бит
Метод сжатия : С потерями
Размер потока : 134 Мбайт (3%)
ServiceKind/String : Complete Main
Default : Да
Forced : Нет

Меню
00:00:00.000 : en:Chapter 1
00:08:31.880 : en:Chapter 2
00:19:13.320 : en:Chapter 3
00:25:59.280 : en:Chapter 4
00:35:55.520 : en:Chapter 5
00:42:46.520 : en:Chapter 6
00:50:41.840 : en:Chapter 7
01:01:12.880 : en:Chapter 8
01:09:43.440 : en:Chapter 9
01:16:22.560 : en:Chapter 10
01:21:53.320 : en:Chapter 11
01:27:00.080 : en:Chapter 12
01:34:34.240 : en:Chapter 13
Загрузка...Cкриншот1 Старое ружье / Le vieux fusil (1975) BDRip 1080p [HEVC] 8 bit от ADVOKAT69Загрузка...Cкриншот2 Старое ружье / Le vieux fusil (1975) BDRip 1080p [HEVC] 8 bit от ADVOKAT69Загрузка...Cкриншот3 Старое ружье / Le vieux fusil (1975) BDRip 1080p [HEVC] 8 bit от ADVOKAT69Загрузка...Cкриншот4 Старое ружье / Le vieux fusil (1975) BDRip 1080p [HEVC] 8 bit от ADVOKAT69
Сэмпл Торрент🧲 Магнет

Рейтинги КП и IMDB, кнопки "Позвать в чате" и "Спасибо", а также мультитрекерная статистика доступны только зарегистрированным/авторизованным пользователям!

Файлы: 1
  • Старое ружье HEVC.mkv   4.01 ГБ
Поблагодарили: 12
brukvalub, grudich, ivs5, joker63, LastSurviv0r, mvclub, Nuclear70, pivorogan, SaN161NeK, SAVOYAR, serg1962, Undervest
ADVOKAT69
174024.01 ГБ

Добавление нового комментария

Добавление комментариев доступно только зарегистрированным/авторизованным пользователям.
Аватар не указан
  sevolgin  
Смотрел в кинотеатре в детстве, очень впечатлил фильм, особенно сцена когда он главного фашиста сжег