💬 Мини-чат

Убедительная просьба не обсуждать тут политику.
AdminЛёшикоБэст, вроде потихоньку идёт. Подождем, если не докачается, то встану.
AdminЛёшикоБэст, перекачайте торрент, а то в профиле не отображается ждете или уже нет
ЛёшикоБэстРаздайте, пожалуйста, Неудержимые / The Expendables (2010) [Theatrical Cut] BDRip 1080p [HEVC] 10 bit от Spartanec1308
OldGamerДа, есть.
ЛёшикоБэстДоброго вечера) Скажите пожалуйста, есть ли в планах сделать релиз дилогии "Зорро" с Антонио Бандерасом?
HANNIBALAdmin, 👍
AdminГоро, встал
ГороРаздайте, пожалуйста, Хищники / Predators (2010) BDRip 1080p [HEVC] 10 bit от HANNIBAL
AdminHANNIBAL, привет. Не помню за сколько брал, но продление в этот раз обошлось примерно в $14 со всякими комиссиями. А аренда VDS обходится примерно в $30-35 за год. Не исключено, что всё это подорожает. Пока что пожертвования с трудом покрывают расходы. Иногда если требуется и со своего кармана оплачиваю, не страшно. Прорвемся.
HANNIBALсколько сейчас стоит
HANNIBALAdmin, ПРИВЕТ
AdminНаконец-то получил банковскую карту. Продлил доменное имя (адрес сайта) на год.
  • ivan_1965
Отправка сообщений доступна только зарегистрированным/авторизованным пользователям.
Онлайн (за 10 мин.): 1

Скорость / Speed (1994) BDRip 1080p [HEVC] 10 bit от Cthulhu

HEVC
10 bit
Обложка Скорость / Speed (1994) BDRip 1080p [HEVC] 10 bit от Cthulhu Год: 1994
Страна: США
Студия: 20th Century Fox Film Corporation
Жанр: Боевик, Триллер, Криминал, Приключения
Продолжительность: 01:55:54

Режиссер: Ян де Бонт
В ролях: Киану Ривз, Сандра Буллок, Деннис Хоппер, Джо Мортон, Джефф Дэниелс, Алан Рак, Гленн Пламмер, Ричард Лайнбэк, Бет Грант, Хоторн Джеймс

Описание: Представьте себе девушку, у которой на заднем стекле автомобиля красуется наклейка с восклицательным знаком, чайником и странного вида туфлей с подписью «уважай меня». Теперь представьте эту девушку за рулем гигантского американского автобуса, несущегося по городу на огромной скорости в час пик. Выглядит это довольно забавно, если не знать, что автобус заминирован и может взорваться, если стрелка спидометра опустится ниже пятидесяти миль в час. Пассажиры в панике, события разворачиваются с бешеной скоростью, а времени до взрыва остается все меньше. На поиски таинственного террориста, который уже доказал серьезность своих намерений, взорвав переполненный людьми лифт, брошены элитные подразделения полиции. Но время идет, а выйти на след преступника так и не удается. В противоборство с террористом вступает лучший боец спецназа Джек Трейвен. Теперь от того, сможет ли он верно распорядиться оставшимися секундами, зависят жизни десятков людей.


Видео: 1920x816, 12.3 Mbps
Аудио1: AC3, 6 ch, 640 Kbps - РусскийРусский, Многоголосый (20th Century Fox)
Аудио2: AC3, 2 ch, 192 Kbps - РусскийРусский, Дублированный (Хлопушка (VHS))
Аудио3: AC3, 6 ch, 640 Kbps - РусскийРусский, Многоголосый (Карусель/Киномания)
Аудио4: AC3, 6 ch, 448 Kbps - РусскийРусский, Многоголосый (ОРТ)
Аудио5: AC3, 2 ch, 192 Kbps - РусскийРусский, Многоголосый (Премьер Видео)
Аудио6: AC3, 2 ch, 192 Kbps - РусскийРусский, Двухголосый (Лазер видео)
Аудио7: AC3, 6 ch, 640 Kbps - РусскийРусский, Одноголосый (Гаврилов)
Аудио8: AC3, 6 ch, 640 Kbps - РусскийРусский, Одноголосый (Живов)
Аудио9: AC3, 6 ch, 640 Kbps - РусскийРусский, Одноголосый (Горчаков)
Аудио10: AC3, 6 ch, 640 Kbps - РусскийРусский, Одноголосый (Гаевский)
Аудио11: AC3, 6 ch, 448 Kbps - РусскийРусский, Одноголосый (Дьяков)
Аудио12: AC3, 2 ch, 192 Kbps - РусскийРусский, Одноголосый (Визгунов)
Аудио13: AC3, 2 ch, 192 Kbps - РусскийРусский, Одноголосый (Кашкин)
Аудио14: AC3, 2 ch, 192 Kbps - РусскийРусский, Одноголосый (Сонькин)
Аудио15: AC3, 6 ch, 384 Kbps - УкраинскийУкраинский, Многоголосый (1+1)
Аудио16: AC3, 6 ch, 384 Kbps - УкраинскийУкраинский, Многоголосый (Новый канал)
Аудио17: AC3, 6 ch, 640 Kbps - АнглийскийАнглийский, Оригинал
Субтитры: Русские (2 вида), английские

Как за пару секунд удалить ненужные аудиодорожки и субтитры (Внимание! После удаления вы не сможете поддержать раздачу)

Медиаинфо
x265 [info]: frame I: 1637, Avg QP:18.28 kb/s: 24194.96
x265 [info]: frame P: 35554, Avg QP:19.59 kb/s: 19083.00
x265 [info]: frame B: 129533, Avg QP:21.57 kb/s: 10222.75
x265 [info]: consecutive B-frames: 8.2% 4.8% 8.2% 33.6% 13.6% 24.5% 3.6% 1.8% 0.8% 0.4% 0.2% 0.3%

General
Unique ID : 41339410801130863765752624684103867299 (0x1F19AE506A04AD29B6A701447E679BA3)
Complete name : T:\HEVC3\Скорость - Speed (1994) BDRip-HEVC 1080p - KORSAR.mkv
Format : Matroska
Format version : Version 4
File size : 15.8 GiB
Duration : 1 h 56 min
Overall bit rate : 19.5 Mb/s
Movie name : Speed (1994)_rip_by_Cthulhu
Encoded date : UTC 2019-05-29 20:44:20
Writing application : mkvmerge v33.1.0 ('Primrose') 64-bit
Writing library : libebml v1.3.7 + libmatroska v1.5.0
Cover : Yes
Attachments : cover.jpg

Video
ID : 1
Format : HEVC
Format/Info : High Efficiency Video Coding
Format profile : Main 10@L4.1@High
Codec ID : V_MPEGH/ISO/HEVC
Duration : 1 h 55 min
Bit rate : 12.3 Mb/s
Width : 1 920 pixels
Height : 816 pixels
Display aspect ratio : 2.35:1
Frame rate mode : Constant
Frame rate : 23.976 (24000/1001) FPS
Color space : YUV
Chroma subsampling : 4:2:0
Bit depth : 10 bits
Bits/(Pixel*Frame) : 0.326
Stream size : 9.92 GiB (63%)
Writing library : x265 3.0+1-ed72af837053:[Windows][MSVC 1916][64 bit] 10bit
Encoding settings : cpuid=1111039 / frame-threads=4 / numa-pools=16 / wpp / no-pmode / no-pme / no-psnr / no-ssim / log-level=2 / input-csp=1 / input-res=1920x816 / interlace=0 / total-frames=166724 / level-idc=41 / high-tier=1 / uhd-bd=0 / ref=5 / no-allow-non-conformance / no-repeat-headers / annexb / no-aud / no-hrd / info / hash=0 / no-temporal-layers / open-gop / min-keyint=23 / keyint=240 / gop-lookahead=0 / bframes=11 / b-adapt=2 / b-pyramid / bframe-bias=0 / rc-lookahead=60 / lookahead-slices=1 / scenecut=40 / radl=0 / no-splice / no-intra-refresh / ctu=32 / min-cu-size=8 / rect / amp / max-tu-size=32 / tu-inter-depth=4 / tu-intra-depth=4 / limit-tu=1 / rdoq-level=2 / dynamic-rd=0.00 / no-ssim-rd / signhide / no-tskip / nr-intra=0 / nr-inter=0 / no-constrained-intra / no-strong-intra-smoothing / max-merge=5 / limit-refs=3 / limit-modes / me=3 / subme=7 / merange=57 / temporal-mvp / weightp / weightb / no-analyze-src-pics / deblock=-3:-3 / no-sao / no-sao-non-deblock / rd=6 / no-early-skip / no-rskip / no-fast-intra / no-tskip-fast / no-cu-lossless / no-b-intra / no-splitrd-skip / rdpenalty=0 / psy-rd=2.00 / psy-rdoq=1.00 / no-rd-refine / no-lossless / cbqpoffs=0 / crqpoffs=0 / rc=crf / crf=19.0 / qcomp=0.70 / qpstep=4 / stats-write=0 / stats-read=0 / vbv-maxrate=50000 / vbv-bufsize=50000 / vbv-init=0.9 / crf-max=0.0 / crf-min=0.0 / ipratio=1.40 / pbratio=1.30 / aq-mode=1 / aq-strength=1.00 / no-cutree / zone-count=0 / no-strict-cbr / qg-size=32 / no-rc-grain / qpmax=69 / qpmin=0 / no-const-vbv / sar=1 / overscan=0 / videoformat=5 / range=0 / colorprim=1 / transfer=1 / colormatrix=1 / chromaloc=0 / display-window=0 / max-cll=0,0 / min-luma=0 / max-luma=1023 / log2-max-poc-lsb=8 / vui-timing-info / vui-hrd-info / slices=1 / no-opt-qp-pps / no-opt-ref-list-length-pps / no-multi-pass-opt-rps / scenecut-bias=0.05 / no-opt-cu-delta-qp / no-aq-motion / no-hdr / no-hdr-opt / no-dhdr10-opt / no-idr-recovery-sei / analysis-reuse-level=5 / scale-factor=0 / refine-intra=0 / refine-inter=0 / refine-mv=0 / refine-ctu-distortion=0 / no-limit-sao / ctu-info=0 / no-lowpass-dct / refine-analysis-type=0 / copy-pic=1 / max-ausize-factor=1.0 / no-dynamic-refine / no-single-sei / hevc-aq / qp-adaptation-range=2.00
Language : English
Default : Yes
Forced : No
Color range : Limited
Color primaries : BT.709
Transfer characteristics : BT.709
Matrix coefficients : BT.709

Audio #1
ID : 2
Format : AC-3
Format/Info : Audio Coding 3
Commercial name : Dolby Digital
Codec ID : A_AC3
Duration : 1 h 55 min
Bit rate mode : Constant
Bit rate : 640 kb/s
Channel(s) : 6 channels
Channel layout : L R C LFE Ls Rs
Sampling rate : 48.0 kHz
Frame rate : 31.250 FPS (1536 SPF)
Bit depth : 16 bits
Compression mode : Lossy
Stream size : 531 MiB (3%)
Title : MVO 20th Century Fox
Language : Russian
Service kind : Complete Main
Default : Yes
Forced : No

Audio #2
ID : 3
Format : AC-3
Format/Info : Audio Coding 3
Commercial name : Dolby Digital
Codec ID : A_AC3
Duration : 1 h 55 min
Bit rate mode : Constant
Bit rate : 192 kb/s
Channel(s) : 2 channels
Channel layout : L R
Sampling rate : 48.0 kHz
Frame rate : 31.250 FPS (1536 SPF)
Bit depth : 16 bits
Compression mode : Lossy
Stream size : 159 MiB (1%)
Title : DUB Хлопушка (VHS)
Language : Russian
Service kind : Complete Main
Default : No
Forced : No

Audio #3
ID : 4
Format : AC-3
Format/Info : Audio Coding 3
Commercial name : Dolby Digital
Codec ID : A_AC3
Duration : 1 h 55 min
Bit rate mode : Constant
Bit rate : 640 kb/s
Channel(s) : 6 channels
Channel layout : L R C LFE Ls Rs
Sampling rate : 48.0 kHz
Frame rate : 31.250 FPS (1536 SPF)
Bit depth : 16 bits
Compression mode : Lossy
Stream size : 531 MiB (3%)
Title : MVO Карусель/Киномания
Language : Russian
Service kind : Complete Main
Default : No
Forced : No

Audio #4
ID : 5
Format : AC-3
Format/Info : Audio Coding 3
Commercial name : Dolby Digital
Codec ID : A_AC3
Duration : 1 h 55 min
Bit rate mode : Constant
Bit rate : 448 kb/s
Channel(s) : 6 channels
Channel layout : L R C LFE Ls Rs
Sampling rate : 48.0 kHz
Frame rate : 31.250 FPS (1536 SPF)
Bit depth : 16 bits
Compression mode : Lossy
Stream size : 371 MiB (2%)
Title : MVO ОРТ
Language : Russian
Service kind : Complete Main
Default : No
Forced : No

Audio #5
ID : 6
Format : AC-3
Format/Info : Audio Coding 3
Commercial name : Dolby Digital
Codec ID : A_AC3
Duration : 1 h 55 min
Bit rate mode : Constant
Bit rate : 192 kb/s
Channel(s) : 2 channels
Channel layout : L R
Sampling rate : 48.0 kHz
Frame rate : 31.250 FPS (1536 SPF)
Bit depth : 16 bits
Compression mode : Lossy
Stream size : 159 MiB (1%)
Title : MVO Премьер Видео
Language : Russian
Service kind : Complete Main
Default : No
Forced : No

Audio #6
ID : 7
Format : AC-3
Format/Info : Audio Coding 3
Commercial name : Dolby Digital
Codec ID : A_AC3
Duration : 1 h 56 min
Bit rate mode : Constant
Bit rate : 192 kb/s
Channel(s) : 2 channels
Channel layout : L R
Sampling rate : 48.0 kHz
Frame rate : 31.250 FPS (1536 SPF)
Bit depth : 16 bits
Compression mode : Lossy
Stream size : 159 MiB (1%)
Title : DVO Лазер видео
Language : Russian
Service kind : Complete Main
Default : No
Forced : No

Audio #7
ID : 8
Format : AC-3
Format/Info : Audio Coding 3
Commercial name : Dolby Digital
Codec ID : A_AC3
Duration : 1 h 55 min
Bit rate mode : Constant
Bit rate : 640 kb/s
Channel(s) : 6 channels
Channel layout : L R C LFE Ls Rs
Sampling rate : 48.0 kHz
Frame rate : 31.250 FPS (1536 SPF)
Bit depth : 16 bits
Compression mode : Lossy
Stream size : 531 MiB (3%)
Title : AVO Гаврилов
Language : Russian
Service kind : Complete Main
Default : No
Forced : No

Audio #8
ID : 9
Format : AC-3
Format/Info : Audio Coding 3
Commercial name : Dolby Digital
Codec ID : A_AC3
Duration : 1 h 55 min
Bit rate mode : Constant
Bit rate : 640 kb/s
Channel(s) : 6 channels
Channel layout : L R C LFE Ls Rs
Sampling rate : 48.0 kHz
Frame rate : 31.250 FPS (1536 SPF)
Bit depth : 16 bits
Compression mode : Lossy
Stream size : 531 MiB (3%)
Title : AVO Живов
Language : Russian
Service kind : Complete Main
Default : No
Forced : No

Audio #9
ID : 10
Format : AC-3
Format/Info : Audio Coding 3
Commercial name : Dolby Digital
Codec ID : A_AC3
Duration : 1 h 55 min
Bit rate mode : Constant
Bit rate : 640 kb/s
Channel(s) : 6 channels
Channel layout : L R C LFE Ls Rs
Sampling rate : 48.0 kHz
Frame rate : 31.250 FPS (1536 SPF)
Bit depth : 16 bits
Compression mode : Lossy
Stream size : 531 MiB (3%)
Title : AVO Горчаков
Language : Russian
Service kind : Complete Main
Default : No
Forced : No

Audio #10
ID : 11
Format : AC-3
Format/Info : Audio Coding 3
Commercial name : Dolby Digital
Codec ID : A_AC3
Duration : 1 h 55 min
Bit rate mode : Constant
Bit rate : 640 kb/s
Channel(s) : 6 channels
Channel layout : L R C LFE Ls Rs
Sampling rate : 48.0 kHz
Frame rate : 31.250 FPS (1536 SPF)
Bit depth : 16 bits
Compression mode : Lossy
Stream size : 531 MiB (3%)
Title : AVO Гаевский
Language : Russian
Service kind : Complete Main
Default : No
Forced : No

Audio #11
ID : 12
Format : AC-3
Format/Info : Audio Coding 3
Commercial name : Dolby Digital
Codec ID : A_AC3
Duration : 1 h 55 min
Bit rate mode : Constant
Bit rate : 448 kb/s
Channel(s) : 6 channels
Channel layout : L R C LFE Ls Rs
Sampling rate : 48.0 kHz
Frame rate : 31.250 FPS (1536 SPF)
Bit depth : 16 bits
Compression mode : Lossy
Stream size : 371 MiB (2%)
Title : AVO Дьяков
Language : Russian
Service kind : Complete Main
Default : No
Forced : No

Audio #12
ID : 13
Format : AC-3
Format/Info : Audio Coding 3
Commercial name : Dolby Digital
Codec ID : A_AC3
Duration : 1 h 55 min
Bit rate mode : Constant
Bit rate : 192 kb/s
Channel(s) : 2 channels
Channel layout : L R
Sampling rate : 48.0 kHz
Frame rate : 31.250 FPS (1536 SPF)
Bit depth : 16 bits
Compression mode : Lossy
Stream size : 159 MiB (1%)
Title : AVO Визгунов
Language : Russian
Service kind : Complete Main
Default : No
Forced : No

Audio #13
ID : 14
Format : AC-3
Format/Info : Audio Coding 3
Commercial name : Dolby Digital
Codec ID : A_AC3
Duration : 1 h 55 min
Bit rate mode : Constant
Bit rate : 192 kb/s
Channel(s) : 2 channels
Channel layout : L R
Sampling rate : 48.0 kHz
Frame rate : 31.250 FPS (1536 SPF)
Bit depth : 16 bits
Compression mode : Lossy
Stream size : 159 MiB (1%)
Title : AVO Кашкин
Language : Russian
Service kind : Complete Main
Default : No
Forced : No

Audio #14
ID : 15
Format : AC-3
Format/Info : Audio Coding 3
Commercial name : Dolby Digital
Codec ID : A_AC3
Duration : 1 h 55 min
Bit rate mode : Constant
Bit rate : 192 kb/s
Channel(s) : 2 channels
Channel layout : L R
Sampling rate : 48.0 kHz
Frame rate : 31.250 FPS (1536 SPF)
Bit depth : 16 bits
Compression mode : Lossy
Stream size : 159 MiB (1%)
Title : AVO Сонькин
Language : Russian
Service kind : Complete Main
Default : No
Forced : No

Audio #15
ID : 16
Format : AC-3
Format/Info : Audio Coding 3
Commercial name : Dolby Digital
Codec ID : A_AC3
Duration : 1 h 55 min
Bit rate mode : Constant
Bit rate : 384 kb/s
Channel(s) : 6 channels
Channel layout : L R C LFE Ls Rs
Sampling rate : 48.0 kHz
Frame rate : 31.250 FPS (1536 SPF)
Bit depth : 16 bits
Compression mode : Lossy
Stream size : 318 MiB (2%)
Title : MVO 1+1
Language : Ukrainian
Service kind : Complete Main
Default : No
Forced : No

Audio #16
ID : 17
Format : AC-3
Format/Info : Audio Coding 3
Commercial name : Dolby Digital
Codec ID : A_AC3
Duration : 1 h 55 min
Bit rate mode : Constant
Bit rate : 384 kb/s
Channel(s) : 6 channels
Channel layout : L R C LFE Ls Rs
Sampling rate : 48.0 kHz
Frame rate : 31.250 FPS (1536 SPF)
Bit depth : 16 bits
Compression mode : Lossy
Stream size : 318 MiB (2%)
Title : MVO Новый канал
Language : Ukrainian
Service kind : Complete Main
Default : No
Forced : No

Audio #17
ID : 18
Format : AC-3
Format/Info : Audio Coding 3
Commercial name : Dolby Digital
Codec ID : A_AC3
Duration : 1 h 55 min
Bit rate mode : Constant
Bit rate : 640 kb/s
Channel(s) : 6 channels
Channel layout : L R C LFE Ls Rs
Sampling rate : 48.0 kHz
Frame rate : 31.250 FPS (1536 SPF)
Bit depth : 16 bits
Compression mode : Lossy
Stream size : 531 MiB (3%)
Title : Original
Language : English
Service kind : Complete Main
Default : No
Forced : No

Text #1
ID : 19
Format : UTF-8
Codec ID : S_TEXT/UTF8
Codec ID/Info : UTF-8 Plain Text
Duration : 1 h 50 min
Bit rate : 83 b/s
Count of elements : 1585
Stream size : 67.1 KiB (0%)
Title : Rus
Language : Russian
Default : No
Forced : No

Text #2
ID : 20
Format : UTF-8
Codec ID : S_TEXT/UTF8
Codec ID/Info : UTF-8 Plain Text
Duration : 1 h 46 min
Bit rate : 86 b/s
Count of elements : 1639
Stream size : 68.0 KiB (0%)
Title : Rus
Language : Russian
Default : No
Forced : No

Text #3
ID : 21
Format : UTF-8
Codec ID : S_TEXT/UTF8
Codec ID/Info : UTF-8 Plain Text
Duration : 1 h 51 min
Bit rate : 63 b/s
Count of elements : 1370
Stream size : 52.4 KiB (0%)
Title : Eng
Language : English
Default : No
Forced : No

Menu
00:00:00.000 : en:Main Titles
00:04:19.549 : en:Hole the Elevator
00:06:04.278 : en:L.a.P.D. Bomb Squad
00:08:27.088 : en:Down the Shaft
00:11:17.884 : en:A Gut Feeling
00:15:23.714 : en:Perilous Rescue
00:17:38.221 : en:He's Here!
00:23:21.817 : en:Heroes
00:26:43.768 : en:The Game Begins
00:31:01.776 : en:The Bus
00:35:05.518 : en:High Speed Pursuit with "Tune Man"
00:40:23.585 : en:Jack on Board
00:44:32.753 : en:Under the Bus
00:48:46.505 : en:Through the Streets; a Hard Right
00:53:09.186 : en:An Empty Freeway
00:55:44.215 : en:Passenger Transfer
00:58:51.818 : en:Watch Your Step
01:02:19.443 : en:Leap of Faith
01:07:38.387 : en:Circling the Runway
01:08:54.546 : en:Jack Gets Off
01:11:51.515 : en:The Plan
01:15:16.845 : en:Howard Payne
01:15:40.536 : en:Belly of the Beast
01:19:33.518 : en:A Costly Mistake
01:23:27.585 : en:Video Games
01:27:04.636 : en:Evacuation
01:32:57.194 : en:The Trap
01:37:06.028 : en:Going Underground
01:40:28.229 : en:On the Train
01:42:19.881 : en:Howard's Headache
01:46:05.774 : en:Full Speed Ahead
01:50:06.265 : en:End Credits
Загрузка...Cкриншот1 Скорость / Speed (1994) BDRip 1080p [HEVC] 10 bit от CthulhuЗагрузка...Cкриншот2 Скорость / Speed (1994) BDRip 1080p [HEVC] 10 bit от CthulhuЗагрузка...Cкриншот3 Скорость / Speed (1994) BDRip 1080p [HEVC] 10 bit от CthulhuЗагрузка...Cкриншот4 Скорость / Speed (1994) BDRip 1080p [HEVC] 10 bit от Cthulhu
Сэмпл Торрент🧲 Магнет

Рейтинги КП и IMDB, кнопки "Позвать в чате" и "Спасибо", а также мультитрекерная статистика доступны только зарегистрированным/авторизованным пользователям!

Файлы: 1
  • Скорость - Speed (1994) BDRip-HEVC 1080p - KORSAR.mkv   15.83 ГБ
Поблагодарили: 28
375509, 7654321, Alex302, alexposad, Brooklyn, brukvalub, bs158250, cyberdragon, Diman, Dmitrrry, DSIO, e7e1, garant3v, Gudaber, igor3176, inoy, InSpector, ivs5, Kilop77, Lovejoy, makss333, NoMaD, Nuclear70, OldGamer, ramzes, Remontaz, SaN161NeK, sergeich
Cthulhu
87351015.83 ГБ

Добавление нового комментария

Добавление комментариев доступно только зарегистрированным/авторизованным пользователям.
Аватар Студень
  Студень  
Ярослав писал(а):
Интересно каким образом я этим тут займусь?
Да мне без разницы как. Ты же что-то советуешь, сделай хоть что-нибудь сам из этого.
Аватар Ярослав
  Ярослав  
Студень писал(а):
Ясен красен можно. Займись
Интересно каким образом я этим тут займусь?
Аватар Студень
  Студень  
Ярослав писал(а):
Можно же просто выложить отдельной ссылкой аудиодороги.
Ясен красен можно. Займись
Аватар Ярослав
  Ярослав  
Можно же просто выложить отдельной ссылкой аудиодороги.
Аватар NoMaD
  NoMaD  
Moderh писал(а):
У некоторых , в том числе и у меня , черепаший инет . Вот и приходится качать,а потом удалять по пол загрузки
У меня тоже интернет не айс - всего 1.2 мегабита на закачку и отдачу,но тем не менее я качаю такие рипы и потом спокойно удаляю все лишние аудио дорожки для экономии места.
Аватар не указан
  Moderh  
NoMaD писал(а):
Чтобы каждый мог выбрать ту,что нравится.Скачай и удали не нужные тебе дорожки,делов то
У некоторых , в том числе и у меня , черепаший инет . Вот и приходится качать,а потом удалять по пол загрузки
Аватар NoMaD
  NoMaD  
Moderh писал(а):
Фильм-рекордсмен по аудиодорожкам . А вот нафига столько дорог ?
Чтобы каждый мог выбрать ту,что нравится.Скачай и удали не нужные тебе дорожки,делов то
Аватар не указан
  Moderh  
Фильм-рекордсмен по аудиодорожкам . А вот нафига столько дорог ?