💬 Мини-чат

Убедительная просьба не обсуждать тут политику.
AdminЛёшикоБэст, вроде потихоньку идёт. Подождем, если не докачается, то встану.
AdminЛёшикоБэст, перекачайте торрент, а то в профиле не отображается ждете или уже нет
ЛёшикоБэстРаздайте, пожалуйста, Неудержимые / The Expendables (2010) [Theatrical Cut] BDRip 1080p [HEVC] 10 bit от Spartanec1308
OldGamerДа, есть.
ЛёшикоБэстДоброго вечера) Скажите пожалуйста, есть ли в планах сделать релиз дилогии "Зорро" с Антонио Бандерасом?
HANNIBALAdmin, 👍
AdminГоро, встал
ГороРаздайте, пожалуйста, Хищники / Predators (2010) BDRip 1080p [HEVC] 10 bit от HANNIBAL
AdminHANNIBAL, привет. Не помню за сколько брал, но продление в этот раз обошлось примерно в $14 со всякими комиссиями. А аренда VDS обходится примерно в $30-35 за год. Не исключено, что всё это подорожает. Пока что пожертвования с трудом покрывают расходы. Иногда если требуется и со своего кармана оплачиваю, не страшно. Прорвемся.
HANNIBALсколько сейчас стоит
HANNIBALAdmin, ПРИВЕТ
AdminНаконец-то получил банковскую карту. Продлил доменное имя (адрес сайта) на год.
  • Brooklyn
  • ivan_1965
Отправка сообщений доступна только зарегистрированным/авторизованным пользователям.
Онлайн (за 10 мин.): 2

Крутые меры / Bastille Day (2016) BDRip 1080p [HEVC] 10 bit от OldGamer (RG RIPS CLUB)

HEVC
10 bit
Обложка Крутые меры / Bastille Day (2016) BDRip 1080p [HEVC] 10 bit от OldGamer (RG RIPS CLUB) Год: 2016
Страна: Великобритания, Франция, США, Люксембург
Студия: Anonymous Content, Vendome Pictures, StudioCanal
Жанр: Боевик, Триллер, Драма, Криминал
Продолжительность: 01:31:48

Режиссер: Джеймс Уоткинс
В ролях: Идрис Эльба, Ричард Мэдден, Шарлотта Ле Бон, Келли Райлли, Хосе Гарсия, Тьерри Годар, Винсент Лондез, Арье Вортхальтер, Мохамед Махтуми, Тео Коста Марини

Описание: Ловкий карманник Майкл Мэйсон привлекает внимание полиции и спецслужб, когда крадет сумку, содержащую гораздо больше, чем просто бумажник. На его след выходит дерзкий и резкий спецагент ЦРУ Шон Брайар. Вдвоем они становятся мишенью тайной преступной организации и в течение суток должны вывести злоумышленников на чистую воду.


Видео: 1920x804 (2,40:1), 6832 кбит/сек, 0.184 бит/(Пиксели*Кадры), 23,976 (24000/1001) кадра/сек, HEVC (Main 10@L4.1@High) 10 бит
Аудио1: AC3, 6 ch, 640 Kbps - РусскийРусский, Дублированный (Лицензия)
Аудио2: AC3, 6 ch, 448 Kbps - РусскийРусский, Авторский (Андрей Гаврилов)
Аудио3: AC3, 6 ch, 640 Kbps - EnglishEnglish, Original
Субтитры: Русские полные (SRT), English full (SRT)

Как за пару секунд удалить ненужные аудиодорожки и субтитры (Внимание! После удаления вы не сможете поддержать раздачу)

Медиаинфо
x265 info: frame I: 552, Avg QP:17.18 kb/s: 19171.57
x265 info: frame P: 28695, Avg QP:18.45 kb/s: 12556.30
x265 info: frame B: 102957, Avg QP:20.77 kb/s: 5169.04
x265 info: Weighted P-Frames: Y:4.2% UV:3.0%
x265 info: Weighted B-Frames: Y:3.0% UV:1.9%
x265 info: consecutive B-frames: 10.3% 9.1% 9.2% 29.6% 11.1% 14.0% 6.5% 5.2% 2.5% 0.8% 0.7% 0.3% 0.3% 0.1% 0.2%
x265 info: encoded 132204 frames in 152265.26s (0.87 fps), 6830.92 kb/s, Avg QP:20.26

Формат : Matroska
Версия формата : Version 4
Размер файла : 5,49 Гбайт
Продолжительность : 1 ч. 31 м.
Общий поток : 8562 Кбит/сек
Название фильма : Крутые меры
Описание : Ловкий карманник Майкл Мэйсон привлекает внимание полиции и спецслужб, когда крадет сумку, содержащую гораздо больше, чем просто бумажник. На его след выходит дерзкий и резкий спецагент ЦРУ Шон Брайар. Вдвоем они становятся мишенью тайной преступной организации и в течение суток должны вывести злоумышленников на чистую воду.
Дата кодирования : UTC 2019-06-15 15:13:04
Программа кодирования : mkvmerge v34.0.0 ('Sight and Seen') 64-bit
Библиотека кодирования : libebml v1.3.7 + libmatroska v1.5.0 / Lavf57.71.100
Примечание : Rip by OldGamer
Attachments : poster.jpg / backdrop.jpg
ACTORS : Idris Elba, Richard Madden, Charlotte Le Bon, Kelly Reilly, José Garcia, Anatol Yusef, Eriq Ebouaney, Alex Fondja, Arieh Worthalter, Thierry Godard, Vincent Londez, Stéphane Caillard, Mohamed Makhtoumi, Théo Costa Marini, Jérôme Gaspard, Ines Boughanmi, Jorge Leon Martinez, Valeria Ragonese, Tugba Tirpan, Daniel Westwood
COUNTRY : France, Luxembourg, United Kingdom, United States
DATE : 2016-04-22
DIRECTOR : James Watkins
ENCODING_INFO : MATROSKA,WEBM > MKV / H264 > X265 CRF 19.0 Very Slow / AC3 > COPY Безопасное / AC3 > COPY Безопасное / AC3 > COPY Безопасное
GENRE : Боевик
HD_VIDEO : 1
ITUNEXTC : 15
Язык : und
MEDIA_TYPE : 9
ORIGINAL_TITLE : Bastille Day
PRODUCER : Bard Dorros, David Kanter, Philippe Rousselet
PUBLISHER : StudioCanal, Vendome Pictures, Anonymous Content, Anton Capital Entertainment (ACE), Canal+, TF1 Films Production
RATING : 6.10

Видео
Идентификатор : 1
Формат : HEVC
Формат/Информация : High Efficiency Video Coding
Профиль формата : Main 10@L4.1@High
Идентификатор кодека : V_MPEGH/ISO/HEVC
Продолжительность : 1 ч. 31 м.
Битрейт : 6832 Кбит/сек
Ширина : 1920 пикселей
Высота : 804 пикселя
Соотношение сторон : 2,40:1
Режим частоты кадров : Постоянный
Частота кадров : 24,000 кадра/сек
Цветовое пространство : YUV
Субдискретизация насыщенности : 4:2:0
Битовая глубина : 10 бит
Бит/(Пиксели*Кадры) : 0.184
Размер потока : 4,38 Гбайт (80%)
Заголовок : Bastille Day / Rip by OldGamer
Библиотека кодирования : x265 2.9+9-f74003e88622:[Mac OS X][clang 10.0.0][64 bit] 10bit
Настройки программы : cpuid=1111039 / frame-threads=14 / wpp / no-pmode / no-pme / no-psnr / no-ssim / log-level=3 / input-csp=1 / input-res=1920x804 / interlace=0 / total-frames=0 / level-idc=41 / high-tier=1 / uhd-bd=0 / ref=5 / allow-non-conformance / no-repeat-headers / annexb / no-aud / no-hrd / info / hash=0 / no-temporal-layers / open-gop / min-keyint=23 / keyint=240 / gop-lookahead=0 / bframes=14 / b-adapt=2 / b-pyramid / bframe-bias=0 / rc-lookahead=60 / lookahead-slices=5 / scenecut=40 / radl=0 / no-intra-refresh / ctu=64 / min-cu-size=8 / rect / amp / max-tu-size=32 / tu-inter-depth=4 / tu-intra-depth=4 / limit-tu=1 / rdoq-level=2 / dynamic-rd=0.00 / no-ssim-rd / signhide / no-tskip / nr-intra=0 / nr-inter=0 / no-constrained-intra / no-strong-intra-smoothing / max-merge=5 / limit-refs=2 / no-limit-modes / me=3 / subme=7 / merange=57 / temporal-mvp / weightp / weightb / no-analyze-src-pics / deblock=-3:-3 / no-sao / no-sao-non-deblock / rd=6 / no-early-skip / rskip / no-fast-intra / no-tskip-fast / no-cu-lossless / no-b-intra / no-splitrd-skip / rdpenalty=0 / psy-rd=2.00 / psy-rdoq=1.00 / no-rd-refine / no-lossless / cbqpoffs=0 / crqpoffs=0 / rc=crf / crf=19.0 / qcomp=0.60 / qpstep=4 / stats-write=0 / stats-read=0 / vbv-maxrate=50000 / vbv-bufsize=50000 / vbv-init=0.9 / crf-max=0.0 / crf-min=0.0 / ipratio=1.40 / pbratio=1.30 / aq-mode=3 / aq-strength=0.80 / no-cutree / zone-count=1 / zones: / start-frame=124498 / end-frame=132200 / qp=35 / no-strict-cbr / qg-size=32 / no-rc-grain / qpmax=69 / qpmin=0 / no-const-vbv / sar=1 / overscan=0 / videoformat=5 / range=0 / colorprim=2 / transfer=2 / colormatrix=2 / chromaloc=0 / display-window=0 / max-cll=0,0 / min-luma=0 / max-luma=1023 / log2-max-poc-lsb=8 / vui-timing-info / vui-hrd-info / slices=1 / no-opt-qp-pps / no-opt-ref-list-length-pps / no-multi-pass-opt-rps / scenecut-bias=0.00 / no-opt-cu-delta-qp / aq-motion / no-hdr / no-hdr-opt / no-dhdr10-opt / no-idr-recovery-sei / analysis-reuse-level=5 / scale-factor=0 / refine-intra=0 / refine-inter=0 / refine-mv=0 / no-limit-sao / ctu-info=0 / no-lowpass-dct / refine-mv-type=0 / copy-pic=1 / max-ausize-factor=1.0 / no-dynamic-refine / no-single-sei
Язык : Russian
Default : Да
Forced : Нет
Цветовой диапазон : Limited

Аудио #1
Идентификатор : 2
Формат : AC-3
Формат/Информация : Audio Coding 3
Коммерческое название : Dolby Digital
Идентификатор кодека : A_AC3
Продолжительность : 1 ч. 31 м.
Вид битрейта : Постоянный
Битрейт : 640 Кбит/сек
Каналы : 6 каналов
Channel layout : L R C LFE Ls Rs
Частота : 48,0 КГц
Частота кадров : 31,250 кадров/сек (1536 SPF)
Битовая глубина : 16 бит
Метод сжатия : С потерями
Размер потока : 420 Мбайт (7%)
Заголовок : Дублированный (Лицензия)
Язык : Russian
ServiceKind/String : Complete Main
Default : Да
Forced : Нет

Аудио #2
Идентификатор : 3
Формат : AC-3
Формат/Информация : Audio Coding 3
Коммерческое название : Dolby Digital
Идентификатор кодека : A_AC3
Продолжительность : 1 ч. 31 м.
Вид битрейта : Постоянный
Битрейт : 448 Кбит/сек
Каналы : 6 каналов
Channel layout : L R C LFE Ls Rs
Частота : 48,0 КГц
Частота кадров : 31,250 кадров/сек (1536 SPF)
Битовая глубина : 16 бит
Метод сжатия : С потерями
Размер потока : 294 Мбайт (5%)
Заголовок : Авторский (Андрей Гаврилов)
Язык : Russian
ServiceKind/String : Complete Main
Default : Нет
Forced : Нет

Аудио #3
Идентификатор : 4
Формат : AC-3
Формат/Информация : Audio Coding 3
Коммерческое название : Dolby Digital
Идентификатор кодека : A_AC3
Продолжительность : 1 ч. 31 м.
Вид битрейта : Постоянный
Битрейт : 640 Кбит/сек
Каналы : 6 каналов
Channel layout : L R C LFE Ls Rs
Частота : 48,0 КГц
Частота кадров : 31,250 кадров/сек (1536 SPF)
Битовая глубина : 16 бит
Метод сжатия : С потерями
Размер потока : 420 Мбайт (7%)
Заголовок : Original
Язык : English
ServiceKind/String : Complete Main
Default : Нет
Forced : Нет

Текст #1
Идентификатор : 5
Формат : UTF-8
Идентификатор кодека : S_TEXT/UTF8
Идентификатор кодека/Информация : UTF-8 Plain Text
Продолжительность : 1 ч. 28 м.
Битрейт : 61 бит/сек
ElementCount : 635
Размер потока : 40,1 Кбайт (0%)
Заголовок : Полные
Язык : Russian
Default : Нет
Forced : Нет

Текст #2
Идентификатор : 6
Формат : UTF-8
Идентификатор кодека : S_TEXT/UTF8
Идентификатор кодека/Информация : UTF-8 Plain Text
Продолжительность : 1 ч. 28 м.
Битрейт : 35 бит/сек
ElementCount : 651
Размер потока : 22,9 Кбайт (0%)
Заголовок : Full
Язык : English
Default : Нет
Forced : Нет
Загрузка...Cкриншот1 Крутые меры / Bastille Day (2016) BDRip 1080p [HEVC] 10 bit от OldGamer (RG RIPS CLUB)Загрузка...Cкриншот2 Крутые меры / Bastille Day (2016) BDRip 1080p [HEVC] 10 bit от OldGamer (RG RIPS CLUB)Загрузка...Cкриншот3 Крутые меры / Bastille Day (2016) BDRip 1080p [HEVC] 10 bit от OldGamer (RG RIPS CLUB)Загрузка...Cкриншот4 Крутые меры / Bastille Day (2016) BDRip 1080p [HEVC] 10 bit от OldGamer (RG RIPS CLUB)
Релиз-группа: RIPS CLUB
Сэмпл Торрент🧲 Магнет

Рейтинги КП и IMDB, кнопки "Позвать в чате" и "Спасибо", а также мультитрекерная статистика доступны только зарегистрированным/авторизованным пользователям!

Файлы: 1
  • Крутые.меры.Bastille.Day.2016.BDRip-HEVC.1080p.mkv   5.49 ГБ
Поблагодарили: 21
375509, 7654321, alexyak, and50, arkenstoune, bs158250, D16T, esseker22, grudich, HANNIBAL, Heineken, igor3176, inoy, ivan_1965, NoMaD, Nuclear70, Remontaz, sergiorion, SYNC80001, yug9111, Херсонец
OldGamer
04696505.49 ГБ

Добавление нового комментария

Добавление комментариев доступно только зарегистрированным/авторизованным пользователям.