Чат

⚫︎
Список изменений сайта - https://rips.club/changelog.html (обновлен 24.05.2024)
  • arwis
  • Banzai
  • ExoticDeer
Онлайн (за 10 мин.): 3
  • Tastod: Раздайте, пожалуйста, Загадочная история Бенджамина Баттона / The Curious Case of Benjamin Button (2008) BDRip 1080p [HEVC] 10 bit от Spartanec1308
  • Гл. Админ: Исправил баг, когда после анонса коллекции все анонсы показывались в спойлере, даже если не являлись коллекцией.
  • Гл. Админ: Исправил баг, когда в ЛС не возможно было удалить сообщение.
  • bronsonw200: Гл. Админ, Как по мне, так смотрится приятнее.
  • Гл. Админ: В светлой теме задний фон сделал чуть потемнее, чтобы было не слишком ярко. В темной теме поисковую строку сделал черной (как в светлой теме), чтобы выделялась. Убрал рамки вокруг элементов форм. Прокрутку страницы в начало сделал плавной. ( отредактировано: )
  • Гл. Админ: В ближайшие дни по вечерам начну подправлять дизайн.
  • Гл. Админ: Готово.
  • Гл. Админ: Управление релизами закончил, но не буду выкладывать на ночь глядя. Утром протестирую на локальном компе, и днем выложу.
  • Гл. Админ: Фон баннера релиз-группы сделал прозрачным и перезалил на внешнем хостинге.
  • OldGamer: было бы неплохо
  • Гл. Админ: Управление релизами наверно сегодня закончу.
  • HANNIBAL: Сообщение удалено (удалил: HANNIBAL)
  • HANNIBAL: Гл. Админ, не привычно
  • Гл. Админ: HANNIBAL, хорошего или плохого?
  • HANNIBAL: эт чей-то вы тут натворили с сайтом ;)
  • Гл. Админ: ExoticDeer, просто в будущем будет несколько новостных строчек и они будут автоматически переключаться по кругу, поэтому не хочется статичную. Могу ещё уменьшить частоту, если всё равно будет отвлекать. ( отредактировано: )
  • Гл. Админ: ExoticDeer, уменьшил частоту мигания с 5 сек. до 10 сек.
  • ExoticDeer: Гл. Админ, про мигание, скорее отвлекает, особенно на тёмной теме. статичная хорошо смотрелась
  • Гл. Админ: Winsent, Исправил. Теперь, при просмотре комментариев конкретного пользователя, эта галочка не играет роли. Спасибо, что сообщили.
  • Гл. Админ: Winsent, сначала не поверил своим глазам. Это было оооочень странно. Но кажется теперь понял в чем проблема. Ошибка появляется, если в настройках не установлена галочка "Получать уведомления о всех комментариях". Причем у разных пользователей проявляется по разному - у кого-то ничего не показывается, а у кого-то показывается часть комментариев. Поэтому мне долго не удавалось воспроизвести ошибку. Сейчас исправлю.
Отправка сообщений доступна только зарегистрированным/авторизованным пользователям.

🎨︎Бобик в гостях у Барбоса (1977) BDRip 1080p [HEVC] 10 bit от ADVOKAT69


Обложка Бобик в гостях у Барбоса (1977) BDRip 1080p [HEVC] 10 bit от ADVOKAT69
HEVC
10 bit
✂︎Сэмпл⤓︎Торрент🧲︎Магнет$Пожертвования
Год: 1977
Страна: СССР
Студия: Союзмультфильм
Жанр: Мультфильм, Короткометражка, Комедия
Длительность: 00:08:39

Режиссер: Владимир Попов
В ролях: Юрий Никулин, Олег Табаков

Описание: Рано утром дедушка выгуливает своего домашнего любимца — пса Барбоса. Потом оставляет его одного дома, а сам уходит до вечера, оставив Барбоса «за хозяина». Псу скучно одному, и он приглашает в гости дворнягу Бобика. Перед гостем Барбос начинает строить из себя настоящего хозяина квартиры…


Исходник: Blu-Ray
Видео: 1424x1080, 7 061 Kbps
Аудио: AC3, 6 ch, 448 Kbps - РусскийРусский, Оригинал
Субтитры: нет

Лог (x265 info)x265 [info]: frame I: 90, Avg QP:17.70 kb/s: 28004.00
x265 [info]: frame P: 3307, Avg QP:19.38 kb/s: 14388.69
x265 [info]: frame B: 9599, Avg QP:21.92 kb/s: 4339.20
x265 [info]: Weighted P-Frames: Y:19.5% UV:11.9%
x265 [info]: Weighted B-Frames: Y:12.5% UV:6.7%
x265 [info]: consecutive B-frames: 6.9% 4.9% 10.1% 62.0% 10.8% 4.0% 0.5% 0.7%

encoded 12996 frames in 7055.62s (1.84 fps), 7060.31 kb/s, Avg QP:21.24
МедиаинфоОбщее
Уникальный идентификатор : 232189061242280635546237527257341194885 (0xAEADFC908B46272EB241FDF118737285)
Полное имя : D:\Бобик в гостях у Барбоса (1977).mkv
Формат : Matroska
Версия формата : Version 4
Размер файла : 465 Мбайт
Продолжительность : 8 м. 39 с.
Общий поток : 7 511 Кбит/сек
Дата кодирования : UTC 2021-01-25 07:50:11
Программа кодирования : mkvmerge v9.2.0 ('Photograph') 64bit
Библиотека кодирования : libebml v1.3.3 + libmatroska v1.4.4

Видео
Идентификатор : 1
Формат : HEVC
Формат/Информация : High Efficiency Video Coding
Профиль формата : Main 10@L4.1@High
Идентификатор кодека : V_MPEGH/ISO/HEVC
Продолжительность : 8 м. 39 с.
Битрейт : 7 061 Кбит/сек
Ширина : 1 424 пикселя
Высота : 1 080 пикселей
Соотношение сторон : 4:3
Режим частоты кадров : Постоянный
Частота кадров : 25,000 кадров/сек
Цветовое пространство : YUV
Субдискретизация насыщенности : 4:2:0
Битовая глубина : 10 бит
Бит/(Пиксели*Кадры) : 0.184
Размер потока : 438 Мбайт (94%)
Библиотека кодирования : x265 3.4+12-g9103319fc:[Windows][MSVC 1927][64 bit] 10bit
Настройки программы : cpuid=1049583 / frame-threads=3 / numa-pools=8 / wpp / no-pmode / no-pme / no-psnr / no-ssim / log-level=2 / input-csp=1 / input-res=1424x1080 / interlace=0 / total-frames=12996 / level-idc=41 / high-tier=1 / uhd-bd=0 / ref=5 / no-allow-non-conformance / no-repeat-headers / annexb / no-aud / no-hrd / info / hash=0 / no-temporal-layers / open-gop / min-keyint=24 / keyint=240 / gop-lookahead=0 / bframes=7 / b-adapt=2 / b-pyramid / bframe-bias=0 / rc-lookahead=40 / lookahead-slices=4 / scenecut=40 / hist-scenecut=0 / radl=0 / no-splice / no-intra-refresh / ctu=32 / min-cu-size=8 / rect / no-amp / max-tu-size=32 / tu-inter-depth=4 / tu-intra-depth=4 / limit-tu=1 / rdoq-level=2 / dynamic-rd=4.00 / no-ssim-rd / signhide / no-tskip / nr-intra=0 / nr-inter=0 / constrained-intra / no-strong-intra-smoothing / max-merge=3 / limit-refs=3 / limit-modes / me=3 / subme=7 / merange=57 / temporal-mvp / no-frame-dup / no-hme / weightp / weightb / no-analyze-src-pics / deblock=-2:-2 / no-sao / no-sao-non-deblock / rd=4 / selective-sao=0 / no-early-skip / rskip / no-fast-intra / no-tskip-fast / no-cu-lossless / b-intra / no-splitrd-skip / rdpenalty=0 / psy-rd=1.50 / psy-rdoq=0.70 / no-rd-refine / no-lossless / cbqpoffs=0 / crqpoffs=0 / rc=crf / crf=18.5 / qcomp=0.60 / qpstep=4 / stats-write=0 / stats-read=0 / vbv-maxrate=50000 / vbv-bufsize=50000 / vbv-init=0.9 / crf-max=0.0 / crf-min=0.0 / ipratio=1.40 / pbratio=1.30 / aq-mode=2 / aq-strength=0.80 / no-cutree / zone-count=0 / no-strict-cbr / qg-size=32 / no-rc-grain / qpmax=69 / qpmin=0 / no-const-vbv / sar=1 / overscan=0 / videoformat=5 / range=0 / colorprim=1 / transfer=1 / colormatrix=1 / chromaloc=0 / display-window=0 / cll=0,0 / min-luma=0 / max-luma=1023 / log2-max-poc-lsb=8 / vui-timing-info / vui-hrd-info / slices=1 / no-opt-qp-pps / no-opt-ref-list-length-pps / no-multi-pass-opt-rps / scenecut-bias=0.05 / hist-threshold=0.01 / no-opt-cu-delta-qp / no-aq-motion / no-hdr10 / no-hdr10-opt / no-dhdr10-opt / no-idr-recovery-sei / analysis-reuse-level=0 / analysis-save-reuse-level=0 / analysis-load-reuse-level=0 / scale-factor=0 / refine-intra=0 / refine-inter=0 / refine-mv=1 / refine-ctu-distortion=0 / no-limit-sao / ctu-info=0 / no-lowpass-dct / refine-analysis-type=0 / copy-pic=1 / max-ausize-factor=1.0 / no-dynamic-refine / no-single-sei / no-hevc-aq / no-svt / no-field / qp-adaptation-range=1.00 / no-scenecut-aware-qpconformance-window-offsets / right=0 / bottom=0 / decoder-max-rate=0
Default : Да
Forced : Нет
Цветовой диапазон : Limited
Основные цвета : BT.709
Характеристики трансфера : BT.709
Коэффициенты матрицы : BT.709

Аудио
Идентификатор : 2
Формат : AC-3
Формат/Информация : Audio Coding 3
Коммерческое название : Dolby Digital
Идентификатор кодека : A_AC3
Продолжительность : 8 м. 39 с.
Вид битрейта : Постоянный
Битрейт : 448 Кбит/сек
Каналы : 6 каналов
Channel layout : L R C LFE Ls Rs
Частота : 48,0 КГц
Частота кадров : 31,250 кадров/сек (1536 SPF)
Метод сжатия : С потерями
Задержка видео : 16 мс.
Размер потока : 27,8 Мбайт (6%)
Заголовок : Русский BD
Service kind : Complete Main
Default : Да
Forced : Нет
Загрузка...Cкриншот1 Бобик в гостях у Барбоса (1977) BDRip 1080p [HEVC] 10 bit от ADVOKAT69Загрузка...Cкриншот2 Бобик в гостях у Барбоса (1977) BDRip 1080p [HEVC] 10 bit от ADVOKAT69Загрузка...Cкриншот3 Бобик в гостях у Барбоса (1977) BDRip 1080p [HEVC] 10 bit от ADVOKAT69Загрузка...Cкриншот4 Бобик в гостях у Барбоса (1977) BDRip 1080p [HEVC] 10 bit от ADVOKAT69
История обновленийУлучшение качества!
Поблагодарили: 502ps63, 375509, 7654321, A1eksandr1, and50, andreynnn, Andrey_alex, Antilord90, aquarius, Art1967, Brooklyn, brukvalub, bs158250, cannabisonair, cnn, Crept, elf57, F2002, fitaurari, granik, han-nik, HANNIBAL, Heineken, iha777, ilyich05, ivan_1965, ivs5, joker1001, kapitan, Kilop77, kotkosten, Laska020489, LastSurviv0r, makss333, MIGRANT, moonson, mvclub, nik66, NRK888, Nuclear70, OldGamer, Pinnhate, pri_vet, Satin, serg1962, StarLord, stas67, SYNC80001, Winsent, z1M4p9i0
Файлы: 1
  • Бобик в гостях у Барбоса (1977).mkv

Рейтинги КП и IMDB, кнопки "Раздайте, пожалуйста" и "Спасибо", а также мультитрекерная статистика доступны только зарегистрированным/авторизованным пользователям!

ADVOKAT69
002040465.47 МБ

💬︎ Комментарии

Добавление комментариев доступно только зарегистрированным/авторизованным пользователям.