💬 Мини-чат

Giggaloнет ли у кого в планах "Давайте потанцуем" 2004
GiggaloСообщение удалено (удалил: Giggalo)
StarLordOldGamer, как дела?)
StarLordOldGamer, ура, вернулся 😄
OldGamerRezident, можете скачать этот фильм от другого релизёра, там невелика разница, а раздающие точно есть
OldGamerGiggalo, https://tsya.ru/mnemonic.html
NoMaDСообщение удалено (удалил: NoMaD)
NoMaDСообщение удалено (удалил: NoMaD)
GiggaloСообщение удалено (удалил: Giggalo)
GiggaloСообщение удалено (удалил: Giggalo)
Spartanec1308Был днём
StarLordGiggalo, наверное отрубало беднягу, целый день его нету 😅
GiggaloСообщение удалено (удалил: Giggalo)
OldGamerДоброе. Работы много, некогда на перинах валяться.
GiggaloСообщение удалено (удалил: Giggalo)
GiggaloСообщение удалено (удалил: Giggalo)
  • StarLord
  • netfigni
Отправка сообщений доступна только зарегистрированным/авторизованным пользователям.
Онлайн (за 10 мин.): 2

Гений, два земляка и птенчик / Un genio, due compari, un pollo (1975) BDRip 1080p [HEVC] 10 bit от joker63

HEVC
10 bit
Обложка Гений, два земляка и птенчик / Un genio, due compari, un pollo (1975) BDRip 1080p [HEVC] 10 bit от joker63 Год: 1975
Страна: Италия, Франция, Германия (ФРГ)
Жанр: Вестерн, Комедия
Продолжительность: 02:03:25

Режиссер: Дамиано Дамиани
В ролях: Теренс Хилл, Робер Шарльбуа, Раймонд Хармсторф, Миу-Миу, Патрик МакГуэн, Пьеро Вида, Рик Батталья, Марио Брега, Фридрих фон Ледебур, Жан Мартен, Клаус Кински, Клара Колозимо, Бенито Стефанелли, Ренато Бальдини, Мириам Малер, Рой Босьер, Жерар Букарон, Армандо Боттин, Карла Кассола, Витторио Фанфони, Валерио Руджери

Описание: Аризона, конец 19 века. Нечистый на руку мэр небольшого городка пытается выжить беззащитных индейцев с их исконных земель и тем самым уничтожить их. Когда правительство посылает в город инспектора с проверкой, мэр идет на хитрость, переодевая своих бледнолицых прихлебателей в индейскую одежду и таким образом пытается скрыть факт своего преступления. Однако он не учел того, что Джо Сенкс, самый быстрый и симпатичный стрелок на Диком Западе будет иметь другие планы…


Видео: 1904x812, 6748 Kbps
Аудио1: AC3, 2 ch, 192 Kbps - РусскийРусский, Любительский одноголосый
Аудио2: AC3, 2 ch, 192 Kbps - РусскийРусский, Профессиональный одноголосый
Субтитры: UTF-8 Russian

Как за пару секунд удалить ненужные аудиодорожки и субтитры (Внимание! После удаления вы не сможете поддержать раздачу)

Медиаинфо
Общее
Уникальный идентификатор : 106595786570886059178297097795308425235 (0x50319A0AFE2D54F19D894A81E1511013)
Полное имя : D:\Теренс Хилл,Бад Спенсер\Гений, два земляка и птенчик Genio, due compari, un pollo, Un (A Genius, Two Friends, and an Idiot) (1975)BDRip 1080p [HEVC] 10 bit.mkv
Формат : Matroska
Версия формата : Version 4
Размер файла : 6,27 Гбайт
Продолжительность : 2 ч. 3 м.
Общий поток : 7277 Кбит/сек
Название фильма : Гений, два земляка и птенчик_1975_рип от Joker63
Программа кодирования : XviD4PSP 7.0.461 DAILY
Библиотека кодирования : Lavf57.71.100
Обложка : Yes
ErrorDetectionType : Per level 1
Attachments : cover.jpg
ENCODING_INFO : MATROSKA,WEBM > MKV 1080p 10-bit / H264 > X265 CBR 7000kbps Medium / AC3 > AC3 CBR 192kbps / AC3 > AC3 CBR 192kbps
Язык : und

Видео
Идентификатор : 1
Формат : HEVC
Формат/Информация : High Efficiency Video Coding
Профиль формата : Main 10@L5.1@Main
Идентификатор кодека : V_MPEGH/ISO/HEVC
Продолжительность : 2 ч. 3 м.
Битрейт : 6748 Кбит/сек
Ширина : 1904 пикселя
Высота : 812 пикселей
Соотношение сторон : 2,35:1
Режим частоты кадров : Постоянный
Частота кадров : 23,976 (24000/1001) кадра/сек
Цветовое пространство : YUV
Субдискретизация насыщенности : 4:2:0
Битовая глубина : 10 бит
Бит/(Пиксели*Кадры) : 0.182
Размер потока : 5,82 Гбайт (93%)
Библиотека кодирования : x265 2.9+9-f74003e88622:[Windows][GCC 7.3.0][64 bit] 10bit
Настройки программы : cpuid=1049583 / frame-threads=5 / numa-pools=4 / wpp / no-pmode / no-pme / no-psnr / no-ssim / log-level=3 / input-csp=1 / input-res=1904x812 / interlace=0 / total-frames=0 / level-idc=51 / high-tier=1 / uhd-bd=0 / ref=3 / allow-non-conformance / no-repeat-headers / annexb / no-aud / no-hrd / info / hash=0 / no-temporal-layers / open-gop / min-keyint=24 / keyint=240 / gop-lookahead=0 / bframes=6 / b-adapt=2 / b-pyramid / bframe-bias=0 / rc-lookahead=20 / lookahead-slices=5 / scenecut=40 / radl=0 / no-intra-refresh / ctu=64 / min-cu-size=8 / no-rect / no-amp / max-tu-size=32 / tu-inter-depth=1 / tu-intra-depth=1 / limit-tu=0 / rdoq-level=0 / dynamic-rd=0.00 / no-ssim-rd / signhide / no-tskip / nr-intra=0 / nr-inter=0 / no-constrained-intra / strong-intra-smoothing / max-merge=2 / limit-refs=3 / no-limit-modes / me=1 / subme=7 / merange=57 / temporal-mvp / weightp / no-weightb / no-analyze-src-pics / deblock=-2:-2 / sao / no-sao-non-deblock / rd=3 / no-early-skip / rskip / no-fast-intra / no-tskip-fast / no-cu-lossless / no-b-intra / no-splitrd-skip / rdpenalty=0 / psy-rd=2.00 / psy-rdoq=0.00 / no-rd-refine / no-lossless / cbqpoffs=0 / crqpoffs=0 / rc=cbr / bitrate=7000 / qcomp=0.60 / qpstep=4 / stats-write=0 / stats-read=0 / vbv-maxrate=7000 / vbv-bufsize=5000 / vbv-init=0.9 / ipratio=1.40 / pbratio=1.30 / aq-mode=1 / aq-strength=1.00 / cutree / zone-count=0 / no-strict-cbr / qg-size=32 / no-rc-grain / qpmax=69 / qpmin=0 / no-const-vbv / sar=1 / overscan=0 / videoformat=5 / range=0 / colorprim=1 / transfer=1 / colormatrix=1 / chromaloc=0 / display-window=0 / max-cll=0,0 / min-luma=0 / max-luma=1023 / log2-max-poc-lsb=8 / vui-timing-info / vui-hrd-info / slices=1 / no-opt-qp-pps / no-opt-ref-list-length-pps / no-multi-pass-opt-rps / scenecut-bias=0.05 / no-opt-cu-delta-qp / no-aq-motion / no-hdr / no-hdr-opt / no-dhdr10-opt / no-idr-recovery-sei / analysis-reuse-level=5 / scale-factor=0 / refine-intra=0 / refine-inter=0 / refine-mv=0 / no-limit-sao / ctu-info=0 / no-lowpass-dct / refine-mv-type=0 / copy-pic=1 / max-ausize-factor=1.0 / no-dynamic-refine / no-single-sei
Язык : English
Default : Да
Forced : Нет
Цветовой диапазон : Limited
Основные цвета : BT.709
Характеристики трансфера : BT.709
Коэффициенты матрицы : BT.709

Аудио #1
Идентификатор : 2
Формат : AC-3
Формат/Информация : Audio Coding 3
Коммерческое название : Dolby Digital
Идентификатор кодека : A_AC3
Продолжительность : 2 ч. 3 м.
Вид битрейта : Постоянный
Битрейт : 192 Кбит/сек
Каналы : 2 канала
ChannelLayout : L R
Частота : 48,0 КГц
Частота кадров : 31,250 кадров/сек (1536 SPF)
Битовая глубина : 16 бит
Метод сжатия : С потерями
Размер потока : 170 Мбайт (3%)
Заголовок : Любительский одноголосый
Язык : Russian
ServiceKind/String : Complete Main
Default : Да
Forced : Нет

Аудио #2
Идентификатор : 3
Формат : AC-3
Формат/Информация : Audio Coding 3
Коммерческое название : Dolby Digital
Идентификатор кодека : A_AC3
Продолжительность : 2 ч. 3 м.
Вид битрейта : Постоянный
Битрейт : 192 Кбит/сек
Каналы : 2 канала
ChannelLayout : L R
Частота : 48,0 КГц
Частота кадров : 31,250 кадров/сек (1536 SPF)
Битовая глубина : 16 бит
Метод сжатия : С потерями
Размер потока : 170 Мбайт (3%)
Заголовок : Профессиональный одноголосый
Язык : Russian
ServiceKind/String : Complete Main
Default : Нет
Forced : Нет

Текст
Идентификатор : 4
Формат : UTF-8
Идентификатор кодека : S_TEXT/UTF8
Идентификатор кодека/Информация : UTF-8 Plain Text
Язык : Russian
Default : Да
Forced : Нет

Меню
00:00:00.000 : :00:00:00.000
00:08:55.368 : :00:08:55.368
00:23:34.496 : :00:23:34.496
00:31:51.535 : :00:31:51.535
00:39:20.275 : :00:39:20.275
00:54:09.413 : :00:54:09.413
01:01:59.299 : :01:01:59.299
01:11:49.430 : :01:11:49.430
01:21:26.882 : :01:21:26.882
01:32:56.404 : :01:32:56.404
01:42:40.654 : :01:42:40.654
Загрузка...Cкриншот1 Гений, два земляка и птенчик / Un genio, due compari, un pollo (1975) BDRip 1080p [HEVC] 10 bit от joker63Загрузка...Cкриншот2 Гений, два земляка и птенчик / Un genio, due compari, un pollo (1975) BDRip 1080p [HEVC] 10 bit от joker63Загрузка...Cкриншот3 Гений, два земляка и птенчик / Un genio, due compari, un pollo (1975) BDRip 1080p [HEVC] 10 bit от joker63Загрузка...Cкриншот4 Гений, два земляка и птенчик / Un genio, due compari, un pollo (1975) BDRip 1080p [HEVC] 10 bit от joker63
Сэмпл Торрент🧲 Магнет

Рейтинги КП и IMDB, кнопки "Позвать в чате" и "Спасибо", а также мультитрекерная статистика доступны только зарегистрированным/авторизованным пользователям!

Файлы: 1
  • Гений, два земляка и птенчик Genio, due compari, un pollo, Un (A Genius, Two Friends, and an Idiot) (1975)BDRip 1080p [HEVC] 10 bit.mkv   6.27 ГБ
Поблагодарили: 10
375509, brukvalub, inoy, ivan_1965, ivs5, mchael, sam100sur, SaN161NeK, SYNC80001, vladd37
joker63
05313016.27 ГБ

Добавление нового комментария

Добавление комментариев доступно только зарегистрированным/авторизованным пользователям.