Чат

⚫︎
Список изменений сайта - https://rips.club/changelog.html (обновлен 24.05.2024)
  • arwis
  • ExoticDeer
  • kisa1980
Онлайн (за 10 мин.): 3
  • Tastod: Раздайте, пожалуйста, Загадочная история Бенджамина Баттона / The Curious Case of Benjamin Button (2008) BDRip 1080p [HEVC] 10 bit от Spartanec1308
  • Гл. Админ: Исправил баг, когда после анонса коллекции все анонсы показывались в спойлере, даже если не являлись коллекцией.
  • Гл. Админ: Исправил баг, когда в ЛС не возможно было удалить сообщение.
  • bronsonw200: Гл. Админ, Как по мне, так смотрится приятнее.
  • Гл. Админ: В светлой теме задний фон сделал чуть потемнее, чтобы было не слишком ярко. В темной теме поисковую строку сделал черной (как в светлой теме), чтобы выделялась. Убрал рамки вокруг элементов форм. Прокрутку страницы в начало сделал плавной. ( отредактировано: )
  • Гл. Админ: В ближайшие дни по вечерам начну подправлять дизайн.
  • Гл. Админ: Готово.
  • Гл. Админ: Управление релизами закончил, но не буду выкладывать на ночь глядя. Утром протестирую на локальном компе, и днем выложу.
  • Гл. Админ: Фон баннера релиз-группы сделал прозрачным и перезалил на внешнем хостинге.
  • OldGamer: было бы неплохо
  • Гл. Админ: Управление релизами наверно сегодня закончу.
  • HANNIBAL: Сообщение удалено (удалил: HANNIBAL)
  • HANNIBAL: Гл. Админ, не привычно
  • Гл. Админ: HANNIBAL, хорошего или плохого?
  • HANNIBAL: эт чей-то вы тут натворили с сайтом ;)
  • Гл. Админ: ExoticDeer, просто в будущем будет несколько новостных строчек и они будут автоматически переключаться по кругу, поэтому не хочется статичную. Могу ещё уменьшить частоту, если всё равно будет отвлекать. ( отредактировано: )
  • Гл. Админ: ExoticDeer, уменьшил частоту мигания с 5 сек. до 10 сек.
  • ExoticDeer: Гл. Админ, про мигание, скорее отвлекает, особенно на тёмной теме. статичная хорошо смотрелась
  • Гл. Админ: Winsent, Исправил. Теперь, при просмотре комментариев конкретного пользователя, эта галочка не играет роли. Спасибо, что сообщили.
  • Гл. Админ: Winsent, сначала не поверил своим глазам. Это было оооочень странно. Но кажется теперь понял в чем проблема. Ошибка появляется, если в настройках не установлена галочка "Получать уведомления о всех комментариях". Причем у разных пользователей проявляется по разному - у кого-то ничего не показывается, а у кого-то показывается часть комментариев. Поэтому мне долго не удавалось воспроизвести ошибку. Сейчас исправлю.
Отправка сообщений доступна только зарегистрированным/авторизованным пользователям.

🎨︎Обитель зла: Вырождение / Resident Evil: Degeneration (2008) BDRip 1080p [HEVC] 10 bit от ADVOKAT69


Обложка Обитель зла: Вырождение / Resident Evil: Degeneration (2008) BDRip 1080p [HEVC] 10 bit от ADVOKAT69
HEVC
10 bit
✂︎Сэмпл⤓︎Торрент🧲︎Магнет$Пожертвования
Год: 2008
Страна: Япония
Жанр: Мультфильм, Ужасы, Фантастика
Длительность: 01:36:08

Режиссер: Макото Камия
В ролях: Элисон Корт, Пол Мерсье, Лаура Бэйли, Стивен Блум, Криспин Фриман, Дэйв Маллоу

Описание: Нападение зомби приносит хаос в аэропорт Харвардвиль. Клэр Рэдфилд и Леон Кеннеди боровшиеся с корпорацией «Umbrella» во время трагедии в Раккун Сити 7 лет назад вновь вернулись. Они готовы к битве с противником который ищет мести после смерти его семьи в Раккун Сити. Смертельный G-вирус выпущен на свободу и рождает нового мутировавшего монстра. Уничтожат ли Клэр и Леон этот вирус до того как история повторится?


Видео: 1920x1080, 3157 Kbps
Аудио: AC3, 6 ch, 448 Kbps - РусскийРусский, Профессиональный (MVO)
Субтитры: нет

МедиаинфоОбщее
Уникальный идентификатор : 194579191556711067210379437784394596367 (0x926296D304812BD19D710295EC1B800F)
Полное имя : D:\Обитель зла Вырождение (2008) HEVC 10bit.mkv
Формат : Matroska
Версия формата : Version 4
Размер файла : 2,42 Гбайт
Продолжительность : 1 ч. 36 м.
Общий поток : 3607 Кбит/сек
Дата кодирования : UTC 2019-06-20 06:24:00
Программа кодирования : mkvmerge v9.2.0 ('Photograph') 64bit
Библиотека кодирования : libebml v1.3.3 + libmatroska v1.4.4
Encoding Gui : Hybrid 2017.05.06.1

Видео
Идентификатор : 1
Формат : HEVC
Формат/Информация : High Efficiency Video Coding
Профиль формата : Main 10@L4.1@High
Идентификатор кодека : V_MPEGH/ISO/HEVC
Продолжительность : 1 ч. 36 м.
Битрейт : 3157 Кбит/сек
Ширина : 1920 пикселей
Высота : 1080 пикселей
Соотношение сторон : 16:9
Режим частоты кадров : Постоянный
Частота кадров : 23,976 (24000/1001) кадра/сек
Цветовое пространство : YUV
Субдискретизация насыщенности : 4:2:0
Битовая глубина : 10 бит
Бит/(Пиксели*Кадры) : 0.063
Размер потока : 2,12 Гбайт (88%)
Библиотека кодирования : x265 2.5+5-0b3ba15b33ea:[Windows][GCC 7.2.0][64 bit] 10bit
Настройки программы : cpuid=1050111 / frame-threads=2 / numa-pools=4 / wpp / no-pmode / no-pme / no-psnr / no-ssim / log-level=2 / input-csp=1 / input-res=1920x1080 / interlace=0 / total-frames=0 / level-idc=41 / high-tier=1 / uhd-bd=0 / ref=3 / no-allow-non-conformance / no-repeat-headers / annexb / no-aud / no-hrd / info / hash=0 / no-temporal-layers / open-gop / min-keyint=23 / keyint=250 / bframes=4 / b-adapt=2 / b-pyramid / bframe-bias=0 / rc-lookahead=20 / lookahead-slices=6 / scenecut=40 / no-intra-refresh / ctu=64 / min-cu-size=8 / no-rect / no-amp / max-tu-size=32 / tu-inter-depth=1 / tu-intra-depth=1 / limit-tu=0 / rdoq-level=0 / dynamic-rd=0.00 / no-ssim-rd / signhide / no-tskip / nr-intra=0 / nr-inter=0 / no-constrained-intra / strong-intra-smoothing / max-merge=2 / limit-refs=3 / no-limit-modes / me=1 / subme=2 / merange=57 / temporal-mvp / weightp / no-weightb / no-analyze-src-pics / deblock=-3:-3 / no-sao / no-sao-non-deblock / rd=3 / no-early-skip / rskip / no-fast-intra / no-tskip-fast / no-cu-lossless / no-b-intra / rdpenalty=0 / psy-rd=2.00 / psy-rdoq=0.00 / no-rd-refine / analysis-reuse-mode=0 / no-lossless / cbqpoffs=0 / crqpoffs=0 / rc=crf / crf=20.0 / qcomp=0.60 / qpstep=4 / stats-write=0 / stats-read=0 / vbv-maxrate=50000 / vbv-bufsize=50000 / vbv-init=0.9 / crf-max=0.0 / crf-min=0.0 / ipratio=1.40 / pbratio=1.30 / aq-mode=1 / aq-strength=1.00 / cutree / zone-count=0 / no-strict-cbr / qg-size=32 / no-rc-grain / qpmax=69 / qpmin=0 / no-const-vbv / sar=0 / overscan=0 / videoformat=5 / range=0 / colorprim=2 / transfer=2 / colormatrix=1 / chromaloc=0 / display-window=0 / max-cll=0,0 / min-luma=0 / max-luma=1023 / log2-max-poc-lsb=8 / vui-timing-info / vui-hrd-info / slices=1 / opt-qp-pps / opt-ref-list-length-pps / no-multi-pass-opt-rps / scenecut-bias=0.05 / no-opt-cu-delta-qp / no-aq-motion / no-hdr / no-hdr-opt / no-dhdr10-opt / analysis-reuse-level=5 / scale-factor=0 / refine-intra=0 / refine-inter=0 / refine-mv=0 / no-limit-sao / ctu-info=0
Default : Да
Forced : Да
Цветовой диапазон : Limited
Коэффициенты матрицы : BT.709

Аудио
Идентификатор : 2
Формат : AC-3
Формат/Информация : Audio Coding 3
Коммерческое название : Dolby Digital
Идентификатор кодека : A_AC3
Продолжительность : 1 ч. 36 м.
Вид битрейта : Постоянный
Битрейт : 448 Кбит/сек
Каналы : 6 каналов
Channel layout : L R C LFE Ls Rs
Частота : 48,0 КГц
Частота кадров : 31,250 кадров/сек (1536 SPF)
Битовая глубина : 16 бит
Метод сжатия : С потерями
Размер потока : 308 Мбайт (12%)
Заголовок : Русский Dolby Digital 5.1, 448kbps Профессиональный (многоголосый, закадровый)
ServiceKind/String : Complete Main
Default : Да
Forced : Нет

Меню
00:00:00.000 : :Глава 01
00:06:05.073 : :Глава 02
00:11:58.843 : :Глава 03
00:18:29.566 : :Глава 04
00:26:31.798 : :Глава 05
00:31:34.726 : :Глава 06
00:35:46.310 : :Глава 07
00:43:21.140 : :Глава 08
00:48:33.327 : :Глава 09
00:55:08.430 : :Глава 10
01:01:11.376 : :Глава 11
01:06:40.705 : :Глава 12
01:11:28.367 : :Глава 13
01:19:01.820 : :Глава 14
01:22:02.000 : :Глава 15
01:27:42.590 : :Глава 16
Загрузка...Cкриншот1 Обитель зла: Вырождение / Resident Evil: Degeneration (2008) BDRip 1080p [HEVC] 10 bit от ADVOKAT69Загрузка...Cкриншот2 Обитель зла: Вырождение / Resident Evil: Degeneration (2008) BDRip 1080p [HEVC] 10 bit от ADVOKAT69Загрузка...Cкриншот3 Обитель зла: Вырождение / Resident Evil: Degeneration (2008) BDRip 1080p [HEVC] 10 bit от ADVOKAT69Загрузка...Cкриншот4 Обитель зла: Вырождение / Resident Evil: Degeneration (2008) BDRip 1080p [HEVC] 10 bit от ADVOKAT69
Поблагодарили: 13375509, asd, Crept, denisptp4, dimasij, Guga, ivs5, LastSurviv0r, podvoh7, Rezident, slavjanin, Vitoss6, Ярослав
Файлы: 1
  • Обитель зла Вырождение (2008) HEVC 10bit.mkv

Рейтинги КП и IMDB, кнопки "Раздайте, пожалуйста" и "Спасибо", а также мультитрекерная статистика доступны только зарегистрированным/авторизованным пользователям!

ADVOKAT69
0031812.42 ГБ

💬︎ Комментарии

Добавление комментариев доступно только зарегистрированным/авторизованным пользователям.

Всего: 1
Аватар Ярослав
Ярослав
Больше спасибо от фаната франшизы!