💬 Мини-чат

OldGamerНасколько я помню, даже мой первый стик 2014 года тянул hevc, хотя и подтупливал на перемотке
OldGamerВыбирайте по цене и отзывам.
OldGamerСообщение удалено (удалил: OldGamer)
OldGamerЛюбой, всё что выпускалось за последние 3 года, вполне тянет hevc. Чуть раньше в чате ссылку давал на обсуждения на 4пда.
SAHA55Подскажите,пожалуйста какой купить медио плеер для просмотра видео в HEVC x265 с переносного жёсткого на 1 Тб. TV старый Panasonic
  • A1eksandr1
  • Blaster
Отправка сообщений доступна только зарегистрированным/авторизованным пользователям.
Онлайн (за 10 мин.): 2

Интерстеллар / Interstellar (2014) [IMAX Edition] BDRip 1080p [HEVC] 10 bit от HANNIBAL

HEVC
10 bit
Обложка Интерстеллар / Interstellar (2014) [IMAX Edition] BDRip 1080p [HEVC] 10 bit от HANNIBAL Год: 2014
Страна: США
Студия: Paramount Pictures, Warner Bros.
Жанр: Фантастика, Драма, Приключения
Продолжительность: 02:49:04

Режиссер: Кристофер Нолан
В ролях: Мэттью МакКонахи, Энн Хэтэуэй, Джессика Честейн, Маккензи Фой, Майкл Кейн, Дэвид Гяси, Уэс Бентли, Кейси Аффлек, Джон Литгоу, Мэтт Дэймон

Описание: Когда засуха приводит человечество к продовольственному кризису, коллектив исследователей и учёных отправляется сквозь червоточину (которая предположительно соединяет области пространства-времени через большое расстояние) в путешествие, чтобы превзойти прежние ограничения для космических путешествий человека и переселить человечество на другую планету


Видео: 1920x1080, 5917 Kbps
Аудио: AC3, 6 ch, 640 Kbps - РусскийРусский, Дублированный (Лицензия)
Субтитры: нет

Медиаинфо
General
Unique ID : 193710917525371580437324288643246199834 (0x91BB5D9C010DE343926D49F20496141A)
Complete name : D:\ВИДЕО\[HEVC]\Interstellar (2014) BDRip 1080p [HEVC] 10 bit [IMAX Edition].mkv
Format : Matroska
Format version : Version 4 / Version 2
File size : 7.75 GiB
Duration : 2 h 49 min
Overall bit rate : 6 559 kb/s
Encoded date : UTC 2018-06-03 11:49:57
Writing application : mkvmerge v8.9.0 ('Father Daughter') 64bit
Writing library : libebml v1.3.3 + libmatroska v1.4.4 / Lavf57.71.100
Cover : Yes
Attachments : cover.jpg
ENCODING_INFO : MPEGTS > MKV Пользовательский / H264 > X265 CBR 6000kbps Medium / AC3 > AC3 CBR 640kbps

Video
ID : 1
Format : HEVC
Format/Info : High Efficiency Video Coding
Format profile : Main 10@L5.1@Main
Codec ID : V_MPEGH/ISO/HEVC
Duration : 2 h 49 min
Bit rate : 5 917 kb/s
Width : 1 920 pixels
Height : 1 080 pixels
Display aspect ratio : 16:9
Frame rate mode : Constant
Frame rate : 23.976 (24000/1001) FPS
Color space : YUV
Chroma subsampling : 4:2:0
Bit depth : 10 bits
Bits/(Pixel*Frame) : 0.119
Stream size : 6.99 GiB (90%)
Writing library : x265 2.7+336-07defe235cde:[Windows][clang 7.0.0][64 bit] 10bit
Encoding settings : cpuid=1049583 / frame-threads=5 / numa-pools=4 / wpp / no-pmode / no-pme / no-psnr / no-ssim / log-level=3 / input-csp=1 / input-res=1920x1080 / interlace=0 / total-frames=0 / level-idc=51 / high-tier=1 / uhd-bd=0 / ref=3 / allow-non-conformance / no-repeat-headers / annexb / no-aud / no-hrd / info / hash=0 / no-temporal-layers / open-gop / min-keyint=24 / keyint=240 / gop-lookahead=0 / bframes=4 / b-adapt=2 / b-pyramid / bframe-bias=0 / rc-lookahead=20 / lookahead-slices=6 / scenecut=40 / radl=0 / no-intra-refresh / ctu=64 / min-cu-size=8 / no-rect / no-amp / max-tu-size=32 / tu-inter-depth=1 / tu-intra-depth=1 / limit-tu=0 / rdoq-level=0 / dynamic-rd=0.00 / no-ssim-rd / signhide / no-tskip / nr-intra=0 / nr-inter=0 / no-constrained-intra / strong-intra-smoothing / max-merge=2 / limit-refs=3 / no-limit-modes / me=1 / subme=2 / merange=57 / temporal-mvp / weightp / no-weightb / no-analyze-src-pics / deblock=-3:-3 / sao / no-sao-non-deblock / rd=3 / no-early-skip / rskip / no-fast-intra / no-tskip-fast / no-cu-lossless / no-b-intra / no-splitrd-skip / rdpenalty=0 / psy-rd=2.00 / psy-rdoq=0.00 / no-rd-refine / no-lossless / cbqpoffs=0 / crqpoffs=0 / rc=cbr / bitrate=6000 / qcomp=0.60 / qpstep=4 / stats-write=0 / stats-read=0 / vbv-maxrate=6000 / vbv-bufsize=4285 / vbv-init=0.9 / ipratio=1.40 / pbratio=1.30 / aq-mode=1 / aq-strength=1.00 / cutree / zone-count=0 / no-strict-cbr / qg-size=32 / no-rc-grain / qpmax=69 / qpmin=0 / no-const-vbv / sar=1 / overscan=0 / videoformat=5 / range=0 / colorprim=1 / transfer=14 / colormatrix=1 / chromaloc=0 / display-window=0 / max-cll=0,0 / min-luma=0 / max-luma=1023 / log2-max-poc-lsb=8 / vui-timing-info / vui-hrd-info / slices=1 / no-opt-qp-pps / no-opt-ref-list-length-pps / no-multi-pass-opt-rps / scenecut-bias=0.05 / no-opt-cu-delta-qp / no-aq-motion / no-hdr / no-hdr-opt / no-dhdr10-opt / no-idr-recovery-sei / analysis-reuse-level=5 / scale-factor=0 / refine-intra=0 / refine-inter=0 / refine-mv=0 / no-limit-sao / ctu-info=0 / no-lowpass-dct / refine-mv-type=0 / copy-pic=1 / max-ausize-factor=1.0 / no-dynamic-refine / no-single-sei
Default : Yes
Forced : No
Color range : Limited
Color primaries : BT.709
Transfer characteristics : BT.2020 (10-bit)
Matrix coefficients : BT.709

Audio
ID : 2
Format : AC-3
Format/Info : Audio Coding 3
Codec ID : A_AC3
Duration : 2 h 49 min
Bit rate mode : Constant
Bit rate : 640 kb/s
Channel(s) : 6 channels
Channel positions : Front: L C R, Side: L R, LFE
Sampling rate : 48.0 kHz
Frame rate : 31.250 FPS (1536 SPF)
Bit depth : 16 bits
Compression mode : Lossy
Stream size : 774 MiB (10%)
Service kind : Complete Main
Default : Yes
Forced : No
Загрузка...Cкриншот1 Интерстеллар / Interstellar (2014) [IMAX Edition] BDRip 1080p [HEVC] 10 bit от HANNIBALЗагрузка...Cкриншот2 Интерстеллар / Interstellar (2014) [IMAX Edition] BDRip 1080p [HEVC] 10 bit от HANNIBALЗагрузка...Cкриншот3 Интерстеллар / Interstellar (2014) [IMAX Edition] BDRip 1080p [HEVC] 10 bit от HANNIBALЗагрузка...Cкриншот4 Интерстеллар / Interstellar (2014) [IMAX Edition] BDRip 1080p [HEVC] 10 bit от HANNIBAL
Сэмпл Торрент🧲 Магнет

Рейтинги КП и IMDB, кнопки "Позвать в чате" и "Спасибо", а также мультитрекерная статистика доступны только зарегистрированным/авторизованным пользователям!

Файлы: 1
  • Interstellar (2014) BDRip 1080p [HEVC] 10 bit [IMAX Edition].mkv   7.75 ГБ
Поблагодарили: 12
alexyak, Binom, brukvalub, dresden, ko1ob, Makc1mka, malush, Mamedoruclu, nach, NoMaD, sasha1968, Undervest
HANNIBAL
6621107.75 ГБ

Добавление нового комментария

Добавление комментариев доступно только зарегистрированным/авторизованным пользователям.
Аватар NoMaD
  NoMaD  
RazumHak писал(а):
Много артефактов в видео. Начиная с 59:10... Штук 5-6 точно((
странно - я сам полностью не смотрел ещё,но на указанном вами времени нет у меня никаких артефактов.Раздача таже самая
Аватар не указан
  RazumHak  (Отредактировал RazumHak)    
Много артефактов в видео. Начиная с 59:10... Штук 5-6 точно((
Аватар Admin
  Admin  
Binom писал(а):
268 скачало_ и только 1 (Я) сказал спасибо...
Кнопка для Спасибо сделана лишь несколько дней назад.
Аватар не указан
  Binom  
268 скачало_ и только 1 (Я) сказал спасибо...
Аватар HANNIBAL
  HANNIBAL  
JONNY-ARINO писал(а):
ИДЕАЛЬНЫЙ РАЗМЕР! РИП СУПЕР!ФИЛЬМ СУПЕР! А ЧТО ЕЩЕ ПЛАНИРУЕТСЯ В ТАКОМ ЖЕ РАЗМЕРЕ ?
да что угодно
Аватар JONNY-ARINO
  JONNY-ARINO  
ИДЕАЛЬНЫЙ РАЗМЕР! РИП СУПЕР!ФИЛЬМ СУПЕР! А ЧТО ЕЩЕ ПЛАНИРУЕТСЯ В ТАКОМ ЖЕ РАЗМЕРЕ ?