💬 Мини-чат

Для тех, кому интересен процесс переделки сайта - https://rips.club/changelog.html (обновлен 22.02.2024)
OldGamerz1M4p9i0, и этот релиз скачался
Adminatomicheart, встал, но у Вас в профиле не видно. Вам бы перекачать.
OldGamerz1M4p9i0, Хан Соло скачался, но релиз, который был на руторе, там аудиодорожек меньше, чем тут, а видеоряд тот же. Попробуйте оттуда, я пока что сидирую.
OldGamerХан Соло откуда-то по чайной ложке в час скачивается, за сутки 50%, наблюдаем-с дальше
Adminatomicheart, завтра посмотрю, он у меня должен быть.
atomicheartРаздайте, пожалуйста, Тихое место: Дилогия / A Quiet Place: Dilogy (2018-2020) UHD-BDRip 1080p [HEVC] 10 bit [HDR] от Mr. Fox
z1M4p9i0Раздайте, пожалуйста, Хан Соло: Звёздные войны. Истории / Solo: A Star Wars Story (2018) [Локализованная версия] BDRip 1080p [HEVC] 10 bit от Cthulhu
z1M4p9i0Раздайте, пожалуйста, Терминатор: Тёмные судьбы / Terminator: Dark Fate (2019) [iTunes] UHD-BDRip 1440p [HEVC] 10 bit от HANNIBAL
OldGamerKeynol, честно говоря, пока что не планировалось, так как у нас есть отличный рип этого фильма
KeynolПриветствую! А можно сделать HEVC 10 bit на Трон Наследие Hybrid ? там файл на 31 гиг :-( на рутрекере. Хороший, но очень массивный..
  • OldGamer
  • and50
  • bassoutta
  • bronsonw200
  • InSpector
Отправка сообщений доступна только зарегистрированным/авторизованным пользователям.
Онлайн (за 10 мин.): 5

Банши / Banshee (2013) [1 сезон] BDRip 1080p [HEVC] 10 bit от OldGamer (RG RIPS CLUB)

HEVC
10 bit
Обложка Банши / Banshee (2013) [1 сезон] BDRip 1080p [HEVC] 10 bit от OldGamer (RG RIPS CLUB) Год: 2013
Страна: США
Студия: Cinemax, Your Face Goes Here Entertainment
Жанр: Боевик, Триллер, Драма, Криминал
Продолжительность: 08:32:31

Режиссер: Оле Кристиан Мадсен, Грег Яйтанс, Лони Перистер
В ролях: Энтони Старр, Ивана Миличевич, Ульрих Томсен, Хун Ли, Фрэнки Фэйзон, Лили Симмонс, Триесте Келли Данн, Рас Блэквелл, Мэтт Сервитто, Деметриус Гросс

Описание: Лукас Худ — отбывший наказание в тюрьме вор, который некогда предал своих подельников. После отсидки он приезжает в небольшой городок в Пенсильвании, носящий название Банши, где обманом получает пост местного шерифа. Но это не значит, что он забыл своё криминальное прошлое и теперь служит закону. Гангстеры, которых он когда-то предал, всё еще помнят про него и стремятся отомстить. Назревает жесткое противостояние между новоявленным шерифом и его бывшими приятелями. Спокойствие местного населения нарушается, а убийство следует за убийством, когда шериф начинает «наводить порядок» во вверенном его заботам городке.


Исходник: Blu-Ray Remux 1080p
Видео: 1920x1080, 3482-5808 Kbps
Аудио1: AC3, 6 ch, 384 Kbps - РусскийРусский, MVO (TVShows)
Аудио2: AC3, 6 ch, 384 Kbps - РусскийРусский, MVO (DadLab по заказу Amedia)
Аудио3: AC3, 6 ch, 384 Kbps - РусскийРусский, DVO (NewStudio без цензуры)
Аудио4: AC3, 2 ch, 192 Kbps - РусскийРусский, MVO (2x2 / Кравец)
Аудио5: AC3, 6 ch, 640 Kbps - АнглийскийАнглийский
Субтитры: русские, английские

Как за пару секунд удалить ненужные аудиодорожки и субтитры (Внимание! После удаления вы не сможете поддержать раздачу)

Лог (x265 info)
x265 info: frame I: 363, Avg QP:17.30 kb/s: 16610.35
x265 info: frame P: 16964, Avg QP:18.78 kb/s: 9041.68
x265 info: frame B: 68354, Avg QP:20.98 kb/s: 2464.42
x265 info: Weighted P-Frames: Y:4.6% UV:3.8%
x265 info: Weighted B-Frames: Y:2.5% UV:1.9%
x265 info: consecutive B-frames: 7.1% 6.3% 6.1% 38.2% 5.9% 10.6% 2.7% 20.5% 0.5% 0.5% 0.2% 1.3%
x265 info: encoded 85681 frames in 107611.89s (0.80 fps), 3826.59 kb/s, Avg QP:20.53
Медиаинфо
Общее
Уникальный идентификатор : 236583189129284844009729915191383610949 (0xB1FC43CBC91EA2A8CBCD15717098D645)
Полное имя : \\.\Banshee.S01E01.Pilot.mkv
Формат : Matroska
Версия формата : Version 4
Размер файла : 2,42 Гбайт
Продолжительность : 59 м. 34 с.
Общий поток : 5 816 Кбит/сек
Частота кадров : 23,976 кадра/сек
Название фильма : Banshee.S01E01.Pilot / Пилот
Трек/Положение : 1
Кодирование произвёл : OldGamer
Тип содержимого : TV Show
Описание : После 15 лет пребывания в тюрьме, главный герой выходит на свободу. В Нью-Йорке на него нападает группа гангстеров, отбившись от них, он направляется в маленький городок Банши, штат Пенсильвания.
Дата выпуска : 2013-01-11
Дата записи : 2013-01-11
Программа кодирования : mkvmerge v82.0 ('I'm The President') 64-bit
Библиотека кодирования : libebml v1.4.5 + libmatroska v1.7.1
Обложка : Yes
Attachments : cover.jpg
ACTOR : Antony Starr, Ivana Miličević, Ulrich Thomsen, Frankie Faison, Hoon Lee, Trieste Kelly Dunn, Lili Simmons, Demetrius Grosse, Matt Servitto, Ryann Shane, Rus Blackwell, Ben Cross, Matthew Rauch, Anthony Ruivivar, Daniel Ross Owens, Gabriel Suttle, Déj...
ARTIST : Antony Starr, Ivana Miličević, Ulrich Thomsen, Frankie Faison, Hoon Lee, Trieste Kelly Dunn, Lili Simmons, Demetrius Grosse, Matt Servitto, Ryann Shane, Rus Blackwell, Ben Cross, Matthew Rauch, Anthony Ruivivar, Daniel Ross Owens, Gabriel Suttle, Déj...
DIRECTOR : Greg Yaitanes
EPISODE.PART_NUM : 1
GENRE : криминал, драма
LAW_RATING : TV-MA
PRODUCER : Stephanie Laing
RATING : TV-MA
SCREENPLAY_BY : Jonathan Tropper, David Schickler
SEASON.PART_NUM : 1
SUMMARY : После 15 лет пребывания в тюрьме, главный герой выходит на свободу. В Нью-Йорке на него нападает группа гангстеров, отбившись от них, он направляется в маленький городок Банши, штат Пенсильвания.
SYNOPSIS : После 15 лет пребывания в тюрьме, главный герой выходит на свободу. В Нью-Йорке на него нападает группа гангстеров, отбившись от них, он направляется в маленький городок Банши, штат Пенсильвания.
WRITTEN_BY : Jonathan Tropper, David Schickler

Видео
Идентификатор : 1
Формат : HEVC
Формат/Информация : High Efficiency Video Coding
Профиль формата : Main 10@L4.1@High
Идентификатор кодека : V_MPEGH/ISO/HEVC
Продолжительность : 59 м. 33 с.
Битрейт : 3 827 Кбит/сек
Ширина : 1 920 пикселей
Высота : 1 080 пикселей
Соотношение сторон : 16:9
Режим частоты кадров : Постоянный
Частота кадров : 23,976 (24000/1001) кадра/сек
Цветовое пространство : YUV
Субдискретизация насыщенности : 4:2:0
Битовая глубина : 10 бит
Бит/(Пиксели*Кадры) : 0.077
Размер потока : 1,59 Гбайт (66%)
Заголовок : Banshee S01E01 / Rip by OldGamer
Библиотека кодирования : x265 2.9+9-f74003e88622:[Mac OS X][clang 10.0.0][64 bit] 10bit
Настройки программы : cpuid=1111039 / frame-threads=14 / wpp / no-pmode / no-pme / no-psnr / no-ssim / log-level=3 / input-csp=1 / input-res=1920x1080 / interlace=0 / total-frames=0 / level-idc=41 / high-tier=1 / uhd-bd=0 / ref=5 / allow-non-conformance / no-repeat-headers / annexb / no-aud / no-hrd / info / hash=0 / no-temporal-layers / open-gop / min-keyint=23 / keyint=240 / gop-lookahead=0 / bframes=11 / b-adapt=2 / b-pyramid / bframe-bias=0 / rc-lookahead=60 / lookahead-slices=6 / scenecut=40 / radl=0 / no-intra-refresh / ctu=64 / min-cu-size=8 / rect / amp / max-tu-size=32 / tu-inter-depth=4 / tu-intra-depth=4 / limit-tu=1 / rdoq-level=2 / dynamic-rd=0.00 / no-ssim-rd / signhide / no-tskip / nr-intra=0 / nr-inter=0 / no-constrained-intra / no-strong-intra-smoothing / max-merge=5 / limit-refs=2 / no-limit-modes / me=3 / subme=7 / merange=57 / temporal-mvp / weightp / weightb / no-analyze-src-pics / deblock=-3:-3 / no-sao / no-sao-non-deblock / rd=6 / no-early-skip / rskip / no-fast-intra / no-tskip-fast / no-cu-lossless / no-b-intra / no-splitrd-skip / rdpenalty=0 / psy-rd=2.00 / psy-rdoq=1.00 / no-rd-refine / no-lossless / cbqpoffs=0 / crqpoffs=0 / rc=crf / crf=20.5 / qcomp=0.65 / qpstep=4 / stats-write=0 / stats-read=0 / vbv-maxrate=50000 / vbv-bufsize=50000 / vbv-init=0.9 / crf-max=0.0 / crf-min=0.0 / ipratio=1.40 / pbratio=1.30 / aq-mode=2 / aq-strength=0.80 / no-cutree / zone-count=0 / no-strict-cbr / qg-size=32 / no-rc-grain / qpmax=69 / qpmin=0 / no-const-vbv / sar=1 / overscan=0 / videoformat=5 / range=0 / colorprim=2 / transfer=2 / colormatrix=2 / chromaloc=0 / display-window=0 / max-cll=0,0 / min-luma=0 / max-luma=1023 / log2-max-poc-lsb=8 / vui-timing-info / vui-hrd-info / slices=1 / no-opt-qp-pps / no-opt-ref-list-length-pps / no-multi-pass-opt-rps / scenecut-bias=0.00 / no-opt-cu-delta-qp / aq-motion / no-hdr / no-hdr-opt / no-dhdr10-opt / no-idr-recovery-sei / analysis-reuse-level=5 / scale-factor=0 / refine-intra=0 / refine-inter=0 / refine-mv=0 / no-limit-sao / ctu-info=0 / no-lowpass-dct / refine-mv-type=0 / copy-pic=1 / max-ausize-factor=1.0 / no-dynamic-refine / no-single-sei
Язык : English
Default : Да
Forced : Нет
Цветовой диапазон : Limited

Аудио #1
Идентификатор : 2
Формат : AC-3
Формат/Информация : Audio Coding 3
Коммерческое название : Dolby Digital
Идентификатор кодека : A_AC3
Продолжительность : 59 м. 34 с.
Вид битрейта : Постоянный
Битрейт : 384 Кбит/сек
Каналы : 6 каналов
Channel layout : L R C LFE Ls Rs
Частота : 48,0 КГц
Частота кадров : 31,250 кадров/сек (1536 SPF)
Метод сжатия : С потерями
Размер потока : 164 Мбайт (7%)
Заголовок : MVO (TVShows)
Язык : Russian
Service kind : Complete Main
Default : Нет
Forced : Нет

Аудио #2
Идентификатор : 3
Формат : AC-3
Формат/Информация : Audio Coding 3
Коммерческое название : Dolby Digital
Идентификатор кодека : A_AC3
Продолжительность : 59 м. 34 с.
Вид битрейта : Постоянный
Битрейт : 384 Кбит/сек
Каналы : 6 каналов
Channel layout : L R C LFE Ls Rs
Частота : 48,0 КГц
Частота кадров : 31,250 кадров/сек (1536 SPF)
Метод сжатия : С потерями
Размер потока : 164 Мбайт (7%)
Заголовок : MVO (DadLab по заказу Amedia)
Язык : Russian
Service kind : Complete Main
Default : Да
Forced : Нет

Аудио #3
Идентификатор : 4
Формат : AC-3
Формат/Информация : Audio Coding 3
Коммерческое название : Dolby Digital
Идентификатор кодека : A_AC3
Продолжительность : 59 м. 33 с.
Вид битрейта : Постоянный
Битрейт : 384 Кбит/сек
Каналы : 6 каналов
Channel layout : L R C LFE Ls Rs
Частота : 48,0 КГц
Частота кадров : 31,250 кадров/сек (1536 SPF)
Метод сжатия : С потерями
Размер потока : 164 Мбайт (7%)
Заголовок : MVO (NewStudio без цензуры)
Язык : Russian
Service kind : Complete Main
Default : Нет
Forced : Нет

Аудио #4
Идентификатор : 5
Формат : AC-3
Формат/Информация : Audio Coding 3
Коммерческое название : Dolby Digital
Идентификатор кодека : A_AC3
Продолжительность : 59 м. 33 с.
Вид битрейта : Постоянный
Битрейт : 192 Кбит/сек
Каналы : 2 канала
Channel layout : L R
Частота : 48,0 КГц
Частота кадров : 31,250 кадров/сек (1536 SPF)
Метод сжатия : С потерями
Размер потока : 81,8 Мбайт (3%)
Заголовок : MVO (2x2 / Кравец)
Язык : Russian
Service kind : Complete Main
Default : Нет
Forced : Нет

Аудио #5
Идентификатор : 6
Формат : AC-3
Формат/Информация : Audio Coding 3
Коммерческое название : Dolby Digital
Идентификатор кодека : A_AC3
Продолжительность : 59 м. 34 с.
Вид битрейта : Постоянный
Битрейт : 640 Кбит/сек
Каналы : 6 каналов
Channel layout : L R C LFE Ls Rs
Частота : 48,0 КГц
Частота кадров : 31,250 кадров/сек (1536 SPF)
Метод сжатия : С потерями
Размер потока : 273 Мбайт (11%)
Язык : English
Service kind : Complete Main
Default : Нет
Forced : Нет

Текст #1
Идентификатор : 7
Формат : UTF-8
Идентификатор кодека : S_TEXT/UTF8
Идентификатор кодека/Информация : UTF-8 Plain Text
Продолжительность : 55 м. 25 с.
Битрейт : 80 бит/сек
Частота кадров : 0,189 кадр/сек
Count of elements : 627
Размер потока : 32,6 Кбайт (0%)
Заголовок : RUS
Язык : Russian
Default : Нет
Forced : Нет

Текст #2
Идентификатор : 8
Формат : UTF-8
Идентификатор кодека : S_TEXT/UTF8
Идентификатор кодека/Информация : UTF-8 Plain Text
Продолжительность : 55 м. 25 с.
Битрейт : 80 бит/сек
Частота кадров : 0,189 кадр/сек
Count of elements : 627
Размер потока : 32,6 Кбайт (0%)
Заголовок : ALEXXX & Co
Язык : Russian
Default : Нет
Forced : Нет

Текст #3
Идентификатор : 9
Формат : UTF-8
Идентификатор кодека : S_TEXT/UTF8
Идентификатор кодека/Информация : UTF-8 Plain Text
Продолжительность : 55 м. 38 с.
Битрейт : 69 бит/сек
Частота кадров : 0,182 кадр/сек
Count of elements : 606
Размер потока : 28,2 Кбайт (0%)
Заголовок : FullRUS_Amedia
Язык : Russian
Default : Нет
Forced : Нет

Текст #4
Идентификатор : 10
Формат : UTF-8
Идентификатор кодека : S_TEXT/UTF8
Идентификатор кодека/Информация : UTF-8 Plain Text
Продолжительность : 55 м. 25 с.
Битрейт : 80 бит/сек
Частота кадров : 0,188 кадр/сек
Count of elements : 626
Размер потока : 32,6 Кбайт (0%)
Заголовок : FullRUS (18+)
Язык : Russian
Default : Нет
Forced : Нет

Текст #5
Идентификатор : 11
Формат : UTF-8
Идентификатор кодека : S_TEXT/UTF8
Идентификатор кодека/Информация : UTF-8 Plain Text
Продолжительность : 55 м. 25 с.
Битрейт : 46 бит/сек
Частота кадров : 0,175 кадр/сек
Count of elements : 582
Размер потока : 18,7 Кбайт (0%)
Заголовок : FullENG
Язык : English
Default : Нет
Forced : Нет

Меню
00:00:00.000 : en:00:00:00.000
00:07:38.249 : en:00:07:38.249
00:14:28.701 : en:00:14:28.701
00:23:52.598 : en:00:23:52.598
00:33:14.075 : en:00:33:14.075
00:40:05.111 : en:00:40:05.111
00:48:01.796 : en:00:48:01.796
00:58:02.979 : en:00:58:02.979
Загрузка...Cкриншот1 Банши / Banshee (2013) [1 сезон] BDRip 1080p [HEVC] 10 bit от OldGamer (RG RIPS CLUB)Загрузка...Cкриншот2 Банши / Banshee (2013) [1 сезон] BDRip 1080p [HEVC] 10 bit от OldGamer (RG RIPS CLUB)Загрузка...Cкриншот3 Банши / Banshee (2013) [1 сезон] BDRip 1080p [HEVC] 10 bit от OldGamer (RG RIPS CLUB)Загрузка...Cкриншот4 Банши / Banshee (2013) [1 сезон] BDRip 1080p [HEVC] 10 bit от OldGamer (RG RIPS CLUB)
Релиз-группа: RIPS CLUB
Сэмпл Торрент🧲 Магнет

Раздача обновлена!
Видеоряд без изменений. Добавлен перевод TVShows, замена переводов DadLab, NewStudio, 2x2. Добавлены русские Amedia и 18+ субтитры.

Рейтинги КП и IMDB, кнопки "Позвать в чате" и "Спасибо", а также мультитрекерная статистика доступны только зарегистрированным/авторизованным пользователям!

Файлы: 10
  • Banshee.S01.BDRip-HEVC.1080p
    • Banshee.S01E01.Pilot.mkv   2.42 ГБ
    • Banshee.S01E02.The.Rave.mkv   2.77 ГБ
    • Banshee.S01E03.Meet.the.New.Boss.mkv   1.84 ГБ
    • Banshee.S01E04.Half.Deaf.is.Better.Than.All.Dead.mkv   2.74 ГБ
    • Banshee.S01E05.The.Kindred.mkv   2.29 ГБ
    • Banshee.S01E06.Wicks.mkv   2.09 ГБ
    • Banshee.S01E07.Behold.a.Pale.Rider.mkv   1.99 ГБ
    • Banshee.S01E08.We.Shall.Live.Forever.mkv   2.16 ГБ
    • Banshee.S01E09.Always.the.Cowboy.mkv   1.78 ГБ
    • Banshee.S01E10.A.Mixture.of.Madness.mkv   2.21 ГБ
Поблагодарили: 16
aquarius, bad999, boxgas, D16T, Guz81, igo1615, IRIT, joker63, Kilop77, ko1ob, maximka, myself25, Nuclear70, SergKote, Winsent, zzzlayasss
OldGamer
03785420 (10)  22.29 ГБ

Добавление нового комментария

Добавление комментариев доступно только зарегистрированным/авторизованным пользователям.