💬 Мини-чат

Для тех, кому интересен процесс переделки сайта - https://rips.club/changelog.html (обновлен 22.02.2024)
OldGamerz1M4p9i0, и этот релиз скачался
Adminatomicheart, встал, но у Вас в профиле не видно. Вам бы перекачать.
OldGamerz1M4p9i0, Хан Соло скачался, но релиз, который был на руторе, там аудиодорожек меньше, чем тут, а видеоряд тот же. Попробуйте оттуда, я пока что сидирую.
OldGamerХан Соло откуда-то по чайной ложке в час скачивается, за сутки 50%, наблюдаем-с дальше
Adminatomicheart, завтра посмотрю, он у меня должен быть.
atomicheartРаздайте, пожалуйста, Тихое место: Дилогия / A Quiet Place: Dilogy (2018-2020) UHD-BDRip 1080p [HEVC] 10 bit [HDR] от Mr. Fox
z1M4p9i0Раздайте, пожалуйста, Хан Соло: Звёздные войны. Истории / Solo: A Star Wars Story (2018) [Локализованная версия] BDRip 1080p [HEVC] 10 bit от Cthulhu
z1M4p9i0Раздайте, пожалуйста, Терминатор: Тёмные судьбы / Terminator: Dark Fate (2019) [iTunes] UHD-BDRip 1440p [HEVC] 10 bit от HANNIBAL
OldGamerKeynol, честно говоря, пока что не планировалось, так как у нас есть отличный рип этого фильма
KeynolПриветствую! А можно сделать HEVC 10 bit на Трон Наследие Hybrid ? там файл на 31 гиг :-( на рутрекере. Хороший, но очень массивный..
  • Alex302
  • ancestor87
  • AndresUA
  • InSpector
  • netfigni
Отправка сообщений доступна только зарегистрированным/авторизованным пользователям.
Онлайн (за 10 мин.): 5

Банши / Banshee (2015) [3 сезон] BDRip 1080p [HEVC] 10 bit от OldGamer (RG RIPS CLUB)

HEVC
10 bit
Обложка Банши / Banshee (2015) [3 сезон] BDRip 1080p [HEVC] 10 bit от OldGamer (RG RIPS CLUB) Год: 2015
Страна: США
Студия: Cinemax, Your Face Goes Here Entertainment
Жанр: Боевик, Триллер, Драма, Криминал
Продолжительность: 08:34:58

Режиссер: Оле Кристиан Мадсен, Грег Яйтанс, Лони Перистер
В ролях: Энтони Старр, Ивана Миличевич, Ульрих Томсен, Хун Ли, Фрэнки Фэйзон, Лили Симмонс, Триесте Келли Данн, Рас Блэквелл, Мэтт Сервитто, Деметриус Гросс

Описание: Лукас Худ — отбывший наказание в тюрьме вор, который некогда предал своих подельников. После отсидки он приезжает в небольшой городок в Пенсильвании, носящий название Банши, где обманом получает пост местного шерифа. Но это не значит, что он забыл своё криминальное прошлое и теперь служит закону. Гангстеры, которых он когда-то предал, всё еще помнят про него и стремятся отомстить. Назревает жесткое противостояние между новоявленным шерифом и его бывшими приятелями. Спокойствие местного населения нарушается, а убийство следует за убийством, когда шериф начинает «наводить порядок» во вверенном его заботам городке.


Видео: 1920x1080, 4148-6271 Kbps
Аудио1: AC3, 6 ch, 384 Kbps - РусскийРусский, MVO (Пифагор по заказу Amedia)
Аудио2: AC3, 6 ch, 384 Kbps - РусскийРусский, MVO (TVShows)
Аудио3: AC3, 6 ch, 384 Kbps - РусскийРусский, MVO (NewStudio без цензуры)
Аудио4: AC3, 2 ch, 192 Kbps - РусскийРусский, MVO (2x2 / Кравец)
Аудио5: AC3, 6 ch, 640 Kbps - АнглийскийАнглийский
Субтитры: русские, английские

Как за пару секунд удалить ненужные аудиодорожки и субтитры (Внимание! После удаления вы не сможете поддержать раздачу)

Лог (x265 info)
x265 info: frame I: 308, Avg QP:17.07 kb/s: 17776.64
x265 info: frame P: 14412, Avg QP:18.59 kb/s: 10134.65
x265 info: frame B: 57748, Avg QP:20.80 kb/s: 2580.37
x265 info: Weighted P-Frames: Y:7.7% UV:6.6%
x265 info: Weighted B-Frames: Y:7.1% UV:5.6%
x265 info: consecutive B-frames: 5.9% 6.3% 7.3% 39.3% 8.0% 8.9% 4.8% 14.5% 1.8% 0.8% 0.7% 1.7%
x265 info: encoded 72468 frames in 63554.68s (1.14 fps), 4147.31 kb/s, Avg QP:20.35
Медиаинфо
Общее
Уникальный идентификатор : 276826950970995104598581625684876985426 (0xD042EE721EEEB09DD10A3EB35AEE0452)
Полное имя : \\.\Banshee.S03E01.The.Fire.Trials.mkv
Формат : Matroska
Версия формата : Version 4
Размер файла : 2,16 Гбайт
Продолжительность : 50 м. 22 с.
Общий поток : 6 136 Кбит/сек
Частота кадров : 23,976 кадра/сек
Название фильма : Banshee.S03E01.The.Fire.Trials / Испытания огнём
Трек/Положение : 3
Кодирование произвёл : OldGamer
Тип содержимого : TV Show
Описание : Лукас, Брок и Шивон расправляются с националистом, что убил Эммета и его жену. Брок спит со своей бывшей женой. Кэрри разведена с Гордоном, трудится официанткой в ресторане, где нападает на клиента, что пробует к ней приставать.
Дата выпуска : 2015-01-09
Дата записи : 2015-01-09
Программа кодирования : mkvmerge v82.0 ('I'm The President') 64-bit
Библиотека кодирования : libebml v1.4.5 + libmatroska v1.7.1
Обложка : Yes
Attachments : cover.jpg
ACTOR : Antony Starr, Ivana Miličević, Ulrich Thomsen, Frankie Faison, Hoon Lee, Trieste Kelly Dunn, Lili Simmons, Matt Servitto, Ryann Shane, Rus Blackwell, Afton Williamson, Geno Segers, Langley Kirkwood, Matthew Rauch, Anthony Ruivivar, Odette Annable, Ch...
ARTIST : Antony Starr, Ivana Miličević, Ulrich Thomsen, Frankie Faison, Hoon Lee, Trieste Kelly Dunn, Lili Simmons, Matt Servitto, Ryann Shane, Rus Blackwell, Afton Williamson, Geno Segers, Langley Kirkwood, Matthew Rauch, Anthony Ruivivar, Odette Annable, Ch...
DIRECTOR : Loni Peristere
EPISODE.PART_NUM : 1
GENRE : криминал, драма
LAW_RATING : TV-MA
PRODUCER : Robert F. Phillips
RATING : TV-MA
SCREENPLAY_BY : Jonathan Tropper
SEASON.PART_NUM : 3
SUMMARY : Лукас, Брок и Шивон расправляются с националистом, что убил Эммета и его жену. Брок спит со своей бывшей женой. Кэрри разведена с Гордоном, трудится официанткой в ресторане, где нападает на клиента, что пробует к ней приставать.
SYNOPSIS : Лукас, Брок и Шивон расправляются с националистом, что убил Эммета и его жену. Брок спит со своей бывшей женой. Кэрри разведена с Гордоном, трудится официанткой в ресторане, где нападает на клиента, что пробует к ней приставать. Ребекка просыпается в кровати с Проктором. Чейтон Литтлстоун возвращается в Банши. Он и его люди нападают на армейский конвой, убивают всех морских пехотинцев и уходят с оружием.
WRITTEN_BY : Jonathan Tropper

Видео
Идентификатор : 1
Формат : HEVC
Формат/Информация : High Efficiency Video Coding
Профиль формата : Main 10@L4.1@High
Идентификатор кодека : V_MPEGH/ISO/HEVC
Продолжительность : 50 м. 22 с.
Битрейт : 4 148 Кбит/сек
Ширина : 1 920 пикселей
Высота : 1 080 пикселей
Соотношение сторон : 16:9
Режим частоты кадров : Постоянный
Частота кадров : 23,976 (24000/1001) кадра/сек
Цветовое пространство : YUV
Субдискретизация насыщенности : 4:2:0
Битовая глубина : 10 бит
Бит/(Пиксели*Кадры) : 0.083
Размер потока : 1,46 Гбайт (68%)
Заголовок : Banshee S03E01 / Rip by OldGamer
Библиотека кодирования : x265 2.9+9-f74003e88622:[Windows][GCC 8.2.0][64 bit] 10bit
Настройки программы : cpuid=1111039 / frame-threads=14 / numa-pools=12 / wpp / no-pmode / no-pme / no-psnr / no-ssim / log-level=3 / input-csp=1 / input-res=1920x1080 / interlace=0 / total-frames=0 / level-idc=41 / high-tier=1 / uhd-bd=0 / ref=5 / allow-non-conformance / no-repeat-headers / annexb / no-aud / no-hrd / info / hash=0 / no-temporal-layers / open-gop / min-keyint=23 / keyint=240 / gop-lookahead=0 / bframes=11 / b-adapt=2 / b-pyramid / bframe-bias=0 / rc-lookahead=60 / lookahead-slices=6 / scenecut=40 / radl=0 / no-intra-refresh / ctu=64 / min-cu-size=8 / rect / amp / max-tu-size=32 / tu-inter-depth=4 / tu-intra-depth=4 / limit-tu=1 / rdoq-level=2 / dynamic-rd=0.00 / no-ssim-rd / signhide / no-tskip / nr-intra=0 / nr-inter=0 / no-constrained-intra / no-strong-intra-smoothing / max-merge=5 / limit-refs=2 / no-limit-modes / me=3 / subme=7 / merange=57 / temporal-mvp / weightp / weightb / no-analyze-src-pics / deblock=-3:-3 / no-sao / no-sao-non-deblock / rd=6 / no-early-skip / rskip / no-fast-intra / no-tskip-fast / no-cu-lossless / no-b-intra / no-splitrd-skip / rdpenalty=0 / psy-rd=2.00 / psy-rdoq=1.00 / no-rd-refine / no-lossless / cbqpoffs=0 / crqpoffs=0 / rc=crf / crf=20.5 / qcomp=0.65 / qpstep=4 / stats-write=0 / stats-read=0 / vbv-maxrate=50000 / vbv-bufsize=50000 / vbv-init=0.9 / crf-max=0.0 / crf-min=0.0 / ipratio=1.40 / pbratio=1.30 / aq-mode=2 / aq-strength=0.80 / no-cutree / zone-count=0 / no-strict-cbr / qg-size=32 / no-rc-grain / qpmax=69 / qpmin=0 / no-const-vbv / sar=1 / overscan=0 / videoformat=5 / range=0 / colorprim=2 / transfer=2 / colormatrix=2 / chromaloc=0 / display-window=0 / max-cll=0,0 / min-luma=0 / max-luma=1023 / log2-max-poc-lsb=8 / vui-timing-info / vui-hrd-info / slices=1 / no-opt-qp-pps / no-opt-ref-list-length-pps / no-multi-pass-opt-rps / scenecut-bias=0.00 / no-opt-cu-delta-qp / aq-motion / no-hdr / no-hdr-opt / no-dhdr10-opt / no-idr-recovery-sei / analysis-reuse-level=5 / scale-factor=0 / refine-intra=0 / refine-inter=0 / refine-mv=0 / no-limit-sao / ctu-info=0 / no-lowpass-dct / refine-mv-type=0 / copy-pic=1 / max-ausize-factor=1.0 / no-dynamic-refine / no-single-sei
Язык : English
Default : Да
Forced : Нет
Цветовой диапазон : Limited

Аудио #1
Идентификатор : 2
Формат : AC-3
Формат/Информация : Audio Coding 3
Коммерческое название : Dolby Digital
Идентификатор кодека : A_AC3
Продолжительность : 50 м. 22 с.
Вид битрейта : Постоянный
Битрейт : 384 Кбит/сек
Каналы : 6 каналов
Channel layout : L R C LFE Ls Rs
Частота : 48,0 КГц
Частота кадров : 31,250 кадров/сек (1536 SPF)
Метод сжатия : С потерями
Размер потока : 138 Мбайт (6%)
Заголовок : MVO (Пифагор по заказу Amedia)
Язык : Russian
Service kind : Complete Main
Default : Да
Forced : Нет

Аудио #2
Идентификатор : 3
Формат : AC-3
Формат/Информация : Audio Coding 3
Коммерческое название : Dolby Digital
Идентификатор кодека : A_AC3
Продолжительность : 50 м. 22 с.
Вид битрейта : Постоянный
Битрейт : 384 Кбит/сек
Каналы : 6 каналов
Channel layout : L R C LFE Ls Rs
Частота : 48,0 КГц
Частота кадров : 31,250 кадров/сек (1536 SPF)
Метод сжатия : С потерями
Размер потока : 138 Мбайт (6%)
Заголовок : MVO (TVShows)
Язык : Russian
Service kind : Complete Main
Default : Нет
Forced : Нет

Аудио #3
Идентификатор : 4
Формат : AC-3
Формат/Информация : Audio Coding 3
Коммерческое название : Dolby Digital
Идентификатор кодека : A_AC3
Продолжительность : 50 м. 22 с.
Вид битрейта : Постоянный
Битрейт : 384 Кбит/сек
Каналы : 6 каналов
Channel layout : L R C LFE Ls Rs
Частота : 48,0 КГц
Частота кадров : 31,250 кадров/сек (1536 SPF)
Метод сжатия : С потерями
Размер потока : 138 Мбайт (6%)
Заголовок : MVO (NewStudio без цензуры)
Язык : Russian
Service kind : Complete Main
Default : Нет
Forced : Нет

Аудио #4
Идентификатор : 5
Формат : AC-3
Формат/Информация : Audio Coding 3
Коммерческое название : Dolby Digital
Идентификатор кодека : A_AC3
Продолжительность : 50 м. 22 с.
Вид битрейта : Постоянный
Битрейт : 192 Кбит/сек
Каналы : 2 канала
Channel layout : L R
Частота : 48,0 КГц
Частота кадров : 31,250 кадров/сек (1536 SPF)
Метод сжатия : С потерями
Размер потока : 69,2 Мбайт (3%)
Заголовок : MVO (2x2 / Кравец)
Язык : Russian
Service kind : Complete Main
Default : Нет
Forced : Нет

Аудио #5
Идентификатор : 6
Формат : AC-3
Формат/Информация : Audio Coding 3
Коммерческое название : Dolby Digital
Идентификатор кодека : A_AC3
Продолжительность : 50 м. 22 с.
Вид битрейта : Постоянный
Битрейт : 640 Кбит/сек
Каналы : 6 каналов
Channel layout : L R C LFE Ls Rs
Частота : 48,0 КГц
Частота кадров : 31,250 кадров/сек (1536 SPF)
Метод сжатия : С потерями
Размер потока : 231 Мбайт (10%)
Язык : English
Service kind : Complete Main
Default : Нет
Forced : Нет

Текст #1
Идентификатор : 7
Формат : UTF-8
Идентификатор кодека : S_TEXT/UTF8
Идентификатор кодека/Информация : UTF-8 Plain Text
Продолжительность : 47 м. 7 с.
Битрейт : 86 бит/сек
Частота кадров : 0,217 кадр/сек
Count of elements : 614
Размер потока : 29,9 Кбайт (0%)
Заголовок : Full (Amedia)
Язык : Russian
Default : Нет
Forced : Нет

Текст #2
Идентификатор : 8
Формат : UTF-8
Идентификатор кодека : S_TEXT/UTF8
Идентификатор кодека/Информация : UTF-8 Plain Text
Продолжительность : 45 м. 50 с.
Битрейт : 95 бит/сек
Частота кадров : 0,192 кадр/сек
Count of elements : 527
Размер потока : 32,0 Кбайт (0%)
Заголовок : Full (CHAOS)
Язык : Russian
Default : Нет
Forced : Нет

Текст #3
Идентификатор : 9
Формат : UTF-8
Идентификатор кодека : S_TEXT/UTF8
Идентификатор кодека/Информация : UTF-8 Plain Text
Продолжительность : 48 м. 46 с.
Битрейт : 53 бит/сек
Частота кадров : 0,211 кадр/сек
Count of elements : 618
Размер потока : 19,1 Кбайт (0%)
Заголовок : Full
Язык : English
Default : Нет
Forced : Нет

Меню
00:00:00.000 : en:00:00:00.000
00:04:26.266 : en:00:04:26.266
00:13:11.874 : en:00:13:11.874
00:20:45.411 : en:00:20:45.411
00:32:39.124 : en:00:32:39.124
00:43:34.237 : en:00:43:34.237
00:48:47.633 : en:00:48:47.633
Загрузка...Cкриншот1 Банши / Banshee (2015) [3 сезон] BDRip 1080p [HEVC] 10 bit от OldGamer (RG RIPS CLUB)Загрузка...Cкриншот2 Банши / Banshee (2015) [3 сезон] BDRip 1080p [HEVC] 10 bit от OldGamer (RG RIPS CLUB)Загрузка...Cкриншот3 Банши / Banshee (2015) [3 сезон] BDRip 1080p [HEVC] 10 bit от OldGamer (RG RIPS CLUB)Загрузка...Cкриншот4 Банши / Banshee (2015) [3 сезон] BDRip 1080p [HEVC] 10 bit от OldGamer (RG RIPS CLUB)
Релиз-группа: RIPS CLUB
Сэмпл Торрент🧲 Магнет

Раздача обновлена!
Видеоряд без изменений. Добавлен перевод TVShows, замена переводов Пифагор, NewStudio, 2x2.

Рейтинги КП и IMDB, кнопки "Позвать в чате" и "Спасибо", а также мультитрекерная статистика доступны только зарегистрированным/авторизованным пользователям!

Файлы: 10
  • Banshee.S03.BDRip-HEVC.1080p
    • Banshee.S03E01.The.Fire.Trials.mkv   2.16 ГБ
    • Banshee.S03E02.Snakes.and.Whatnot.mkv   2.3 ГБ
    • Banshee.S03E03.A.Fixer.of.Sorts.mkv   3.14 ГБ
    • Banshee.S03E04.Real.Life.is.the.Nightmare.mkv   2.68 ГБ
    • Banshee.S03E05.Tribal.mkv   2.27 ГБ
    • Banshee.S03E06.We.Were.All.Someone.Else.Yesterday.mkv   2.57 ГБ
    • Banshee.S03E07.You.Can't.Hide.From.the.Dead.mkv   3.17 ГБ
    • Banshee.S03E08.All.the.Wisdom.I.Got.Left.mkv   2.77 ГБ
    • Banshee.S03E09.Even.God.Doesn't.Know.What.to.Make.of.You.mkv   2.28 ГБ
    • Banshee.S03E10.We.All.Pay.Eventually.mkv   2.96 ГБ
Поблагодарили: 4
D16T, stan177, vungtay, Winsent
OldGamer
0206246 (10)  26.31 ГБ

Добавление нового комментария

Добавление комментариев доступно только зарегистрированным/авторизованным пользователям.